Subcategories

Barbra Streisand - Barbra Streisand...And Other Musical Instruments (1973) [1989, Digitally Remastered]

Posted By: BlondStyle
Barbra Streisand - Barbra Streisand...And Other Musical Instruments (1973) [1989, Digitally Remastered]

Barbra Streisand - Barbra Streisand…And Other Musical Instruments (1973) [1989, Digitally Remastered]
Pop/Rock, Stage & Screen, Vocal | EAC Rip | FLAC, Img+CUE+LOG+Scans (PNG) | 34:45 Min | 303,32 Mb
Label: Columbia/CBS Inc. (USA) | Cat.# CK 32655 (DIDP 071935) | Released: 1989-10-24 (1973-11-02)
Barbra Streisand - Barbra Streisand...And Other Musical Instruments (1973) [1989, Digitally Remastered]

Barbra Streisand...And Other Musical Instruments (also called And Other Musical Instruments) is the fourteenth studio album by American singer Barbra Streisand. It was released on November 2, 1973 by Columbia Records. The album was made available following a 1973 live television special promoted to improve Streisand's image and sound. With world music as the primary genre, the album's instrumentation varies greatly; even items such as kitchen utensils were used to create melodies and beats. With a majority of the songs on the album being cover songs, Streisand also re-recorded various tracks that originated earlier in her career. Her manager, Martin Erlichman, was credited as the album's sole and executive producer. The album received mixed reviews from music critics. A critic from Billboard liked Streisand's tone and vocals, but others felt as if the album was ultimately forgettable. Barbra Streisand...and Other Musical Instruments is Streisand's lowest selling studio album of her entire career; it is also one of four studio albums released by the singer not to receive a certification from the Recording Industry Association of America. However, it peaked in the lower positions of both Canada and the United States. The album was eventually released as a CD in 1989.
~Wikipedia
Barbra Streisand...and Other Musical Instruments, an album drawn from Streisand's fifth and last network TV special, has the dubious distinction of being the worst-selling Barbra Streisand record in the Columbia Records catalog. The idea of the special was to have Streisand sing many of her best-known songs and other pop standards over musical accompaniment from a variety of national origins, most of them tied into the Gershwin song "I Got Rhythm." "People," for example, was sung over a Turkish-Armenian backing as a medley with "I Got Rhythm," "Don't Rain on My Parade" was played on American Indian instruments, etc. While the result was eclectic by definition, it was more gimmicky than inventive, especially when "The World Is a Concerto" was set against the sounds of household appliances! Barbra Streisand...and Other Musical Instruments was a forgettable misstep that thankfully was erased by the appearance, the same month, of Streisand's biggest hit single yet, "The Way We Were," which reestablished her as a contemporary pop singer.
~Review by William Ruhlmann

Barbra Streisand - Barbra Streisand...And Other Musical Instruments (1973) [1989, Digitally Remastered]

The Billboard 200 is a ranking of the 200 highest-selling music albums in the United States, published weekly by Billboard magazine.

Here's the numbers for this Streisand album:

Debut Chart Date: 11-24-73
No. Weeks on Billboard 200 Albums Chart: 16
Peak Chart Position: #64
Gold/Platinum: none awarded

Gold: 500,000 units shipped
Platinum: 1 million units shipped


Barbra Streisand - Barbra Streisand...And Other Musical Instruments (1973) [1989, Digitally Remastered]

Footnotes:

• Companion album to CBS TV special of same name, November 2, 1973.
• Recorded at Ellstree Studios, England, July 1973.
• Barbra remembers in Just For The Record: "The idea was to incorporate instruments and musical styles from all over the world. Although it was to be my last TV special for 13 years, it's a show I'm proud of, and particularly so because Ray Charles agreed to be part of it."
• Barbra's final note at the conclusion of the "I Got Rhythm" medley is her longest recorded sustained note (23 seconds).
• Many tracks differ from TV special versions.
• BB: 11-24-73 / 16 / #64 || no Gold or Platinum.

Barbra Streisand - Barbra Streisand...And Other Musical Instruments (1973) [1989, Digitally Remastered]

Barbra Streisand - Barbra Streisand...And Other Musical Instruments (1973) [1989, Digitally Remastered]

Release of the album: 1973, November, 2 [LP Columbia, Cat.# PC 32655, USA]
Release of this CD: 1989, October, 24 [Columbia Records/CBS Records Inc. (USA), Cat.# CK 32655 (DIDP 071935), UPC: 07464326552]
Note: Digitally remastered for compact disc by Joe Gastwirt at Digital Magnetics Studio.
℗© 1973 CBS Records Inc.
Manufactured by Columbia Records/CBS Records Inc.
Printed in U.S.A.


Credits:

Produced by – Martin Erlichman
Arranged by – Ken and Mitzie Welch
Musical Director – Jack Parnell
Original Recording Engineers & Mixers – Bill Nuttall, Bill Schnee
Cover Photo – Baron Wolman
Liner Notes – Mort Goode


Tracklist:

01. Piano Practicing (02:28)
(L. Okun)
02. I Got Rhythm (01:24)
(I. Gershwin / G. Gershwin)
03. Johnny One Note / One Note Samba (03:40)
("Johnny…" - L. Hart / R. Rodgers; "One…" - A.C. Jobim / N. Mendonca / J. Hendricks)
04. Glad To Be Unhappy (02:43)
(L. Hart / R. Rodgers)
05. People (01:52)
(B. Merrill / J. Styne)
06. Second Hand Rose (00:16)
(G. Clarke / J.F. Hanley)
07. Don't Rain On My Parade (03:42)
(B. Merrill / J. Styne)
08. Don't Ever Leave Me (00:42)
(O. Hammerstein II / J. Kern)
09. Monologue (Dialogue) (00:46)
10. By Myself (01:55)
(H. Dietz / A. Schwartz)
11. Come Back To Me (01:39)
(A.J. Lerner / B. Lane)
12. I Never Has Seen Snow (05:07)
(T. Capote / H. Arlen)
13. Lied: Auf Dem Wasser Zu Singen (01:32)
(F. Schubert)
14. The World Is A Concerto / Make Your Own Kind Of Music (04:03)
("World…" - K. Welch / M. Welch; "Make…" - B. Mann / C. Weil)
15. The Sweetest Sounds (02:56)
(R. Rodgers)

Exact Audio Copy V1.3 from 2. September 2016

EAC extraction logfile from 17. February 2018, 16:05

Barbra Streisand / Barbra Streisand…And Other Musical Instruments

Used drive : PIONEER BD-RW BDR-208D Adapter: 1 ID: 0

Read mode : Secure
Utilize accurate stream : Yes
Defeat audio cache : Yes
Make use of C2 pointers : No

Read offset correction : 667
Overread into Lead-In and Lead-Out : No
Fill up missing offset samples with silence : Yes
Delete leading and trailing silent blocks : No
Null samples used in CRC calculations : Yes
Used interface : Native Win32 interface for Win NT & 2000

Used output format : Internal WAV Routines
Sample format : 44.100 Hz; 16 Bit; Stereo


TOC of the extracted CD

Track | Start | Length | Start sector | End sector
––––––––––––––––––––––––––––-
1 | 0:00.00 | 2:28.12 | 0 | 11111
2 | 2:28.12 | 1:24.20 | 11112 | 17431
3 | 3:52.32 | 3:40.35 | 17432 | 33966
4 | 7:32.67 | 2:42.70 | 33967 | 46186
5 | 10:15.62 | 1:51.65 | 46187 | 54576
6 | 12:07.52 | 0:16.20 | 54577 | 55796
7 | 12:23.72 | 3:41.50 | 55797 | 72421
8 | 16:05.47 | 0:41.48 | 72422 | 75544
9 | 16:47.20 | 0:46.20 | 75545 | 79014
10 | 17:33.40 | 1:54.70 | 79015 | 87634
11 | 19:28.35 | 1:38.60 | 87635 | 95044
12 | 21:07.20 | 5:07.20 | 95045 | 118089
13 | 26:14.40 | 1:32.22 | 118090 | 125011
14 | 27:46.62 | 4:02.63 | 125012 | 143224
15 | 31:49.50 | 2:55.42 | 143225 | 156391


Range status and errors

Selected range

Filename D:\BlondStyle\Barbra Streisand…And Other Musical Instruments.wav

Peak level 91.9 %
Extraction speed 6.7 X
Range quality 100.0 %
Test CRC D865AB89
Copy CRC D865AB89
Copy OK

No errors occurred


AccurateRip summary

Track 1 accurately ripped (confidence 2) [8A83ED66] (AR v2)
Track 2 accurately ripped (confidence 2) [B3FE7847] (AR v2)
Track 3 accurately ripped (confidence 2) [BFBB777A] (AR v2)
Track 4 accurately ripped (confidence 2) [64530B82] (AR v2)
Track 5 accurately ripped (confidence 2) [C465D227] (AR v2)
Track 6 accurately ripped (confidence 2) [5C3AA473] (AR v2)
Track 7 accurately ripped (confidence 2) [3C509AB5] (AR v2)
Track 8 accurately ripped (confidence 2) [8ABCC452] (AR v2)
Track 9 accurately ripped (confidence 2) [EE42AD52] (AR v2)
Track 10 accurately ripped (confidence 2) [BCDA54BF] (AR v2)
Track 11 accurately ripped (confidence 2) [E5C042F2] (AR v2)
Track 12 accurately ripped (confidence 2) [8F9D6532] (AR v2)
Track 13 accurately ripped (confidence 2) [338101C8] (AR v2)
Track 14 accurately ripped (confidence 2) [193EAC24] (AR v2)
Track 15 accurately ripped (confidence 2) [D858B85F] (AR v2)

All tracks accurately ripped

End of status report

–– CUETools DB Plugin V2.1.6

[CTDB TOCID: XFiUcJGC522XZbSGxB8Ti5clcao-] found
Submit result: XFiUcJGC522XZbSGxB8Ti5clcao- has been confirmed
Track | CTDB Status
1 | (5/9) Accurately ripped
2 | (5/9) Accurately ripped
3 | (5/9) Accurately ripped
4 | (5/9) Accurately ripped
5 | (5/9) Accurately ripped
6 | (5/9) Accurately ripped
7 | (5/9) Accurately ripped
8 | (5/9) Accurately ripped
9 | (5/9) Accurately ripped
10 | (5/9) Accurately ripped
11 | (5/9) Accurately ripped
12 | (5/9) Accurately ripped
13 | (5/9) Accurately ripped
14 | (5/9) Accurately ripped
15 | (5/9) Accurately ripped


==== Log checksum 92090FC52A4D1FF87F3F50E7AFE9E5D86DD78B4BA1B1F280D9C09E2612BECF43 ====

––––––––––––––––––––––––––––––––––––––––
Analyzed: Barbra Streisand / Barbra Streisand…And Other Musical Instruments
––––––––––––––––––––––––––––––––––––––––

DR Peak RMS Duration Track
––––––––––––––––––––––––––––––––––––––––
DR11 -3.87 dB -18.41 dB 2:28 01-Piano Practicing
DR13 -1.14 dB -18.39 dB 1:24 02-I Got Rhythm
DR12 -1.93 dB -18.86 dB 3:40 03-Johnny One Note / One Note Samba
DR12 -3.35 dB -20.26 dB 2:43 04-Glad To Be Unhappy
DR12 -1.66 dB -19.34 dB 1:52 05-People
DR12 -4.41 dB -21.07 dB 0:16 06-Second Hand Rose
DR12 -0.73 dB -16.26 dB 3:42 07-Don't Rain On My Parade
DR9 -1.92 dB -16.64 dB 0:42 08-Don't Ever Leave Me
DR19 -3.20 dB -28.27 dB 0:46 09-Monologue (Dialogue)
DR11 -2.54 dB -17.79 dB 1:55 10-By Myself
DR12 -1.19 dB -18.81 dB 1:39 11-Come Back To Me
DR11 -1.40 dB -16.46 dB 5:07 12-I Never Has Seen Snow
DR14 -1.46 dB -19.30 dB 1:32 13-Lied: Auf Dem Wasser Zu Singen
DR11 -2.28 dB -16.92 dB 4:03 14-The World Is A Concerto / Make Your Own Kind Of Music
DR10 -3.85 dB -20.52 dB 2:56 15-The Sweetest Sounds
––––––––––––––––––––––––––––––––––––––––

Number of tracks: 15
Official DR value: DR12

Samplerate: 44100 Hz
Channels: 2
Bits per sample: 16
Bitrate: 764 kbps
Codec: FLAC
================================================================================

See also:



password: BlondStyle