Subcategories

Barry Goldberg - Barry Goldberg & Friends (1991) Recorded 1969

Posted By: Designol
Barry Goldberg - Barry Goldberg & Friends (1991) Recorded 1969

Barry Goldberg - Barry Goldberg & Friends (1991) Recorded 1969
feat. Mike Bloomfield, Duane Allman, Harvey Mandell, Charlie Musselwhite, Eddie Hinton

EAC | FLAC | Tracks (Cue&Log) ~ 400 Mb | Mp3 (CBR320) ~ 150 Mb | Scans included
Blues-Rock, Electric Blues | Label: Sequel Records | # nex cd 160 | Time: 01:03:00

Two of Barry Goldberg's best albums from the late '60s, Reunion and Two Jews Blues, are combined on this single disc. There's some very hot playing on these two albums, particularly from Mike Bloomfield on Two Jews Blues, but they sound a little dated and don't quite burn as hot as some blues-rock albums from the late '60s. Nevertheless, this does capture Goldberg's two best records, which makes it both a good summary of his peak and a good introduction to his sound.

Stephen Thomas Erlewine, Allmusic.com

Barry Goldberg's discography of rock jamming, recorded back when Phish and other participants in the jam band scene weren't even twinkles in anyone's eye, is an incoherent jumble of repackagings, reissues, and albums with similar titles. There may not be a single one of these albums that actually has correct credits for the instrumentalists involved; Mike Bloomfield, for example, often hides behind a pseudonym because of this or that piece of paper he signed. A simple rule may help in the location of the best of this material. If there are not that many songs, and the individual tracks are quite long, that's a good sign. If there are lots of titles, and lots of blues titles, then don't bother with it. Which brings us to this album, which from the look of its original cover was simply dumped on the market without much care or consideration. A contest between two album cover designers over who can finish an entire layout, including credits, before the coffee gets cold may have been behind the cover. The name of the bassist is left out in the process. Or is Bloomfield playing bass while Harvey Mandel is soloing, and the other way around? There are five songs in the program, two of them not much over four minutes and the rest at some kind of jam length, especially the 12-and-a-half-minute "I Got to Love My Woman." The shorties are straight blues, and are the low points of the set. The beat is not happening on the opening "Sweet Home Chicago"; it might be worth suggesting that the organist check out some records of Chicago blues to see how it should sound, but such a comment would be totally obnoxious. Surely Goldberg has listened to more records of that type of music than any music critic.

The jamming is where things really take off. Goldberg has a sound of his own on the organ and is always going somewhere interesting in his solos, provided he can keep the eager guitarists out of his way. As in his work with the Paul Butterfield Blues Band, Bloomfield uses the jams as a chance to stretch away from his B.B. King style, which is also on display, complete with bent-string elaborations that are practically byzantine. Mandel has much more personality in his playing, and is something of a master in terms of unusual tone colorings. Nonetheless, drummer "Fast" Eddie Hoh completely steals the long jam with a solo that hints at the mystery of why there are so many people in the music business with the nickname of "Fast Eddie," sounding like at least three of them are on-stage playing the drums. "Mess 'a da' Blues" is another long jam, a stock slow blues feature in which the guitarists get to chop at each other. Tracks such as this do have an appeal, but it is blues in name only; the track has no real emotional content the way an actual blues song would, and because of the athletic guitar calisthenics becomes not much more than a display of technique. The original release had no songwriting credits for any of the material.

Review by Eugene Chadbourne, Allmusic.com

Barry Goldberg - Barry Goldberg & Friends (1991) Recorded 1969



Tracks 1,2,5-7,9-11,16,18 from the LP "Two Jews Blues"
Tracks 3,4,8,12-15,17 from the LP "The Barry Goldberg Reunion"

Tracklist:

01. That's Allright Mama (2:47)
02. Maxwell Street Shuffle (2:29)
03. Hole In My Pocket (2:52)
04. It Hurts Me Too (4:16)
05. You're Still My Baby (3:21)
06. On The Road Again (1:59)
07. Sittin' In The Circles (3:44)
08. Capricorn Blues (1:57)
09. A Lighter Blue (2:41)
10. Twice A Man (4:30)
11. Fool On A Hill (3:22)
12. Sugar Coated Love (2:39)
13. Strung And Young (3:18)
14. The Answers In Your Head (3:27)
15. I Think I'm Gonna Cry (3:23)
16. Jimi The Fox (2:30)
17. Another Day (3:30)
18. Blues For Barry And … (10:15)


Exact Audio Copy V1.0 beta 1 from 15. November 2010

EAC extraction logfile from 15. September 2011, 17:17

Barry Goldberg / Barry Goldberg & Friends

Used drive : Optiarc DVD RW AD-7240S Adapter: 1 ID: 0

Read mode : Secure
Utilize accurate stream : Yes
Defeat audio cache : Yes
Make use of C2 pointers : No

Read offset correction : 48
Overread into Lead-In and Lead-Out : No
Fill up missing offset samples with silence : Yes
Delete leading and trailing silent blocks : No
Null samples used in CRC calculations : Yes
Used interface : Native Win32 interface for Win NT & 2000
Gap handling : Appended to previous track

Used output format : User Defined Encoder
Selected bitrate : 896 kBit/s
Quality : High
Add ID3 tag : No
Command line compressor : C:\Programme\Exact Audio Copy\FLAC\FLAC.EXE
Additional command line options : -8 -V -T "ARTIST=%a" -T "TITLE=%t" -T "ALBUM=%g" -T "DATE=%y" -T "TRACKNUMBER=%n" -T "TOTALTRACKS=%x" -T "GENRE=%m" -T "ALBUMARTIST=%v" -T "ALBUM ARTIST=%v" -T "COMMENT=EAC V1.0 beta 1, Secure Mode, Test & Copy, AccurateRip


TOC of the extracted CD

Track | Start | Length | Start sector | End sector
––––––––––––––––––––––––––––-
1 | 0:00.00 | 2:47.02 | 0 | 12526
2 | 2:47.02 | 2:28.43 | 12527 | 23669
3 | 5:15.45 | 2:52.15 | 23670 | 36584
4 | 8:07.60 | 4:15.70 | 36585 | 55779
5 | 12:23.55 | 3:21.30 | 55780 | 70884
6 | 15:45.10 | 1:59.20 | 70885 | 79829
7 | 17:44.30 | 3:43.45 | 79830 | 96599
8 | 21:28.00 | 1:56.65 | 96600 | 105364
9 | 23:24.65 | 2:41.10 | 105365 | 117449
10 | 26:06.00 | 4:30.00 | 117450 | 137699
11 | 30:36.00 | 3:21.65 | 137700 | 152839
12 | 33:57.65 | 2:38.60 | 152840 | 164749
13 | 36:36.50 | 3:18.25 | 164750 | 179624
14 | 39:55.00 | 3:27.37 | 179625 | 195186
15 | 43:22.37 | 3:22.63 | 195187 | 210399
16 | 46:45.25 | 2:30.32 | 210400 | 221681
17 | 49:15.57 | 3:29.43 | 221682 | 237399
18 | 52:45.25 | 10:14.60 | 237400 | 283509


Track 1

Filename C:\music\Barry Goldberg & Friends - ST (1968) [FLAC]\01 - That's Allright Mama.wav

Pre-gap length 0:00:02.00

Peak level 100.0 %
Extraction speed 1.9 X
Track quality 99.9 %
Test CRC 708B5940
Copy CRC 708B5940
Track not present in AccurateRip database
Copy OK

Track 2

Filename C:\music\Barry Goldberg & Friends - ST (1968) [FLAC]\02 - Maxwell Street Shuffle.wav

Pre-gap length 0:00:02.45

Peak level 99.0 %
Extraction speed 2.4 X
Track quality 100.0 %
Test CRC 3FB6C5C0
Copy CRC 3FB6C5C0
Track not present in AccurateRip database
Copy OK

Track 3

Filename C:\music\Barry Goldberg & Friends - ST (1968) [FLAC]\03 - Hole In My Pocket.wav

Pre-gap length 0:00:02.45

Peak level 98.2 %
Extraction speed 2.6 X
Track quality 100.0 %
Test CRC 861FE6CC
Copy CRC 861FE6CC
Track not present in AccurateRip database
Copy OK

Track 4

Filename C:\music\Barry Goldberg & Friends - ST (1968) [FLAC]\04 - It Hurts Me Too.wav

Pre-gap length 0:00:02.45

Peak level 99.4 %
Extraction speed 3.0 X
Track quality 100.0 %
Test CRC 07A07544
Copy CRC 07A07544
Track not present in AccurateRip database
Copy OK

Track 5

Filename C:\music\Barry Goldberg & Friends - ST (1968) [FLAC]\05 - You're Still My Baby.wav

Pre-gap length 0:00:03.45

Peak level 100.0 %
Extraction speed 3.1 X
Track quality 100.0 %
Test CRC EEEE896C
Copy CRC EEEE896C
Track not present in AccurateRip database
Copy OK

Track 6

Filename C:\music\Barry Goldberg & Friends - ST (1968) [FLAC]\06 - On The Road Again.wav

Pre-gap length 0:00:02.43

Peak level 99.3 %
Extraction speed 2.9 X
Track quality 100.0 %
Test CRC AE8E30FF
Copy CRC AE8E30FF
Track not present in AccurateRip database
Copy OK

Track 7

Filename C:\music\Barry Goldberg & Friends - ST (1968) [FLAC]\07 - Sittin' In The Circles.wav

Pre-gap length 0:00:03.00

Peak level 88.7 %
Extraction speed 3.4 X
Track quality 100.0 %
Test CRC 8B22CE85
Copy CRC 8B22CE85
Track not present in AccurateRip database
Copy OK

Track 8

Filename C:\music\Barry Goldberg & Friends - ST (1968) [FLAC]\08 - Capricorn Blues.wav

Pre-gap length 0:00:03.03

Peak level 100.0 %
Extraction speed 2.5 X
Track quality 99.9 %
Test CRC E409C083
Copy CRC E409C083
Track not present in AccurateRip database
Copy OK

Track 9

Filename C:\music\Barry Goldberg & Friends - ST (1968) [FLAC]\09 - A Lighter Blue.wav

Pre-gap length 0:00:02.45

Peak level 100.0 %
Extraction speed 3.4 X
Track quality 100.0 %
Test CRC 6754DEF2
Copy CRC 6754DEF2
Track not present in AccurateRip database
Copy OK

Track 10

Filename C:\music\Barry Goldberg & Friends - ST (1968) [FLAC]\10 - Twice A Man.wav

Pre-gap length 0:00:03.15

Peak level 98.6 %
Extraction speed 3.9 X
Track quality 100.0 %
Test CRC 93E9B9C6
Copy CRC 93E9B9C6
Track not present in AccurateRip database
Copy OK

Track 11

Filename C:\music\Barry Goldberg & Friends - ST (1968) [FLAC]\11 - Fool On A Hill.wav

Pre-gap length 0:00:03.10

Peak level 99.8 %
Extraction speed 3.9 X
Track quality 100.0 %
Test CRC 870105CE
Copy CRC 870105CE
Track not present in AccurateRip database
Copy OK

Track 12

Filename C:\music\Barry Goldberg & Friends - ST (1968) [FLAC]\12 - Sugar Coated Love.wav

Pre-gap length 0:00:02.43

Peak level 97.7 %
Extraction speed 3.9 X
Track quality 100.0 %
Test CRC 48FB0143
Copy CRC 48FB0143
Track not present in AccurateRip database
Copy OK

Track 13

Filename C:\music\Barry Goldberg & Friends - ST (1968) [FLAC]\13 - Strung And Young.wav

Pre-gap length 0:00:02.63

Peak level 99.5 %
Extraction speed 4.1 X
Track quality 100.0 %
Test CRC E1C8D3BD
Copy CRC E1C8D3BD
Track not present in AccurateRip database
Copy OK

Track 14

Filename C:\music\Barry Goldberg & Friends - ST (1968) [FLAC]\14 - The Answers In Your Head.wav

Pre-gap length 0:00:02.70

Peak level 100.0 %
Extraction speed 4.2 X
Track quality 100.0 %
Test CRC AC258AA3
Copy CRC AC258AA3
Track not present in AccurateRip database
Copy OK

Track 15

Filename C:\music\Barry Goldberg & Friends - ST (1968) [FLAC]\15 - I Think I'm Gonna Cry.wav

Pre-gap length 0:00:02.70

Peak level 100.0 %
Extraction speed 4.3 X
Track quality 100.0 %
Test CRC F30A2EB0
Copy CRC F30A2EB0
Track not present in AccurateRip database
Copy OK

Track 16

Filename C:\music\Barry Goldberg & Friends - ST (1968) [FLAC]\16 - Jimi The Fox.wav

Pre-gap length 0:00:02.55

Peak level 100.0 %
Extraction speed 3.5 X
Track quality 99.9 %
Test CRC 817A95D4
Copy CRC 817A95D4
Track not present in AccurateRip database
Copy OK

Track 17

Filename C:\music\Barry Goldberg & Friends - ST (1968) [FLAC]\17 - Another Day.wav

Pre-gap length 0:00:02.50

Peak level 97.1 %
Extraction speed 4.6 X
Track quality 100.0 %
Test CRC E5A40AF0
Copy CRC E5A40AF0
Track not present in AccurateRip database
Copy OK

Track 18

Filename C:\music\Barry Goldberg & Friends - ST (1968) [FLAC]\18 - Blues For Barry And ….wav

Pre-gap length 0:00:02.55

Peak level 99.7 %
Extraction speed 5.4 X
Track quality 100.0 %
Test CRC CBB4E187
Copy CRC CBB4E187
Track not present in AccurateRip database
Copy OK


None of the tracks are present in the AccurateRip database

No errors occurred

End of status report

==== Log checksum AE1C4F3AE5B40A715220D8514B5A1C432F28B9C54C6EF555D6C1C1F32E34EBE0 ====

[CUETools log; Date: 18.06.2018 23:00:56; Version: 2.1.4]
[CTDB TOCID: 69_rHYmUbbKauxkQBhcSCuKIa2Q-] found.
Track | CTDB Status
1 | (1/1) Accurately ripped
2 | (1/1) Accurately ripped
3 | (1/1) Accurately ripped
4 | (1/1) Accurately ripped
5 | (1/1) Accurately ripped
6 | (1/1) Accurately ripped
7 | (1/1) Accurately ripped
8 | (1/1) Accurately ripped
9 | (1/1) Accurately ripped
10 | (1/1) Accurately ripped
11 | (1/1) Accurately ripped
12 | (1/1) Accurately ripped
13 | (1/1) Accurately ripped
14 | (1/1) Accurately ripped
15 | (1/1) Accurately ripped
16 | (1/1) Accurately ripped
17 | (1/1) Accurately ripped
18 | (1/1) Accurately ripped
[AccurateRip ID: 002457da-01ea3fd3-1f0ec412] found.
Track [ CRC | V2 ] Status
01 [8a814849|0c736eaf] (0+0/0) No match
02 [3bad236e|04a38c8e] (0+0/0) No match
03 [45394453|73c333b8] (0+0/0) No match
04 [1a49608b|a8cbd3d7] (0+0/0) No match
05 [d23b1e52|b6482166] (0+0/0) No match
06 [b9e68efb|c7a1a40c] (0+0/0) No match
07 [66b4f160|8869261d] (0+0/0) No match
08 [82e72511|5c6d8ae1] (0+0/0) No match
09 [d5bf4662|9274289d] (0+0/0) No match
10 [e7a4877b|5df7dbea] (0+0/0) No match
11 [1924793f|355ecc07] (0+0/0) No match
12 [08a774ff|4bcc4ccd] (0+0/0) No match
13 [c528ede9|23b97faa] (0+0/0) No match
14 [0e1e5309|af7d6a5f] (0+0/0) No match
15 [185a2104|9a390348] (0+0/0) No match
16 [5f1e52e6|46468472] (0+1/1) Accurately ripped
17 [470bbeb1|86638603] (0+0/0) No match
18 [ecf82583|53a12889] (0+0/0) No match

Track Peak [ CRC32 ] [W/O NULL] [ LOG ]
– 100,0 [A819DE2E] [4D518222]
01 100,0 [708B5940] [72EBD565] CRC32
02 99,0 [3FB6C5C0] [57A54179] CRC32
03 98,2 [861FE6CC] [C7DB106A] CRC32
04 99,4 [07A07544] [2EC2FF77] CRC32
05 100,0 [EEEE896C] [68524119] CRC32
06 99,3 [AE8E30FF] [30006E22] CRC32
07 88,7 [8B22CE85] [F01E114A] CRC32
08 100,0 [E409C083] [BA4CE359] CRC32
09 100,0 [6754DEF2] [B164179B] CRC32
10 98,6 [93E9B9C6] [2C782B0B] CRC32
11 99,8 [870105CE] [280D63D1] CRC32
12 97,7 [48FB0143] [21EE4842] CRC32
13 99,5 [E1C8D3BD] [CC4DB6AB] CRC32
14 100,0 [AC258AA3] [1FD76FE8] CRC32
15 100,0 [F30A2EB0] [AFEEBEED] CRC32
16 100,0 [817A95D4] [8DB98A18] CRC32
17 97,1 [E5A40AF0] [EC6819FD] CRC32
18 99,7 [CBB4E187] [C8BCF78D] CRC32

foobar2000 1.2 / Dynamic Range Meter 1.1.1
log date: 2018-06-18 22:17:02

––––––––––––––––––––––––––––––––––––––––
Analyzed: Barry Goldberg / Barry Goldberg & Friends
––––––––––––––––––––––––––––––––––––––––

DR Peak RMS Duration Track
––––––––––––––––––––––––––––––––––––––––
DR12 0.00 dB -15.32 dB 2:47 01-That's Allright Mama
DR12 -0.09 dB -15.49 dB 2:29 02-Maxwell Street Shuffle
DR10 -0.16 dB -11.26 dB 2:52 03-Hole In My Pocket
DR10 -0.05 dB -11.73 dB 4:16 04-It Hurts Me Too
DR13 0.00 dB -15.81 dB 3:21 05-You're Still My Baby
DR13 -0.06 dB -14.49 dB 1:59 06-On The Road Again
DR9 -1.03 dB -12.36 dB 3:44 07-Sittin' In The Circles
DR10 0.00 dB -12.20 dB 1:57 08-Capricorn Blues
DR11 0.00 dB -13.08 dB 2:41 09-A Lighter Blue
DR13 -0.12 dB -16.07 dB 4:30 10-Twice A Man
DR10 -0.01 dB -12.84 dB 3:22 11-Fool On A Hill
DR10 -0.20 dB -12.71 dB 2:39 12-Sugar Coated Love
DR11 -0.04 dB -13.02 dB 3:18 13-Strung And Young
DR12 0.00 dB -14.24 dB 3:27 14-The Answers In Your Head
DR10 0.00 dB -12.75 dB 3:23 15-I Think I'm Gonna Cry
DR11 0.00 dB -14.12 dB 2:30 16-Jimi The Fox
DR10 -0.25 dB -12.23 dB 3:30 17-Another Day
DR14 -0.02 dB -16.90 dB 10:15 18-Blues For Barry And …
––––––––––––––––––––––––––––––––––––––––

Number of tracks: 18
Official DR value: DR11

Samplerate: 44100 Hz
Channels: 2
Bits per sample: 16
Bitrate: 737 kbps
Codec: FLAC
================================================================================

Barry Goldberg - Barry Goldberg & Friends (1991) Recorded 1969

Barry Goldberg - Barry Goldberg & Friends (1991) Recorded 1969

All thanks to original releaser

More interesting music in My Blog