Tags
Language
Tags
April 2024
Su Mo Tu We Th Fr Sa
31 1 2 3 4 5 6
7 8 9 10 11 12 13
14 15 16 17 18 19 20
21 22 23 24 25 26 27
28 29 30 1 2 3 4

Ben & The Platano Group - Paris Soul (1971) Reissue 1999

Posted By: Designol
Ben & The Platano Group - Paris Soul (1971) Reissue 1999

Ben & The Platano Group - Paris Soul (1971) Reissue 1999
EAC | FLAC | Tracks (Cue&Log) ~ 206 Mb | Mp3 (CBR320) ~ 94 Mb | Scans included
Jazz-Funk, Afro-Cuban Jazz, Funk | Label: DARE-DARE | # DDCD003 | Time: 00:32:26

This reissue of a classic underground Paris Latin jazz/funk album is welcome to the hundreds who have sought it out at unbelievably high prices on the collector's market. Recorded in 1970 and issued by Barclay in 1971, Paris Soul is an album that wears the test of time well. The steaming orchestral arrangements by Evaristo Nata's steaming orchestral arrangements blends some Afro-Cuban flavors (such as the Santana tribute "Salute to Santa," on which they bite a chunk from "Oye Como Va" and bend it into a near salsa jam), some Brazilian samba, Memphis soul, and post-bop jazz soloing to achieve a smoky, sexy, funky groove. There are 120 tunes here, and all of them are deep, fat, and greasy with groove. The band members, apart from their arranger, are anonymous, but it hardly matters; this isn't the kind of record you're going to put on to analyze what's happening musically. While it's complex and beautiful, you'll be throwing this on either at home or the party in order to move on the dance floor. Whether it's easy, shuffling, like "Black Waders," with its entwining organ and horn lines that sound like they could have come from some underground club version of the Alfie soundtrack, or the Brazilian-tinged "Culzean," with its flowering guitars and reeds turning through one another in a simple airy melody embossed by some serious polyrhythms, the result is the same: this is one of the finest recordings of pure groove music made on either side of the Atlantic during the early '70s. Try to picture the group War with Buddy Richs big band and you'll get the idea.

Review by Thom Jurek, Allmusic.com

Ben & The Platano Group - Paris Soul (1971) Reissue 1999


Tracklist:

01. Platano Split (04:45)
02. Salute To Santa (02:53)
03. Black Waders (03:13)
04. Woluwe Strip (02:32)
05. Cabaret (02:43)
06. Paris Soul (04:02)
07. Culzean (03:12)
08. Castill Battle (02:46)
09. Hang Out (02:18)
10. Arte Pino Pasta (03:58)


Exact Audio Copy V0.99 prebeta 4 from 23. January 2008

EAC extraction logfile from 4. July 2009, 22:33

Ben & The Platano Group / Paris Soul

Used drive : ASUS DRW-2014S1 Adapter: 1 ID: 0

Read mode : Secure
Utilize accurate stream : Yes
Defeat audio cache : Yes
Make use of C2 pointers : No

Read offset correction : 6
Overread into Lead-In and Lead-Out : No
Fill up missing offset samples with silence : Yes
Delete leading and trailing silent blocks : No
Null samples used in CRC calculations : Yes
Used interface : Installed external ASPI interface
Gap handling : Appended to previous track

Used output format : User Defined Encoder
Selected bitrate : 768 kBit/s
Quality : High
Add ID3 tag : No
Command line compressor : C:\Program Files\Exact Audio Copy\FLAC\FLAC.EXE
Additional command line options : -6 -V -T "ARTIST=%a" -T "TITLE=%t" -T "ALBUM=%g" -T "DATE=%y" -T "TRACKNUMBER=%n" -T "GENRE=%m" -T "COMMENT=%e" %s -o %d


TOC of the extracted CD

Track | Start | Length | Start sector | End sector
––––––––––––––––––––––––––––-
1 | 0:00.00 | 4:45.62 | 0 | 21436
2 | 4:45.62 | 2:53.31 | 21437 | 34442
3 | 7:39.18 | 3:13.01 | 34443 | 48918
4 | 10:52.19 | 2:32.01 | 48919 | 60319
5 | 13:24.20 | 2:43.25 | 60320 | 72569
6 | 16:07.45 | 4:02.28 | 72570 | 90747
7 | 20:09.73 | 3:12.33 | 90748 | 105180
8 | 23:22.31 | 2:46.38 | 105181 | 117668
9 | 26:08.69 | 2:18.60 | 117669 | 128078
10 | 28:27.54 | 3:58.26 | 128079 | 145954


Track 1

Filename C:\byPr0gger\Ben & The Platano Group - Paris Soul (1971, Barclay - 1999, Dare-Dare)[FLAC]\01. Platano Split.wav

Pre-gap length 0:00:02.00

Peak level 67.9 %
Track quality 100.0 %
Test CRC FE6EE16B
Copy CRC FE6EE16B
Track not present in AccurateRip database
Copy OK

Track 2

Filename C:\byPr0gger\Ben & The Platano Group - Paris Soul (1971, Barclay - 1999, Dare-Dare)[FLAC]\02. Salute To Santa.wav

Peak level 73.3 %
Track quality 100.0 %
Test CRC 1D6EA105
Copy CRC 1D6EA105
Track not present in AccurateRip database
Copy OK

Track 3

Filename C:\byPr0gger\Ben & The Platano Group - Paris Soul (1971, Barclay - 1999, Dare-Dare)[FLAC]\03. Black Waders.wav

Peak level 73.7 %
Track quality 100.0 %
Test CRC F679DE24
Copy CRC F679DE24
Track not present in AccurateRip database
Copy OK

Track 4

Filename C:\byPr0gger\Ben & The Platano Group - Paris Soul (1971, Barclay - 1999, Dare-Dare)[FLAC]\04. Woluwe Strip.wav

Peak level 71.4 %
Track quality 100.0 %
Test CRC 19FB957A
Copy CRC 19FB957A
Track not present in AccurateRip database
Copy OK

Track 5

Filename C:\byPr0gger\Ben & The Platano Group - Paris Soul (1971, Barclay - 1999, Dare-Dare)[FLAC]\05. Cabaret.wav

Peak level 62.1 %
Track quality 100.0 %
Test CRC 08368CC6
Copy CRC 08368CC6
Track not present in AccurateRip database
Copy OK

Track 6

Filename C:\byPr0gger\Ben & The Platano Group - Paris Soul (1971, Barclay - 1999, Dare-Dare)[FLAC]\06. Paris Soul.wav

Peak level 67.8 %
Track quality 100.0 %
Test CRC FE23A4BA
Copy CRC FE23A4BA
Track not present in AccurateRip database
Copy OK

Track 7

Filename C:\byPr0gger\Ben & The Platano Group - Paris Soul (1971, Barclay - 1999, Dare-Dare)[FLAC]\07. Culzean.wav

Peak level 69.5 %
Track quality 100.0 %
Test CRC 55D71AB1
Copy CRC 55D71AB1
Track not present in AccurateRip database
Copy OK

Track 8

Filename C:\byPr0gger\Ben & The Platano Group - Paris Soul (1971, Barclay - 1999, Dare-Dare)[FLAC]\08. Castill Battle.wav

Peak level 59.8 %
Track quality 100.0 %
Test CRC 6AFE1F36
Copy CRC 6AFE1F36
Track not present in AccurateRip database
Copy OK

Track 9

Filename C:\byPr0gger\Ben & The Platano Group - Paris Soul (1971, Barclay - 1999, Dare-Dare)[FLAC]\09. Hang Out.wav

Peak level 62.8 %
Track quality 99.9 %
Test CRC B1BAF0C4
Copy CRC B1BAF0C4
Track not present in AccurateRip database
Copy OK

Track 10

Filename C:\byPr0gger\Ben & The Platano Group - Paris Soul (1971, Barclay - 1999, Dare-Dare)[FLAC]\10. Arte Pino Pasta.wav

Peak level 73.0 %
Track quality 100.0 %
Test CRC DD8C195B
Copy CRC DD8C195B
Track not present in AccurateRip database
Copy OK


None of the tracks are present in the AccurateRip database

No errors occurred

End of status report

[CUETools log; Date: 13.12.2016 18:48:56; Version: 2.1.4]
[CTDB TOCID: cK9UM6K.WW9BUWlyuQ28xgSX5NU-] found.
Track | CTDB Status
1 | (1/1) Accurately ripped
2 | (1/1) Accurately ripped
3 | (1/1) Accurately ripped
4 | (1/1) Accurately ripped
5 | (1/1) Accurately ripped
6 | (1/1) Accurately ripped
7 | (1/1) Accurately ripped
8 | (1/1) Accurately ripped
9 | (1/1) Accurately ripped
10 | (1/1) Accurately ripped
[AccurateRip ID: 000c97e9-00633224-7f079a0a] found.
Track [ CRC | V2 ] Status
01 [8418fa7c|44c8a239] (1+1/2) Accurately ripped
02 [a1f723de|2cbb244f] (1+1/2) Accurately ripped
03 [c9186ac3|6ae2db09] (1+1/2) Accurately ripped
04 [dc89c748|3599f7dd] (1+1/2) Accurately ripped
05 [9051c2e7|c1a16300] (1+1/2) Accurately ripped
06 [f7e32b22|8b87d8d9] (1+1/2) Accurately ripped
07 [becd4119|2cb3bf60] (1+1/2) Accurately ripped
08 [9dcc4dc0|167e6c1e] (1+1/2) Accurately ripped
09 [c7f89ee9|66fa257f] (1+1/2) Accurately ripped
10 [87a5b523|0e295607] (1+1/2) Accurately ripped

Track Peak [ CRC32 ] [W/O NULL] [ LOG ]
– 73,7 [889C6811] [68C64862]
01 67,9 [FE6EE16B] [6C524F62] CRC32
02 73,3 [1D6EA105] [1D9A7917] CRC32
03 73,7 [F679DE24] [61C4E2FE] CRC32
04 71,4 [19FB957A] [83E6AE58] CRC32
05 62,1 [08368CC6] [D21CE1A2] CRC32
06 67,8 [FE23A4BA] [2CE6B6DA] CRC32
07 69,5 [55D71AB1] [55344B2A] CRC32
08 59,8 [6AFE1F36] [E9F94352] CRC32
09 62,8 [B1BAF0C4] [4461041B] CRC32
10 73,0 [DD8C195B] [55CE0D78] CRC32

foobar2000 1.2 / Dynamic Range Meter 1.1.1
log date: 2016-12-13 16:50:25

––––––––––––––––––––––––––––––––––––––––
Analyzed: Ben & The Platano Group / Paris Soul
––––––––––––––––––––––––––––––––––––––––

DR Peak RMS Duration Track
––––––––––––––––––––––––––––––––––––––––
DR11 -3.36 dB -16.66 dB 4:46 01-Platano Split
DR12 -2.69 dB -17.02 dB 2:53 02-Salute To Santa
DR12 -2.65 dB -17.13 dB 3:13 03-Black Waders
DR12 -2.92 dB -16.61 dB 2:32 04-Woluwe Strip
DR10 -4.13 dB -16.32 dB 2:43 05-Cabaret
DR11 -3.37 dB -16.50 dB 4:02 06-Paris Soul
DR11 -3.16 dB -16.54 dB 3:12 07-Culzean
DR11 -4.46 dB -18.35 dB 2:47 08-Castill Battle
DR12 -4.03 dB -18.16 dB 2:19 09-Hang Out
DR12 -2.73 dB -17.12 dB 3:58 10-Arte Pino Pasta
––––––––––––––––––––––––––––––––––––––––

Number of tracks: 10
Official DR value: DR11

Samplerate: 44100 Hz
Channels: 2
Bits per sample: 16
Bitrate: 882 kbps
Codec: FLAC
================================================================================

Ben & The Platano Group - Paris Soul (1971) Reissue 1999

All thanks to original releaser - pr0gger

More interesting music in My Blog