Tags
Language
Tags

Bernard Herrmann - North By Northwest: Original Motion Picture Soundtrack (1959/2012)

Posted By: Efgrapha
Bernard Herrmann - North By Northwest: Original Motion Picture Soundtrack (1959/2012)

Bernard Herrmann - North By Northwest: Original Motion Picture Soundtrack (1959/2012)
EAC | FLAC (Image) + cue.+log ~ 330 Mb | Scans included | Time: 01:09:15
Soundtrack, Score | Label: Intrada Special Collection | # Vol. 207

Oft-recorded Bernard Herrmann masterpiece finally gets complete release in dynamic stereo from new masters! Previous release on Rhino label was spectacular album, albeit several major set pieces (including main title & climactic Mount Rushmore sequence) were transferred from damaged elements, all that was then available. Thanks to Warner Bros., new stereo mixes have been made available for first time ever, revealing spectacular sonics (for 1959) and illuminating new details of magnificent score never before captured. While score has also been digitally re-recorded twice under different conductors, neither version can match crisp, exciting performance of MGM Studio musicians under baton of Herrmann himself. Hear harp arpeggios, castenets, wood blocks, snare drums like never before. Get entire climax with punch of bass trombone, thrilling trumpets amidst swirling variety of tempos that keep tension, excitement of Hitchcock's incredible action set-piece moving at fierce pace. Alfred Hitchcock's brilliant film stars Cary Grant, Eva Marie Saint, James Mason, young Martin Landau and is regarded as one of director's greatest achievements. Crop-dusting scene, Mount Rushmore climax are movie icons. Romance between Grant, Saint is heartfelt, all the more so with Herrmann's tender love theme for strings. Composer is also major part of excitement, suspense of wild tale. Under loving guidance of Neil Bulk & Lukas Kendall, Herrmann's score comes home at last not only with best sound possible but also with first-ever reproduction of original MGM artwork campaign, color stills, informative notes by Frank De Wald, complete cue assembly details plus musician's list. The final word on North By Northwest! Bernard Herrmann conducts. Intrada Special Collection release available while quantities and interest remains.

Bernard Herrmann - North By Northwest: Original Motion Picture Soundtrack (1959/2012)


Bernard Herrmann at Allmusic
Bernard Herrmann at Wiki

Film at IMDB
Film at Wiki

Tracklist:

01. Overture - Main Title (02:17)
02. The Streets (01:04)
03. Kidnapped (02:15)
04. The Door / Cheers (01:22)
05. The Wild Ride / Car Crash (03:11)
06. The Return / Two Dollars (01:13)
07. The Elevator (00:47)
08. The U.N. / Information Desk (01:52)
09. The Knife (00:49)
10. Interlude (01:16)
11. Detectives / Conversation Piece / Duo (04:40)
12. The Station / The Phone Booth / Farewell (02:52)
13. The Crash / Hotel Lobby (03:12)
14. The Reunion / Goodbye / The Question (02:32)
15. The Pad & Pencil / The Auction / The Police (02:35)
16. The Airport (01:00)
17. The Cafeteria / The Shooting (02:21)
18. The Forest (01:23)
19. Flight / The Ledge (01:28)
20. The House (03:12)
21. The Balcony / The Match Box (02:44)
22. The Message / The T.V. / The Airplane (02:37)
23. The Gates / The Stone Faces / The Ridge / On The Rocks / The Cliff / Finale (08:55)

The Extras:
24. It's A Most Unusual Day (Source) (01:10)
25. Rosalie (Source) (01:33)
26. In The Still Of The Night (Source) (02:24)
27. Fashion Show (Source) (05:20)
28. The Crash (Alternate Take) (01:48)


Exact Audio Copy V1.0 beta 3 from 29. August 2011

EAC extraction logfile from 24. March 2013, 14:24

Bernard Herrmann / North By Northwest

Used drive : TSSTcorpCDDVDW SH-S202H Adapter: 0 ID: 0

Read mode : Secure
Utilize accurate stream : Yes
Defeat audio cache : Yes
Make use of C2 pointers : No

Read offset correction : 6
Overread into Lead-In and Lead-Out : No
Fill up missing offset samples with silence : Yes
Delete leading and trailing silent blocks : No
Null samples used in CRC calculations : Yes
Used interface : Native Win32 interface for Win NT & 2000

Used output format : Internal WAV Routines
Sample format : 44.100 Hz; 16 Bit; Stereo


TOC of the extracted CD

Track | Start | Length | Start sector | End sector
––––––––––––––––––––––––––––-
1 | 0:00.00 | 2:19.62 | 0 | 10486
2 | 2:19.62 | 1:07.40 | 10487 | 15551
3 | 3:27.27 | 2:18.65 | 15552 | 25966
4 | 5:46.17 | 1:26.66 | 25967 | 32482
5 | 7:13.08 | 3:13.20 | 32483 | 46977
6 | 10:26.28 | 1:15.68 | 46978 | 52670
7 | 11:42.21 | 0:49.54 | 52671 | 56399
8 | 12:32.00 | 1:55.10 | 56400 | 65034
9 | 14:27.10 | 0:52.30 | 65035 | 68964
10 | 15:19.40 | 1:18.61 | 68965 | 74875
11 | 16:38.26 | 4:42.57 | 74876 | 96082
12 | 21:21.08 | 2:55.31 | 96083 | 109238
13 | 24:16.39 | 3:14.27 | 109239 | 123815
14 | 27:30.66 | 2:32.33 | 123816 | 135248
15 | 30:03.24 | 2:37.58 | 135249 | 147081
16 | 32:41.07 | 1:02.35 | 147082 | 151766
17 | 33:43.42 | 2:23.74 | 151767 | 162565
18 | 36:07.41 | 1:25.24 | 162566 | 168964
19 | 37:32.65 | 1:30.31 | 168965 | 175745
20 | 39:03.21 | 3:14.62 | 175746 | 190357
21 | 42:18.08 | 2:45.66 | 190358 | 202798
22 | 45:03.74 | 2:38.69 | 202799 | 214717
23 | 47:42.68 | 9:02.10 | 214718 | 255377
24 | 56:45.03 | 1:13.34 | 255378 | 260886
25 | 57:58.37 | 1:36.25 | 260887 | 268111
26 | 59:34.62 | 2:26.52 | 268112 | 279113
27 | 62:01.39 | 5:24.58 | 279114 | 303471
28 | 67:26.22 | 1:48.71 | 303472 | 311642


Range status and errors

Selected range

Filename D:\Bernard Herrmann - North By Northwest\Bernard Herrmann - North By Northwest.wav

Peak level 100.0 %
Extraction speed 8.1 X
Range quality 100.0 %
Test CRC 6245BE01
Copy CRC 6245BE01
Copy OK

No errors occurred


AccurateRip summary

Track 1 accurately ripped (confidence 2) [0E5668D8] (AR v1)
Track 2 accurately ripped (confidence 2) [CD9AC47F] (AR v1)
Track 3 accurately ripped (confidence 2) [D923FA71] (AR v1)
Track 4 accurately ripped (confidence 2) [D3259F4E] (AR v1)
Track 5 accurately ripped (confidence 2) [13C3D20E] (AR v1)
Track 6 accurately ripped (confidence 2) [E6372C3A] (AR v1)
Track 7 accurately ripped (confidence 2) [4A40EFA5] (AR v1)
Track 8 accurately ripped (confidence 2) [8AE5CEB4] (AR v1)
Track 9 accurately ripped (confidence 2) [19988572] (AR v1)
Track 10 accurately ripped (confidence 2) [4D9119B1] (AR v1)
Track 11 accurately ripped (confidence 2) [64A578B6] (AR v1)
Track 12 accurately ripped (confidence 2) [300C9B5D] (AR v1)
Track 13 accurately ripped (confidence 2) [B037C045] (AR v1)
Track 14 accurately ripped (confidence 2) [5BF7EA98] (AR v1)
Track 15 accurately ripped (confidence 2) [DC3F5AD6] (AR v1)
Track 16 accurately ripped (confidence 2) [B909A57E] (AR v1)
Track 17 accurately ripped (confidence 2) [73F82453] (AR v1)
Track 18 accurately ripped (confidence 2) [278764A4] (AR v1)
Track 19 accurately ripped (confidence 2) [DC3C6900] (AR v1)
Track 20 accurately ripped (confidence 2) [7D89C2F2] (AR v1)
Track 21 accurately ripped (confidence 2) [F64CFA27] (AR v1)
Track 22 accurately ripped (confidence 2) [F3BC30CB] (AR v1)
Track 23 accurately ripped (confidence 2) [AA870FB9] (AR v1)
Track 24 accurately ripped (confidence 2) [B7214D1E] (AR v1)
Track 25 accurately ripped (confidence 2) [3E7F4B39] (AR v1)
Track 26 accurately ripped (confidence 2) [A88CE750] (AR v1)
Track 27 accurately ripped (confidence 2) [6307C33F] (AR v1)
Track 28 accurately ripped (confidence 2) [01DBCE77] (AR v1)

All tracks accurately ripped

End of status report

==== Log checksum 5A97091652787EC19396F7556EEBCE392CAA73A2008079BAD9971165C6258E07 ====

foobar2000 1.2 / Dynamic Range Meter 1.1.1
log date: 2013-06-23 18:37:07

––––––––––––––––––––––––––––––––––––––––
Analyzed: Bernard Herrmann / North By Northwest
––––––––––––––––––––––––––––––––––––––––

DR Peak RMS Duration Track
––––––––––––––––––––––––––––––––––––––––
DR11 0.00 dB -14.11 dB 2:20 01-Overture - Main Title
DR10 -5.70 dB -19.98 dB 1:08 02-The Streets
DR11 -1.29 dB -18.83 dB 2:19 03-Kidnapped
DR14 -2.79 dB -24.05 dB 1:27 04-The Door / Cheers
DR11 0.00 dB -13.83 dB 3:13 05-The Wild Ride / Car Crash
DR12 -0.14 dB -19.93 dB 1:16 06-The Return / Two Dollars
DR10 -4.00 dB -23.25 dB 0:50 07-The Elevator
DR11 -1.46 dB -18.36 dB 1:55 08-The U.N. / Information Desk
DR11 0.00 dB -16.04 dB 0:52 09-The Knife
DR9 -10.93 dB -24.55 dB 1:19 10-Interlude
DR12 -1.20 dB -19.76 dB 4:43 11-Detectives / Conversation Piece / Duo
DR14 -3.40 dB -25.13 dB 2:55 12-The Station / The Phone Booth / Farewell
DR14 0.00 dB -20.75 dB 3:14 13-The Crash / Hotel Lobby
DR11 -13.51 dB -31.29 dB 2:32 14-The Reunion / Goodbye / The Question
DR13 -12.22 dB -29.83 dB 2:38 15-The Pad & Pencil / The Auction / The Police
DR12 -4.68 dB -23.18 dB 1:02 16-The Airport
DR15 0.00 dB -20.23 dB 2:24 17-The Cafeteria / The Shooting
DR10 -10.55 dB -25.50 dB 1:25 18-The Forest
DR13 0.00 dB -22.17 dB 1:30 19-Flight / The Ledge
DR15 -0.52 dB -24.23 dB 3:15 20-The House
DR11 -12.49 dB -28.49 dB 2:46 21-The Balcony / The Match Box
DR13 0.00 dB -19.04 dB 2:39 22-The Message / The T.V. / The Airplane
DR12 0.00 dB -15.50 dB 9:02 23-The Gates / The Stone Faces / The Ridge / On The Rocks / The Cliff / Finale
DR12 0.00 dB -17.55 dB 1:49 28-The Crash (Alternate Take)
––––––––––––––––––––––––––––––––––––––––

Number of tracks: 24
Official DR value: DR12

Samplerate: 44100 Hz
Channels: 2
Bits per sample: 16
Bitrate: 631 kbps
Codec: FLAC
================================================================================

––––––––––––––––––––––––––––––––––––––––
Analyzed: Cole Porter / North By Northwest
––––––––––––––––––––––––––––––––––––––––

DR Peak RMS Duration Track
––––––––––––––––––––––––––––––––––––––––
DR11 -5.92 dB -19.70 dB 1:36 25-Rosalie (Source)
DR11 -6.54 dB -20.81 dB 2:27 26-In The Still Of The Night (Source)
––––––––––––––––––––––––––––––––––––––––

Number of tracks: 2
Official DR value: DR11

Samplerate: 44100 Hz
Channels: 2
Bits per sample: 16
Bitrate: 631 kbps
Codec: FLAC
================================================================================

––––––––––––––––––––––––––––––––––––––––
Statistics for: 24-It's A Most Unusual Day (Source)
Number of samples: 3239292
Duration: 1:13
––––––––––––––––––––––––––––––––––––––––

Left Right

Peak Value: -9.18 dB –- -9.18 dB
Avg RMS: -23.70 dB –- -23.70 dB
DR channel: 11.93 dB –- 11.93 dB
––––––––––––––––––––––––––––––––––––––––

Official DR Value: DR12

Samplerate: 44100 Hz
Channels: 2
Bits per sample: 16
Bitrate: 631 kbps
Codec: FLAC
================================================================================
foobar2000 1.2 / Dynamic Range Meter 1.1.1
log date: 2013-06-23 18:36:51

––––––––––––––––––––––––––––––––––––––––
Statistics for: 27-Fashion Show (Source)
Number of samples: 14322504
Duration: 5:25
––––––––––––––––––––––––––––––––––––––––

Left Right

Peak Value: -9.38 dB –- -9.38 dB
Avg RMS: -22.58 dB –- -22.58 dB
DR channel: 10.97 dB –- 10.97 dB
––––––––––––––––––––––––––––––––––––––––

Official DR Value: DR11

Samplerate: 44100 Hz
Channels: 2
Bits per sample: 16
Bitrate: 631 kbps
Codec: FLAC
================================================================================

Bernard Herrmann - North By Northwest: Original Motion Picture Soundtrack (1959/2012)

Bernard Herrmann - North By Northwest: Original Motion Picture Soundtrack (1959/2012)

All thanks to original uploader - Composer's fan

More Movies & Soundtracks in Efgrapha Blog