Tags
Language
Tags

RSNO, Joel McNeely - Bernard Herrmann - Psycho: The Complete Original Motion Picture Score (1960) First Complete Recording 1997

Posted By: Efgrapha
RSNO, Joel McNeely - Bernard Herrmann - Psycho: The Complete Original Motion Picture Score (1960) First Complete Recording 1997

Bernard Herrmann - Psycho: The Complete Original Motion Picture Score (1960)
Royal Scottish National Orchestra, conducted by Joel McNeely

First Complete Recording 1997
EAC | FLAC (Tracks) + cue.+log ~ 268 Mb | Mp3, CBR320 kbps ~ 145 Mb | Scans included
Soundtrack, Score | Label: Varèse Sarabande | # VSD-5765 | Time: 01:01:10

Varese's original soundtrack to Psycho finds Joel McNeely conducting the Royal Scottish National Orchestra through Bernard Herrmann's classic original score. This album is the first time the entire score has been recorded for an album and its remarkable how eerie and evocative the music is, even when its separated from the film. Psycho stands as one of Herrmann's finest moments, and even if many collectors and film buffs would prefer the original soundtrack recording, this version is essential for fans of the composer, since it is the clearest, cleanest edition of score yet produced.

Review by Stephen Thomas Erlewine, Allmusic.com

RSNO, Joel McNeely - Bernard Herrmann - Psycho: The Complete Original Motion Picture Score (1960) First Complete Recording 1997



RSNO, Joel McNeely - Bernard Herrmann - Psycho: The Complete Original Motion Picture Score (1960) First Complete Recording 1997



Tracklist:

01. Prelude (01:56)
02. The City (02:12)
03. Marion (01:35)
04. Marion and Sam (01:53)
05. Temptation (02:51)
06. Flight (01:08)
07. Patrol Car (01:06)
08. The Car Lot (01:45)
09. The Package (01:31)
10. The Rainstorm (03:11)
11. Hotel Room (02:04)
12. The Window (01:12)
13. The Parlor (01:38)
14. The Madhouse (01:54)
15. The Peephole (03:02)
16. The Bathroom (01:02)
17. The Murder (01:03)
18. The Body (00:17)
19. The Office (01:20)
20. The Curtain (01:15)
21. The Water (01:45)
22. The Car (00:52)
23. Cleanup (02:15)
24. The Swamp (02:04)
25. The Search (00:41)
26. The Shadow (00:50)
27. Phone Booth (00:54)
28. The Porch (01:04)
29. The Stairs (02:58)
30. The Knife (00:30)
31. The Search (B) (01:40)
32. The First Floor (02:45)
33. Cabin 10 (01:09)
34. Cabin 1 (01:06)
35. The Hill (01:05)
36. The Bedroom (00:59)
37. The Toys (01:02)
38. The Cellar (01:06)
39. Discovery (00:41)
40. Finale (01:32)


Exact Audio Copy V0.99 prebeta 5 from 4. May 2009

EAC extraction logfile from 17. August 2009, 15:41

Bernard Herrmann / Psycho The Joel McNeely

Used drive : TSSTcorpCDDVDW TS-L633A Adapter: 2 ID: 0

Read mode : Secure
Utilize accurate stream : Yes
Defeat audio cache : Yes
Make use of C2 pointers : No

Read offset correction : 6
Overread into Lead-In and Lead-Out : No
Fill up missing offset samples with silence : Yes
Delete leading and trailing silent blocks : No
Null samples used in CRC calculations : No
Used interface : Native Win32 interface for Win NT & 2000
Gap handling : Appended to previous track

Used output format : User Defined Encoder
Selected bitrate : 320 kBit/s
Quality : High
Add ID3 tag : No
Command line compressor : C:\Program Files\Exact Audio Copy\FLAC\FLAC.EXE
Additional command line options : -V -8 -T "artist=%a" -T "title=%t" -T "album=%g" -T "date=%y" -T "tracknumber=%n" -T "genre=%m" %s


TOC of the extracted CD

Track | Start | Length | Start sector | End sector
––––––––––––––––––––––––––––-
1 | 0:00.00 | 1:56.25 | 0 | 8724
2 | 1:56.25 | 2:12.48 | 8725 | 18672
3 | 4:08.73 | 1:35.62 | 18673 | 25859
4 | 5:44.60 | 1:53.55 | 25860 | 34389
5 | 7:38.40 | 2:51.05 | 34390 | 47219
6 | 10:29.45 | 1:08.15 | 47220 | 52334
7 | 11:37.60 | 1:06.05 | 52335 | 57289
8 | 12:43.65 | 1:45.38 | 57290 | 65202
9 | 14:29.28 | 1:31.67 | 65203 | 72094
10 | 16:01.20 | 3:11.05 | 72095 | 86424
11 | 19:12.25 | 2:04.08 | 86425 | 95732
12 | 21:16.33 | 1:12.40 | 95733 | 101172
13 | 22:28.73 | 1:38.52 | 101173 | 108574
14 | 24:07.50 | 1:54.48 | 108575 | 117172
15 | 26:02.23 | 3:02.17 | 117173 | 130839
16 | 29:04.40 | 1:02.43 | 130840 | 135532
17 | 30:07.08 | 1:03.10 | 135533 | 140267
18 | 31:10.18 | 0:17.10 | 140268 | 141552
19 | 31:27.28 | 1:20.40 | 141553 | 147592
20 | 32:47.68 | 1:15.17 | 147593 | 153234
21 | 34:03.10 | 1:45.58 | 153235 | 161167
22 | 35:48.68 | 0:52.45 | 161168 | 165112
23 | 36:41.38 | 2:15.07 | 165113 | 175244
24 | 38:56.45 | 2:04.35 | 175245 | 184579
25 | 41:01.05 | 0:41.63 | 184580 | 187717
26 | 41:42.68 | 0:50.07 | 187718 | 191474
27 | 42:33.00 | 0:54.03 | 191475 | 195527
28 | 43:27.03 | 1:04.45 | 195528 | 200372
29 | 44:31.48 | 2:58.05 | 200373 | 213727
30 | 47:29.53 | 0:30.57 | 213728 | 216034
31 | 48:00.35 | 1:40.03 | 216035 | 223537
32 | 49:40.38 | 2:45.25 | 223538 | 235937
33 | 52:25.63 | 1:09.30 | 235938 | 241142
34 | 53:35.18 | 1:06.22 | 241143 | 246114
35 | 54:41.40 | 1:05.13 | 246115 | 251002
36 | 55:46.53 | 0:59.72 | 251003 | 255499
37 | 56:46.50 | 1:02.50 | 255500 | 260199
38 | 57:49.25 | 1:06.25 | 260200 | 265174
39 | 58:55.50 | 0:41.63 | 265175 | 268312
40 | 59:37.38 | 1:32.25 | 268313 | 275237


Track 1

Filename C:\Bernard Herrmann - 1960 - Psycho The Joel McNeely\01 - Prelude.wav

Peak level 92.5 %
Track quality 100.0 %
Test CRC 183A6137
Copy CRC 183A6137
Accurately ripped (confidence 2) [0B747EF5]
Copy OK

Track 2

Filename C:\Bernard Herrmann - 1960 - Psycho The Joel McNeely\02 - The City.wav

Peak level 51.6 %
Track quality 100.0 %
Test CRC AC58CBD6
Copy CRC AC58CBD6
Accurately ripped (confidence 2) [6F3AFC91]
Copy OK

Track 3

Filename C:\Bernard Herrmann - 1960 - Psycho The Joel McNeely\03 - Marion.wav

Peak level 36.7 %
Track quality 100.0 %
Test CRC 1FE1CB3E
Copy CRC 1FE1CB3E
Accurately ripped (confidence 2) [BB4BC358]
Copy OK

Track 4

Filename C:\Bernard Herrmann - 1960 - Psycho The Joel McNeely\04 - Marion and Sam.wav

Peak level 32.9 %
Track quality 100.0 %
Test CRC 5F2C1D69
Copy CRC 5F2C1D69
Accurately ripped (confidence 2) [F66F8361]
Copy OK

Track 5

Filename C:\Bernard Herrmann - 1960 - Psycho The Joel McNeely\05 - Temptation.wav

Peak level 29.4 %
Track quality 100.0 %
Test CRC D46E0437
Copy CRC D46E0437
Accurately ripped (confidence 2) [31DBFB77]
Copy OK

Track 6

Filename C:\Bernard Herrmann - 1960 - Psycho The Joel McNeely\06 - Flight.wav

Peak level 92.5 %
Track quality 100.0 %
Test CRC 7F4815C1
Copy CRC 7F4815C1
Accurately ripped (confidence 2) [684EE5AF]
Copy OK

Track 7

Filename C:\Bernard Herrmann - 1960 - Psycho The Joel McNeely\07 - Patrol Car.wav

Peak level 92.8 %
Track quality 99.8 %
Test CRC BEC939A2
Copy CRC BEC939A2
Accurately ripped (confidence 2) [6D50C2CF]
Copy OK

Track 8

Filename C:\Bernard Herrmann - 1960 - Psycho The Joel McNeely\08 - The Car Lot.wav

Peak level 41.1 %
Track quality 100.0 %
Test CRC E681C480
Copy CRC E681C480
Accurately ripped (confidence 2) [19E7C141]
Copy OK

Track 9

Filename C:\Bernard Herrmann - 1960 - Psycho The Joel McNeely\09 - The Package.wav

Peak level 22.3 %
Track quality 100.0 %
Test CRC 93DC052B
Copy CRC 93DC052B
Accurately ripped (confidence 2) [D56620E3]
Copy OK

Track 10

Filename C:\Bernard Herrmann - 1960 - Psycho The Joel McNeely\10 - The Rainstorm.wav

Peak level 90.9 %
Track quality 100.0 %
Test CRC 9DAAF586
Copy CRC 9DAAF586
Accurately ripped (confidence 2) [7C5A8FE3]
Copy OK

Track 11

Filename C:\Bernard Herrmann - 1960 - Psycho The Joel McNeely\11 - Hotel Room.wav

Peak level 30.7 %
Track quality 100.0 %
Test CRC A98B56EE
Copy CRC A98B56EE
Accurately ripped (confidence 2) [EA53C31D]
Copy OK

Track 12

Filename C:\Bernard Herrmann - 1960 - Psycho The Joel McNeely\12 - The Window.wav

Peak level 33.0 %
Track quality 100.0 %
Test CRC A646116E
Copy CRC A646116E
Accurately ripped (confidence 2) [525DEF21]
Copy OK

Track 13

Filename C:\Bernard Herrmann - 1960 - Psycho The Joel McNeely\13 - The Parlor.wav

Peak level 39.7 %
Track quality 100.0 %
Test CRC 4E542D5B
Copy CRC 4E542D5B
Accurately ripped (confidence 2) [11327693]
Copy OK

Track 14

Filename C:\Bernard Herrmann - 1960 - Psycho The Joel McNeely\14 - The Madhouse.wav

Peak level 72.3 %
Track quality 100.0 %
Test CRC AEB933EF
Copy CRC AEB933EF
Accurately ripped (confidence 2) [FFBED8A2]
Copy OK

Track 15

Filename C:\Bernard Herrmann - 1960 - Psycho The Joel McNeely\15 - The Peephole.wav

Peak level 33.5 %
Track quality 100.0 %
Test CRC E583B523
Copy CRC E583B523
Accurately ripped (confidence 2) [AFF677C5]
Copy OK

Track 16

Filename C:\Bernard Herrmann - 1960 - Psycho The Joel McNeely\16 - The Bathroom.wav

Peak level 21.9 %
Track quality 100.0 %
Test CRC 8D84CB90
Copy CRC 8D84CB90
Accurately ripped (confidence 2) [8EC13214]
Copy OK

Track 17

Filename C:\Bernard Herrmann - 1960 - Psycho The Joel McNeely\17 - The Murder.wav

Peak level 90.0 %
Track quality 100.0 %
Test CRC CFA06FC1
Copy CRC CFA06FC1
Accurately ripped (confidence 2) [DDBF99C1]
Copy OK

Track 18

Filename C:\Bernard Herrmann - 1960 - Psycho The Joel McNeely\18 - The Body.wav

Peak level 75.3 %
Track quality 100.0 %
Test CRC 1EBA9BEC
Copy CRC 1EBA9BEC
Accurately ripped (confidence 2) [D70F1CE3]
Copy OK

Track 19

Filename C:\Bernard Herrmann - 1960 - Psycho The Joel McNeely\19 - The Office.wav

Peak level 93.6 %
Track quality 100.0 %
Test CRC B4B2BA65
Copy CRC B4B2BA65
Accurately ripped (confidence 2) [63A0AEF7]
Copy OK

Track 20

Filename C:\Bernard Herrmann - 1960 - Psycho The Joel McNeely\20 - The Curtain.wav

Peak level 73.5 %
Track quality 100.0 %
Test CRC 714C9384
Copy CRC 714C9384
Accurately ripped (confidence 2) [0E21DA39]
Copy OK

Track 21

Filename C:\Bernard Herrmann - 1960 - Psycho The Joel McNeely\21 - The Water.wav

Peak level 71.7 %
Track quality 100.0 %
Test CRC 2D4AD689
Copy CRC 2D4AD689
Accurately ripped (confidence 2) [3A363FB9]
Copy OK

Track 22

Filename C:\Bernard Herrmann - 1960 - Psycho The Joel McNeely\22 - The Car.wav

Peak level 60.4 %
Track quality 100.0 %
Test CRC 15B39E14
Copy CRC 15B39E14
Accurately ripped (confidence 2) [282186B3]
Copy OK

Track 23

Filename C:\Bernard Herrmann - 1960 - Psycho The Joel McNeely\23 - Cleanup.wav

Peak level 56.5 %
Track quality 100.0 %
Test CRC 98061DAF
Copy CRC 98061DAF
Accurately ripped (confidence 2) [840615A0]
Copy OK

Track 24

Filename C:\Bernard Herrmann - 1960 - Psycho The Joel McNeely\24 - The Swamp.wav

Peak level 57.3 %
Track quality 100.0 %
Test CRC C2D6B570
Copy CRC C2D6B570
Accurately ripped (confidence 2) [74A636CE]
Copy OK

Track 25

Filename C:\Bernard Herrmann - 1960 - Psycho The Joel McNeely\25 - The Search.wav

Peak level 55.8 %
Track quality 99.7 %
Test CRC A86F19D3
Copy CRC A86F19D3
Accurately ripped (confidence 2) [60511761]
Copy OK

Track 26

Filename C:\Bernard Herrmann - 1960 - Psycho The Joel McNeely\26 - The Shadow.wav

Peak level 67.0 %
Track quality 100.0 %
Test CRC 68CD3E38
Copy CRC 68CD3E38
Accurately ripped (confidence 2) [4F86CD89]
Copy OK

Track 27

Filename C:\Bernard Herrmann - 1960 - Psycho The Joel McNeely\27 - Phone Booth.wav

Peak level 59.4 %
Track quality 100.0 %
Test CRC E5D5EA8C
Copy CRC E5D5EA8C
Accurately ripped (confidence 2) [960A4FCD]
Copy OK

Track 28

Filename C:\Bernard Herrmann - 1960 - Psycho The Joel McNeely\28 - The Porch.wav

Peak level 34.6 %
Track quality 100.0 %
Test CRC 468AB29A
Copy CRC 468AB29A
Accurately ripped (confidence 2) [EED0D7BC]
Copy OK

Track 29

Filename C:\Bernard Herrmann - 1960 - Psycho The Joel McNeely\29 - The Stairs.wav

Peak level 48.3 %
Track quality 100.0 %
Test CRC B619F20F
Copy CRC B619F20F
Accurately ripped (confidence 2) [7F1CF1E0]
Copy OK

Track 30

Filename C:\Bernard Herrmann - 1960 - Psycho The Joel McNeely\30 - The Knife.wav

Peak level 91.6 %
Track quality 100.0 %
Test CRC D16D7E12
Copy CRC D16D7E12
Accurately ripped (confidence 2) [42196366]
Copy OK

Track 31

Filename C:\Bernard Herrmann - 1960 - Psycho The Joel McNeely\31 - The Search (B).wav

Peak level 38.0 %
Track quality 100.0 %
Test CRC 19828885
Copy CRC 19828885
Accurately ripped (confidence 2) [D56CF16F]
Copy OK

Track 32

Filename C:\Bernard Herrmann - 1960 - Psycho The Joel McNeely\32 - The First Floor.wav

Peak level 41.6 %
Track quality 100.0 %
Test CRC B53AE259
Copy CRC B53AE259
Accurately ripped (confidence 2) [AD0F9A3F]
Copy OK

Track 33

Filename C:\Bernard Herrmann - 1960 - Psycho The Joel McNeely\33 - Cabin 10.wav

Peak level 32.3 %
Track quality 99.8 %
Test CRC 60848990
Copy CRC 60848990
Accurately ripped (confidence 2) [9E539413]
Copy OK

Track 34

Filename C:\Bernard Herrmann - 1960 - Psycho The Joel McNeely\34 - Cabin 1.wav

Peak level 32.6 %
Track quality 100.0 %
Test CRC C007D457
Copy CRC C007D457
Accurately ripped (confidence 2) [E1B579DE]
Copy OK

Track 35

Filename C:\Bernard Herrmann - 1960 - Psycho The Joel McNeely\35 - The Hill.wav

Peak level 47.2 %
Track quality 100.0 %
Test CRC BCFA021D
Copy CRC BCFA021D
Accurately ripped (confidence 2) [FC23794F]
Copy OK

Track 36

Filename C:\Bernard Herrmann - 1960 - Psycho The Joel McNeely\36 - The Bedroom.wav

Peak level 27.5 %
Track quality 100.0 %
Test CRC 1F73616B
Copy CRC 1F73616B
Accurately ripped (confidence 2) [8044DDEF]
Copy OK

Track 37

Filename C:\Bernard Herrmann - 1960 - Psycho The Joel McNeely\37 - The Toys.wav

Peak level 40.6 %
Track quality 100.0 %
Test CRC F4157048
Copy CRC F4157048
Accurately ripped (confidence 2) [15AF46F6]
Copy OK

Track 38

Filename C:\Bernard Herrmann - 1960 - Psycho The Joel McNeely\38 - The Cellar.wav

Peak level 80.0 %
Track quality 100.0 %
Test CRC 8BE27722
Copy CRC 8BE27722
Accurately ripped (confidence 2) [49BD3A8C]
Copy OK

Track 39

Filename C:\Bernard Herrmann - 1960 - Psycho The Joel McNeely\39 - Discovery.wav

Peak level 91.7 %
Track quality 99.7 %
Test CRC FCB29498
Copy CRC FCB29498
Accurately ripped (confidence 2) [92FCDBDA]
Copy OK

Track 40

Filename C:\Bernard Herrmann - 1960 - Psycho The Joel McNeely\40 - ].wav

Peak level 84.7 %
Track quality 99.8 %
Test CRC 3B8B4B3F
Copy CRC 3B8B4B3F
Accurately ripped (confidence 2) [AAD88EEC]
Copy OK


All tracks accurately ripped

No errors occurred

End of status report

foobar2000 1.2 / Dynamic Range Meter 1.1.1
log date: 2013-07-25 17:04:01

––––––––––––––––––––––––––––––––––––––––
Analyzed: Bernard Herrmann / Psycho The Joel McNeely
––––––––––––––––––––––––––––––––––––––––

DR Peak RMS Duration Track
––––––––––––––––––––––––––––––––––––––––
DR12 -0.67 dB -15.40 dB 1:56 01-Prelude
DR13 -5.74 dB -23.75 dB 2:13 02-The City
DR11 -8.68 dB -24.53 dB 1:36 03-Marion
DR11 -9.63 dB -24.35 dB 1:54 04-Marion and Sam
DR11 -10.62 dB -27.00 dB 2:51 05-Temptation
DR13 -0.68 dB -17.36 dB 1:08 06-Flight
DR13 -0.65 dB -17.15 dB 1:06 07-Patrol Car
DR14 -7.70 dB -27.07 dB 1:46 08-The Car Lot
DR11 -13.01 dB -31.15 dB 1:32 09-The Package
DR13 -0.83 dB -17.80 dB 3:11 10-The Rainstorm
DR11 -10.24 dB -25.47 dB 2:04 11-Hotel Room
DR12 -9.62 dB -26.91 dB 1:13 12-The Window
DR13 -8.00 dB -26.91 dB 1:39 13-The Parlor
DR10 -2.81 dB -25.46 dB 1:55 14-The Madhouse
DR12 -9.48 dB -26.94 dB 3:02 15-The Peephole
DR10 -13.18 dB -27.09 dB 1:03 16-The Bathroom
DR11 -0.91 dB -14.80 dB 1:03 17-The Murder
DR11 -2.46 dB -17.69 dB 0:17 18-The Body
DR13 -0.57 dB -19.14 dB 1:21 19-The Office
DR13 -2.67 dB -23.14 dB 1:15 20-The Curtain
DR15 -2.89 dB -24.36 dB 1:46 21-The Water
DR10 -4.38 dB -17.96 dB 0:53 22-The Car
DR15 -4.96 dB -23.72 dB 2:15 23-Cleanup
DR11 -4.83 dB -23.08 dB 2:04 24-The Swamp
DR11 -5.06 dB -21.63 dB 0:42 25-The Search
DR10 -3.47 dB -21.65 dB 0:50 26-The Shadow
DR10 -4.52 dB -19.62 dB 0:54 27-Phone Booth
DR10 -9.22 dB -26.05 dB 1:05 28-The Porch
DR12 -6.30 dB -25.91 dB 2:58 29-The Stairs
DR11 -0.75 dB -16.19 dB 0:31 30-The Knife
DR12 -8.40 dB -26.40 dB 1:40 31-The Search (B)
DR12 -7.61 dB -26.36 dB 2:45 32-The First Floor
DR11 -9.80 dB -26.46 dB 1:09 33-Cabin 10
DR11 -9.71 dB -26.84 dB 1:06 34-Cabin 1
DR11 -6.52 dB -23.48 dB 1:05 35-The Hill
DR11 -11.19 dB -27.23 dB 1:00 36-The Bedroom
DR10 -7.82 dB -26.74 dB 1:03 37-The Toys
DR12 -1.93 dB -21.12 dB 1:06 38-The Cellar
DR10 -0.75 dB -14.36 dB 0:42 39-Discovery
DR11 -1.44 dB -22.19 dB 1:32 40-Finale
––––––––––––––––––––––––––––––––––––––––

Number of tracks: 40
Official DR value: DR12

Samplerate: 44100 Hz
Channels: 2
Bits per sample: 16
Bitrate: 616 kbps
Codec: FLAC
================================================================================

RSNO, Joel McNeely - Bernard Herrmann - Psycho: The Complete Original Motion Picture Score (1960) First Complete Recording 1997

All thanks to original uploader

More Movies & Soundtracks in Efgrapha Blog