Subcategories
Tags
Language
Tags

Billy Cobham - Spectrum (1973) [Audio Fidelity, Remastered 2016] Re-Up

Posted By: Designol
Billy Cobham - Spectrum (1973) [Audio Fidelity, Remastered 2016] Re-Up

Billy Cobham - Spectrum (1973) Mastered by Kevin Gray, 2016
EAC | FLAC | Tracks (Cue&Log) ~ 231 Mb | Mp3 (CBR320) ~ 101 Mb | Scans included
Fusion, Jazz-Funk, Jazz-Rock | Label: Audio Fidelity | # AFZ5 234 | 00:37:40

Drummer Billy Cobham was fresh from his success with the Mahavishnu Orchestra when he recorded his debut album, which is still his best. Most of the selections showcase Cobham in a quartet with keyboardist Jan Hammer, guitarist Tommy Bolin, and electric bassist Lee Sklar. Two other numbers include Joe Farrell on flute and soprano and trumpeter Jimmy Owens with guitarist John Tropea, Hammer, bassist Ron Carter, and Ray Barretto on congas. The generally high-quality compositions (which include "Red Baron") make this fusion set a standout, a strong mixture of rock-ish rhythms and jazz improvising.

Review by Scott Yanow, Allmusic.com

Billy Cobham - Spectrum (1973) [Audio Fidelity, Remastered 2016] Re-Up



Billy Cobham - drums, percussion, production
Jan Hammer - electric and acoustic pianos, Moog synthesizer
Ken Scott - recording and re-mix engineering
Tommy Bolin - guitar
Lee Sklar - electric bass
Joe Farrell - soprano and alto saxes, flute
Jimmy Owens - flugelhorn, trumpet
John Tropea - guitar
Ron Carter - acoustic bass
Ray Barretto - congas

Recorded at Electric Lady Studios, New York on May 14–16, 1973.

Tracklist:

01. Quadrant 4 (4:32)
02. Searching for the Right Door/Spectrum (6:34)
03. Anxiety/Taurian Matador (4:48)
04. Stratus (9:50)
05. To the Women in My Life/Le Lis (4:11)
06. Snoopy's Search/Red Baron (7:45)


Exact Audio Copy V1.3 from 2. September 2016

EAC extraction logfile from 19. July 2017, 22:46

Billy Cobham / Spectrum (2016 AF)

Used drive : PLEXTOR CD-R PREMIUM Adapter: 1 ID: 1

Read mode : Secure
Utilize accurate stream : Yes
Defeat audio cache : Yes
Make use of C2 pointers : No

Read offset correction : 30
Overread into Lead-In and Lead-Out : No
Fill up missing offset samples with silence : Yes
Delete leading and trailing silent blocks : No
Null samples used in CRC calculations : Yes
Used interface : Native Win32 interface for Win NT & 2000
Gap handling : Appended to previous track

Used output format : User Defined Encoder
Selected bitrate : 768 kBit/s
Quality : High
Add ID3 tag : No
Command line compressor : C:\Program Files (x86)\Exact Audio Copy\FLAC\FLAC.EXE
Additional command line options : -6 -e -p -V -T "ARTIST=%artist%" -T "TITLE=%title%" -T "ALBUM=%albumtitle%" -T "DATE=%year%" -T "TRACKNUMBER=%tracknr%" -T "GENRE=%genre%" -T "PERFORMER=%albuminterpret%" -T "COMPOSER=%composer%" %haslyrics%–tag-from-file=LYRICS="%lyricsfile%"%haslyrics% -T "ALBUMARTIST=%albumartist%" -T "DISCNUMBER=%cdnumber%" -T "TOTALDISCS=%totalcds%" -T "TOTALTRACKS=%numtracks%" -T "COMMENT=%comment%" %source% -o %dest%


TOC of the extracted CD

Track | Start | Length | Start sector | End sector
––––––––––––––––––––––––––––-
1 | 0:00.00 | 4:31.70 | 0 | 20394
2 | 4:31.70 | 6:33.49 | 20395 | 49918
3 | 11:05.44 | 4:47.42 | 49919 | 71485
4 | 15:53.11 | 9:50.06 | 71486 | 115741
5 | 25:43.17 | 4:10.72 | 115742 | 134563
6 | 29:54.14 | 7:45.24 | 134564 | 169462


Track 1

Filename C:\tmp\00_RIPS\01 - Quadrant 4.wav

Pre-gap length 0:00:02.00

Peak level 100.0 %
Extraction speed 7.8 X
Track quality 99.9 %
Test CRC 1E1B6615
Copy CRC 1E1B6615
Accurately ripped (confidence 20) [A50F4C46] (AR v2)
Copy OK

Track 2

Filename C:\tmp\00_RIPS\02 - A. Searching For The Right Door, B. Spectrum.wav

Peak level 100.0 %
Extraction speed 10.1 X
Track quality 100.0 %
Test CRC CDEF886E
Copy CRC CDEF886E
Accurately ripped (confidence 20) [E802EB2D] (AR v2)
Copy OK

Track 3

Filename C:\tmp\00_RIPS\03 - A. Anxiety, B. Taurian Matador.wav

Peak level 100.0 %
Extraction speed 11.0 X
Track quality 100.0 %
Test CRC 2DE1B055
Copy CRC 2DE1B055
Accurately ripped (confidence 20) [7798A2E2] (AR v2)
Copy OK

Track 4

Filename C:\tmp\00_RIPS\04 - Stratus.wav

Peak level 100.0 %
Extraction speed 12.5 X
Track quality 100.0 %
Test CRC F76A0CC8
Copy CRC F76A0CC8
Accurately ripped (confidence 20) [7E1920B8] (AR v2)
Copy OK

Track 5

Filename C:\tmp\00_RIPS\05 - A. To The Women In My Life, B. Le Lis.wav

Peak level 99.2 %
Extraction speed 11.2 X
Track quality 99.9 %
Test CRC 2824BE10
Copy CRC 2824BE10
Accurately ripped (confidence 20) [9109836E] (AR v2)
Copy OK

Track 6

Filename C:\tmp\00_RIPS\06 - A. Snoopy's Search, B. Red Baron.wav

Peak level 100.0 %
Extraction speed 13.2 X
Track quality 100.0 %
Test CRC 194652F4
Copy CRC 194652F4
Accurately ripped (confidence 20) [87F8FCA5] (AR v2)
Copy OK


All tracks accurately ripped

No errors occurred

End of status report

–– CUETools DB Plugin V2.1.6

[CTDB TOCID: V7s18UFWyXLCbKEEF3PFKdtAxJw-] found
Submit result: V7s18UFWyXLCbKEEF3PFKdtAxJw- has been confirmed
Track | CTDB Status
1 | (16/16) Accurately ripped
2 | (16/16) Accurately ripped
3 | (16/16) Accurately ripped
4 | (16/16) Accurately ripped
5 | (16/16) Accurately ripped
6 | (16/16) Accurately ripped


==== Log checksum 0E220D46AAF408E7DC48FAF03FD1A62745F1DD1CAFD70D78964EDCF140C4936E ====

foobar2000 1.2 / Dynamic Range Meter 1.1.1
log date: 2017-07-20 18:00:49

––––––––––––––––––––––––––––––––––––––––
Analyzed: Billy Cobham / Spectrum
––––––––––––––––––––––––––––––––––––––––

DR Peak RMS Duration Track
––––––––––––––––––––––––––––––––––––––––
DR11 0.00 dB -13.92 dB 4:32 01-Quadrant 4
DR12 0.00 dB -16.25 dB 6:34 02-Searching for the Right Door/Spectrum
DR11 0.00 dB -14.59 dB 4:48 03-Anxiety/Taurian Matador
DR12 0.00 dB -15.35 dB 9:50 04-Stratus
DR12 -0.06 dB -16.25 dB 4:11 05-To the Women in My Life/Le Lis
DR12 0.00 dB -15.98 dB 7:45 06-Snoopy's Search/Red Baron
––––––––––––––––––––––––––––––––––––––––

Number of tracks: 6
Official DR value: DR12

Samplerate: 44100 Hz
Channels: 2
Bits per sample: 16
Bitrate: 724 kbps
Codec: FLAC
================================================================================

Billy Cobham - Spectrum (1973) [Audio Fidelity, Remastered 2016] Re-Up

Billy Cobham - Spectrum (1973) [Audio Fidelity, Remastered 2016] Re-Up

All thanks to original releaser - mclarenspy

More interesting music in My Blog