Tags
Language
Tags

Black Sabbath - Technical Ecstasy (Remastered Super Deluxe Edition) (2021)

Posted By: Rtax
Black Sabbath - Technical Ecstasy (Remastered Super Deluxe Edition) (2021)

Black Sabbath - Technical Ecstasy (Remastered Super Deluxe Edition) (2021)
EAC Rip | FLAC (tracks, cue, log) - 1.1 GB | MP3 CBR 320kbps - 411 MB
02:59:21 | Classic Rock, Heavy Metal, Hard Rock | Label: Rhino

CD box set includes: CD1: Original album newly remastered / CD2: New Mix of the album / CD3: Outtakes and Alternative Mixes / CD4: Complete live concert from the World Tour 1976 - 77 / Plus: 60-page book with photos, artwork and liner notes / & Technical Ecstasy colour poster.

In the summer of 1976, Ozzy Osbourne, Tony Iommi, Geezer Butler and Bill Ward headed to Miami to record Technical Ecstasy at the famed Criteria Studios. The band was coming off a world tour for their previous album, Sabotage, that had found their live performances evolving to include keyboards and synthesizers. These newly incorporated instruments and sounds were then introduced into the recording process on Technical Ecstasy. The new songs encompassed a wide range of styles from the hard charging "Back Street Kids" and single ballad "It's Alright," to the funky "All Moving Parts (Stand Still)" and progressive rock "Gypsy." The Deluxe Edition presents a newly remastered version of the eight-track album, along with an entirely new mix of the album created by Steven Wilson using the original analogue tapes.

With eight previously unreleased outtakes and alternative mixes. Among those are different mixes of "You Won't Change Me" and "Rock 'n' Roll Doctor," as well as both outtake and instrumental versions for "She's Gone." The collection concludes with 10 previously unreleased live tracks recorded during the 1976-77 World Tour. The songs touch on different eras of the band's history with early tracks like "Black Sabbath", "War Pigs" (from Paranoid), "Symptom Of The Universe", "Snowblind" and "Children Of The Grave" alongside new songs "Gypsy" and "Dirty Women."

The collection comes with an extensive hardback book featuring artwork, liner notes, rare memorabilia and photos from the era, plus a replica of the 1976-77 world tour concert book and a large colour poster of the iconic Hipgnosis (Storm Thorgerson/Aubrey Powell/Peter Christopherson) futuristic robots image which is perfect for framing.

Black Sabbath embraced change in 1976 when the heavy metal innovators started managing themselves and began exploring different sounds on the band's seventh studio album, Technical Ecstasy. BMG honours this daring album with a collection that includes a newly remastered version of the original, a brand-new mix by Steven Wilson, plus more than 90 minutes of previously unreleased outtakes, alternative mixes and live tracks. TECHNICAL ECSTASY: SUPER DELUXE EDITION will be available as a 4CD box set and 5LP box set on 180g black vinyl.

CD1 - Technical Ecstasy (2021 - Remaster)
01. Back Street Kids (Remastered) (3:47)
02. You Won’t Change Me (Remastered) (6:36)
03. It’s Alright (Remastered) (3:58)
04. Gypsy (Remastered) (5:08)
05. All Moving Parts (Stand Still) (Remastered) (4:58)
06. Rock ’N’ Roll Doctor (Remastered) (3:25)
07. She’s Gone (Remastered) (4:51)
08. Dirty Women (Remastered) (7:07)

CD2 - New Mix
01. Back Street Kids (Steven Wilson Remix) (3:48)
02. You Won't Change Me (Steven Wilson Remix) (6:32)
03. It's Alright (Mono Single) (4:00)
04. Gypsy (Steven Wilson Remix) (5:09)
05. All Moving Parts (Stand Still) (Steven Wilson Remix) (4:58)
06. Rock 'N' Roll Doctor (Steven Wilson Remix) (3:26)
07. She's Gone (Steven Wilson Remix) (4:54)
08. Dirty Women (Steven Wilson Remix) (7:42)

CD3 - Outtakes & Alternative Mixes
01. Back Street Kids (Alternate Mix) (3:58)
02. You Won't Change Me (Alternate Mix) (6:45)
03. Gypsy (Alternate Mix) (5:16)
04. All Moving Parts (Stand Still) (Alternate Mix) (5:32)
05. Rock 'N' Roll Doctor (Alternate Mix) (3:34)
06. She's Gone (Outtake Version) (5:52)
07. Dirty Women (Alternate Mix) (7:26)
08. She's Gone (Instrumental Mix) (4:05)

CD4 - Live World Tour 1976-77
01. Symptom of the Universe (Live World Tour 1976-77) (4:49)
02. War Pigs (Live World Tour 1976-77) (7:25)
03. Gypsy (Live World Tour 1976-77) (5:13)
04. Black Sabbath (Live World Tour 1976-77) (7:33)
05. All Moving Parts (Stand Still) (Live World Tour 1976-77) (6:13)
06. Dirty Women (Live World Tour 1976-77) (7:16)
07. Drum Solo/Guitar Solo (Live World Tour 1976-77) (3:57)
08. Electric Funeral (Live World Tour 1976-77) (3:27)
09. Snowblind (Live World Tour 1976-77) (6:15)
10. Children of the Grave (Live World Tour 1976-77) (4:46)
Exact Audio Copy V1.6 from 23. October 2020

EAC extraction logfile from 1. October 2021, 19:15

Black Sabbath / Technical Ecstasy Super Deluxe (Disc 1)

Used drive : ASUS BW-16D1HT Adapter: 1 ID: 1

Read mode : Secure
Utilize accurate stream : Yes
Defeat audio cache : Yes
Make use of C2 pointers : No

Read offset correction : 6
Overread into Lead-In and Lead-Out : No
Fill up missing offset samples with silence : Yes
Delete leading and trailing silent blocks : No
Null samples used in CRC calculations : Yes
Used interface : Native Win32 interface for Win NT & 2000
Gap handling : Appended to previous track

Used output format : User Defined Encoder
Selected bitrate : 1024 kBit/s
Quality : High
Add ID3 tag : No
Command line compressor : D:\FLAC 1.3.3 Encoder\flac.exe
Additional command line options : -8 -V -T "ARTIST=%artist%" -T "TITLE=%title%" -T "ALBUM=%albumtitle%" -T "DATE=%year%" -T "TRACKNUMBER=%tracknr%" -T "GENRE=%genre%" -T "PERFORMER=%albuminterpret%" -T "COMPOSER=%composer%" %haslyrics%–tag-from-file=LYRICS="%lyricsfile%"%haslyrics% -T "ALBUMARTIST=%albumartist%" -T "DISCNUMBER=%cdnumber%" -T "TOTALDISCS=%totalcds%" -T "TOTALTRACKS=%numtracks%" -T "COMMENT=%comment%" %source% -o %dest%


TOC of the extracted CD

Track | Start | Length | Start sector | End sector
––––––––––––––––––––––––––––-
1 | 0:00.00 | 3:46.51 | 0 | 17000
2 | 3:46.51 | 6:35.58 | 17001 | 46683
3 | 10:22.34 | 3:58.21 | 46684 | 64554
4 | 14:20.55 | 5:08.04 | 64555 | 87658
5 | 19:28.59 | 4:58.21 | 87659 | 110029
6 | 24:27.05 | 3:24.69 | 110030 | 125398
7 | 27:51.74 | 4:50.52 | 125399 | 147200
8 | 32:42.51 | 7:06.49 | 147201 | 179199


Track 1

Filename D:\Torrents\Black Sabbath - Technical Ecstasy Super Deluxe (CD) [FLAC]\01\01 - Back Street Kids (Remastered).wav

Pre-gap length 0:00:02.00

Peak level 100.0 %
Extraction speed 4.4 X
Track quality 100.0 %
Test CRC 96C7E0E4
Copy CRC 96C7E0E4
Track not present in AccurateRip database
Copy OK

Track 2

Filename D:\Torrents\Black Sabbath - Technical Ecstasy Super Deluxe (CD) [FLAC]\01\02 - You Won’t Change Me (Remastered).wav

Peak level 100.0 %
Extraction speed 5.4 X
Track quality 100.0 %
Test CRC 35C90DF1
Copy CRC 35C90DF1
Track not present in AccurateRip database
Copy OK

Track 3

Filename D:\Torrents\Black Sabbath - Technical Ecstasy Super Deluxe (CD) [FLAC]\01\03 - It’s Alright (Remastered).wav

Peak level 99.6 %
Extraction speed 5.8 X
Track quality 100.0 %
Test CRC 42187659
Copy CRC 42187659
Track not present in AccurateRip database
Copy OK

Track 4

Filename D:\Torrents\Black Sabbath - Technical Ecstasy Super Deluxe (CD) [FLAC]\01\04 - Gypsy (Remastered).wav

Peak level 100.0 %
Extraction speed 5.3 X
Track quality 99.9 %
Test CRC 0741FB4D
Copy CRC 0741FB4D
Track not present in AccurateRip database
Copy OK

Track 5

Filename D:\Torrents\Black Sabbath - Technical Ecstasy Super Deluxe (CD) [FLAC]\01\05 - All Moving Parts (Stand Still) (Remastered).wav

Peak level 98.4 %
Extraction speed 6.8 X
Track quality 100.0 %
Test CRC 43B12B58
Copy CRC 43B12B58
Track not present in AccurateRip database
Copy OK

Track 6

Filename D:\Torrents\Black Sabbath - Technical Ecstasy Super Deluxe (CD) [FLAC]\01\06 - Rock ’N’ Roll Doctor (Remastered).wav

Peak level 100.0 %
Extraction speed 6.8 X
Track quality 100.0 %
Test CRC 63668667
Copy CRC 63668667
Track not present in AccurateRip database
Copy OK

Track 7

Filename D:\Torrents\Black Sabbath - Technical Ecstasy Super Deluxe (CD) [FLAC]\01\07 - She’s Gone (Remastered).wav

Peak level 82.9 %
Extraction speed 7.5 X
Track quality 100.0 %
Test CRC B3690C88
Copy CRC B3690C88
Track not present in AccurateRip database
Copy OK

Track 8

Filename D:\Torrents\Black Sabbath - Technical Ecstasy Super Deluxe (CD) [FLAC]\01\08 - Dirty Women (Remastered).wav

Peak level 100.0 %
Extraction speed 8.2 X
Track quality 100.0 %
Test CRC 2AD75D84
Copy CRC 2AD75D84
Track not present in AccurateRip database
Copy OK


None of the tracks are present in the AccurateRip database

No errors occurred

End of status report

–– CUETools DB Plugin V2.1.6

[CTDB TOCID: NqhsMZpCid0TPbiliAtsxx_aogI-] found
Submit result: NqhsMZpCid0TPbiliAtsxx_aogI- has been confirmed
Track | CTDB Status
1 | (4/4) Accurately ripped
2 | (4/4) Accurately ripped
3 | (4/4) Accurately ripped
4 | (4/4) Accurately ripped
5 | (4/4) Accurately ripped
6 | (4/4) Accurately ripped
7 | (4/4) Accurately ripped
8 | (4/4) Accurately ripped


==== Log checksum 53FDFB532A90A5B3854917234C1D1B1932C6A3F920261CB640633FE868A0AE79 ====


Exact Audio Copy V1.6 from 23. October 2020

EAC extraction logfile from 1. October 2021, 20:13

Black Sabbath / Technical Ecstasy Super Deluxe (Disc 2)

Used drive : ASUS BW-16D1HT Adapter: 1 ID: 1

Read mode : Secure
Utilize accurate stream : Yes
Defeat audio cache : Yes
Make use of C2 pointers : No

Read offset correction : 6
Overread into Lead-In and Lead-Out : No
Fill up missing offset samples with silence : Yes
Delete leading and trailing silent blocks : No
Null samples used in CRC calculations : Yes
Used interface : Native Win32 interface for Win NT & 2000
Gap handling : Appended to previous track

Used output format : User Defined Encoder
Selected bitrate : 1024 kBit/s
Quality : High
Add ID3 tag : No
Command line compressor : D:\FLAC 1.3.3 Encoder\flac.exe
Additional command line options : -8 -V -T "ARTIST=%artist%" -T "TITLE=%title%" -T "ALBUM=%albumtitle%" -T "DATE=%year%" -T "TRACKNUMBER=%tracknr%" -T "GENRE=%genre%" -T "PERFORMER=%albuminterpret%" -T "COMPOSER=%composer%" %haslyrics%–tag-from-file=LYRICS="%lyricsfile%"%haslyrics% -T "ALBUMARTIST=%albumartist%" -T "DISCNUMBER=%cdnumber%" -T "TOTALDISCS=%totalcds%" -T "TOTALTRACKS=%numtracks%" -T "COMMENT=%comment%" %source% -o %dest%


TOC of the extracted CD

Track | Start | Length | Start sector | End sector
––––––––––––––––––––––––––––-
1 | 0:00.00 | 3:48.36 | 0 | 17135
2 | 3:48.36 | 6:32.36 | 17136 | 46571
3 | 10:20.72 | 3:59.51 | 46572 | 64547
4 | 14:20.48 | 5:09.36 | 64548 | 87758
5 | 19:30.09 | 4:57.74 | 87759 | 110107
6 | 24:28.08 | 3:25.74 | 110108 | 125556
7 | 27:54.07 | 4:54.36 | 125557 | 147642
8 | 32:48.43 | 7:42.10 | 147643 | 182302


Track 1

Filename D:\Torrents\Black Sabbath - Technical Ecstasy Super Deluxe (CD) [FLAC]\02\01 - Back Street Kids (Steven Wilson Remix).wav

Pre-gap length 0:00:02.00

Peak level 100.0 %
Extraction speed 1.0 X
Track quality 100.0 %
Test CRC 8874DE8C
Copy CRC 8874DE8C
Track not present in AccurateRip database
Copy OK

Track 2

Filename D:\Torrents\Black Sabbath - Technical Ecstasy Super Deluxe (CD) [FLAC]\02\02 - You Won't Change Me (Steven Wilson Remix).wav

Peak level 100.0 %
Extraction speed 1.2 X
Track quality 100.0 %
Test CRC F248CDDB
Copy CRC F248CDDB
Track not present in AccurateRip database
Copy OK

Track 3

Filename D:\Torrents\Black Sabbath - Technical Ecstasy Super Deluxe (CD) [FLAC]\02\03 - It's Alright (Mono Single).wav

Peak level 100.0 %
Extraction speed 1.3 X
Track quality 99.9 %
Test CRC 3B039D58
Copy CRC 3B039D58
Track not present in AccurateRip database
Copy OK

Track 4

Filename D:\Torrents\Black Sabbath - Technical Ecstasy Super Deluxe (CD) [FLAC]\02\04 - Gypsy (Steven Wilson Remix).wav

Peak level 100.0 %
Extraction speed 1.5 X
Track quality 100.0 %
Test CRC 78EE99BC
Copy CRC 78EE99BC
Track not present in AccurateRip database
Copy OK

Track 5

Filename D:\Torrents\Black Sabbath - Technical Ecstasy Super Deluxe (CD) [FLAC]\02\05 - All Moving Parts (Stand Still) (Steven Wilson Remix).wav

Peak level 100.0 %
Extraction speed 1.6 X
Track quality 100.0 %
Test CRC 799036FB
Copy CRC 799036FB
Track not present in AccurateRip database
Copy OK

Track 6

Filename D:\Torrents\Black Sabbath - Technical Ecstasy Super Deluxe (CD) [FLAC]\02\06 - Rock 'N' Roll Doctor (Steven Wilson Remix).wav

Peak level 100.0 %
Extraction speed 1.6 X
Track quality 100.0 %
Test CRC 59034275
Copy CRC 59034275
Track not present in AccurateRip database
Copy OK

Track 7

Filename D:\Torrents\Black Sabbath - Technical Ecstasy Super Deluxe (CD) [FLAC]\02\07 - She's Gone (Steven Wilson Remix).wav

Peak level 91.8 %
Extraction speed 1.6 X
Track quality 99.9 %
Test CRC 774076DF
Copy CRC 774076DF
Track not present in AccurateRip database
Copy OK

Track 8

Filename D:\Torrents\Black Sabbath - Technical Ecstasy Super Deluxe (CD) [FLAC]\02\08 - Dirty Women (Steven Wilson Remix).wav

Peak level 100.0 %
Extraction speed 1.9 X
Track quality 99.9 %
Test CRC C6CBB730
Copy CRC C6CBB730
Track not present in AccurateRip database
Copy OK


None of the tracks are present in the AccurateRip database

No errors occurred

End of status report

–– CUETools DB Plugin V2.1.6

[CTDB TOCID: RS_FdYljE7ywhVv0O4nPwIVsWtE-] found
Submit result: RS_FdYljE7ywhVv0O4nPwIVsWtE- has been confirmed
Track | CTDB Status
1 | (5/5) Accurately ripped
2 | (5/5) Accurately ripped
3 | (5/5) Accurately ripped
4 | (5/5) Accurately ripped
5 | (5/5) Accurately ripped
6 | (5/5) Accurately ripped
7 | (5/5) Accurately ripped
8 | (5/5) Accurately ripped


==== Log checksum 5FC1800314BAECFB02839A925777B425583517F814CE0B05FBF69B4162CB6D85 ====


Exact Audio Copy V1.6 from 23. October 2020

EAC extraction logfile from 1. October 2021, 22:16

Black Sabbath / Technical Ecstasy Super Deluxe (Disc 3)

Used drive : ASUS BW-16D1HT Adapter: 1 ID: 1

Read mode : Secure
Utilize accurate stream : Yes
Defeat audio cache : Yes
Make use of C2 pointers : No

Read offset correction : 6
Overread into Lead-In and Lead-Out : No
Fill up missing offset samples with silence : Yes
Delete leading and trailing silent blocks : No
Null samples used in CRC calculations : Yes
Used interface : Native Win32 interface for Win NT & 2000
Gap handling : Appended to previous track

Used output format : User Defined Encoder
Selected bitrate : 1024 kBit/s
Quality : High
Add ID3 tag : No
Command line compressor : D:\FLAC 1.3.3 Encoder\flac.exe
Additional command line options : -8 -V -T "ARTIST=%artist%" -T "TITLE=%title%" -T "ALBUM=%albumtitle%" -T "DATE=%year%" -T "TRACKNUMBER=%tracknr%" -T "GENRE=%genre%" -T "PERFORMER=%albuminterpret%" -T "COMPOSER=%composer%" %haslyrics%–tag-from-file=LYRICS="%lyricsfile%"%haslyrics% -T "ALBUMARTIST=%albumartist%" -T "DISCNUMBER=%cdnumber%" -T "TOTALDISCS=%totalcds%" -T "TOTALTRACKS=%numtracks%" -T "COMMENT=%comment%" %source% -o %dest%


TOC of the extracted CD

Track | Start | Length | Start sector | End sector
––––––––––––––––––––––––––––-
1 | 0:00.00 | 3:57.73 | 0 | 17847
2 | 3:57.73 | 6:45.36 | 17848 | 48258
3 | 10:43.34 | 5:15.74 | 48259 | 71957
4 | 15:59.33 | 5:31.73 | 71958 | 96855
5 | 21:31.31 | 3:33.74 | 96856 | 112904
6 | 25:05.30 | 5:51.73 | 112905 | 139302
7 | 30:57.28 | 7:26.36 | 139303 | 172788
8 | 38:23.64 | 4:05.01 | 172789 | 191164


Track 1

Filename D:\Torrents\Black Sabbath - Technical Ecstasy Super Deluxe (CD) [FLAC]\03\01 - Back Street Kids (Alternate Mix).wav

Pre-gap length 0:00:02.00

Peak level 100.0 %
Extraction speed 1.0 X
Track quality 100.0 %
Test CRC 74526F00
Copy CRC 74526F00
Track not present in AccurateRip database
Copy OK

Track 2

Filename D:\Torrents\Black Sabbath - Technical Ecstasy Super Deluxe (CD) [FLAC]\03\02 - You Won't Change Me (Alternate Mix).wav

Peak level 100.0 %
Extraction speed 1.3 X
Track quality 100.0 %
Test CRC 8022A310
Copy CRC 8022A310
Track not present in AccurateRip database
Copy OK

Track 3

Filename D:\Torrents\Black Sabbath - Technical Ecstasy Super Deluxe (CD) [FLAC]\03\03 - Gypsy (Alternate Mix).wav

Peak level 99.6 %
Extraction speed 1.4 X
Track quality 100.0 %
Test CRC 2E93D573
Copy CRC 2E93D573
Track not present in AccurateRip database
Copy OK

Track 4

Filename D:\Torrents\Black Sabbath - Technical Ecstasy Super Deluxe (CD) [FLAC]\03\04 - All Moving Parts (Stand Still) (Alternate Mix).wav

Peak level 100.0 %
Extraction speed 1.5 X
Track quality 99.9 %
Test CRC 7000A539
Copy CRC 7000A539
Track not present in AccurateRip database
Copy OK

Track 5

Filename D:\Torrents\Black Sabbath - Technical Ecstasy Super Deluxe (CD) [FLAC]\03\05 - Rock 'N' Roll Doctor (Alternate Mix).wav

Peak level 100.0 %
Extraction speed 1.5 X
Track quality 100.0 %
Test CRC 72A633F6
Copy CRC 72A633F6
Track not present in AccurateRip database
Copy OK

Track 6

Filename D:\Torrents\Black Sabbath - Technical Ecstasy Super Deluxe (CD) [FLAC]\03\06 - She's Gone (Outtake Version).wav

Peak level 99.5 %
Extraction speed 1.8 X
Track quality 100.0 %
Test CRC CA98359A
Copy CRC CA98359A
Track not present in AccurateRip database
Copy OK

Track 7

Filename D:\Torrents\Black Sabbath - Technical Ecstasy Super Deluxe (CD) [FLAC]\03\07 - Dirty Women (Alternate Mix).wav

Peak level 98.8 %
Extraction speed 1.9 X
Track quality 100.0 %
Test CRC 38D2D860
Copy CRC 38D2D860
Track not present in AccurateRip database
Copy OK

Track 8

Filename D:\Torrents\Black Sabbath - Technical Ecstasy Super Deluxe (CD) [FLAC]\03\08 - She's Gone (Instrumental Mix).wav

Peak level 60.0 %
Extraction speed 1.7 X
Track quality 99.9 %
Test CRC 57FE67D6
Copy CRC 57FE67D6
Track not present in AccurateRip database
Copy OK


None of the tracks are present in the AccurateRip database

No errors occurred

End of status report

–– CUETools DB Plugin V2.1.6

[CTDB TOCID: QNQFgTLWzTtEvl4rycc8tAGYR0w-] found
Submit result: QNQFgTLWzTtEvl4rycc8tAGYR0w- has been confirmed
Track | CTDB Status
1 | (5/5) Accurately ripped
2 | (5/5) Accurately ripped
3 | (5/5) Accurately ripped
4 | (5/5) Accurately ripped
5 | (5/5) Accurately ripped
6 | (5/5) Accurately ripped
7 | (5/5) Accurately ripped
8 | (5/5) Accurately ripped


==== Log checksum 9AE70F22E03EF8942A8AD590361396B81D0921B5A34C4B9550E5379A30125D90 ====


Exact Audio Copy V1.6 from 23. October 2020

EAC extraction logfile from 1. October 2021, 23:26

Black Sabbath / Technical Ecstasy Super Deluxe (Disc 4)

Used drive : ASUS BW-16D1HT Adapter: 1 ID: 1

Read mode : Secure
Utilize accurate stream : Yes
Defeat audio cache : Yes
Make use of C2 pointers : No

Read offset correction : 6
Overread into Lead-In and Lead-Out : No
Fill up missing offset samples with silence : Yes
Delete leading and trailing silent blocks : No
Null samples used in CRC calculations : Yes
Used interface : Native Win32 interface for Win NT & 2000
Gap handling : Appended to previous track

Used output format : User Defined Encoder
Selected bitrate : 1024 kBit/s
Quality : High
Add ID3 tag : No
Command line compressor : D:\FLAC 1.3.3 Encoder\flac.exe
Additional command line options : -8 -V -T "ARTIST=%artist%" -T "TITLE=%title%" -T "ALBUM=%albumtitle%" -T "DATE=%year%" -T "TRACKNUMBER=%tracknr%" -T "GENRE=%genre%" -T "PERFORMER=%albuminterpret%" -T "COMPOSER=%composer%" %haslyrics%–tag-from-file=LYRICS="%lyricsfile%"%haslyrics% -T "ALBUMARTIST=%albumartist%" -T "DISCNUMBER=%cdnumber%" -T "TOTALDISCS=%totalcds%" -T "TOTALTRACKS=%numtracks%" -T "COMMENT=%comment%" %source% -o %dest%


TOC of the extracted CD

Track | Start | Length | Start sector | End sector
––––––––––––––––––––––––––––-
1 | 0:00.00 | 4:48.62 | 0 | 21661
2 | 4:48.62 | 7:24.65 | 21662 | 55026
3 | 12:13.52 | 5:12.49 | 55027 | 78475
4 | 17:26.26 | 7:33.34 | 78476 | 112484
5 | 24:59.60 | 6:12.38 | 112485 | 140422
6 | 31:12.23 | 7:15.51 | 140423 | 173098
7 | 38:27.74 | 3:56.47 | 173099 | 190845
8 | 42:24.46 | 3:27.06 | 190846 | 206376
9 | 45:51.52 | 6:15.27 | 206377 | 234528
10 | 52:07.04 | 4:45.68 | 234529 | 255971


Track 1

Filename D:\Torrents\Black Sabbath - Technical Ecstasy Super Deluxe (CD) [FLAC]\04\01 - Symptom of the Universe (Live World Tour 1976-77).wav

Pre-gap length 0:00:02.00

Peak level 97.0 %
Extraction speed 1.1 X
Track quality 99.9 %
Test CRC D9C20810
Copy CRC D9C20810
Track not present in AccurateRip database
Copy OK

Track 2

Filename D:\Torrents\Black Sabbath - Technical Ecstasy Super Deluxe (CD) [FLAC]\04\02 - War Pigs (Live World Tour 1976-77).wav

Peak level 97.0 %
Extraction speed 1.3 X
Track quality 99.9 %
Test CRC 6C64BA8B
Copy CRC 6C64BA8B
Track not present in AccurateRip database
Copy OK

Track 3

Filename D:\Torrents\Black Sabbath - Technical Ecstasy Super Deluxe (CD) [FLAC]\04\03 - Gypsy (Live World Tour 1976-77).wav

Peak level 97.0 %
Extraction speed 1.4 X
Track quality 100.0 %
Test CRC ED95B88D
Copy CRC ED95B88D
Track not present in AccurateRip database
Copy OK

Track 4

Filename D:\Torrents\Black Sabbath - Technical Ecstasy Super Deluxe (CD) [FLAC]\04\04 - Black Sabbath (Live World Tour 1976-77).wav

Peak level 97.0 %
Extraction speed 1.6 X
Track quality 100.0 %
Test CRC DACF57BC
Copy CRC DACF57BC
Track not present in AccurateRip database
Copy OK

Track 5

Filename D:\Torrents\Black Sabbath - Technical Ecstasy Super Deluxe (CD) [FLAC]\04\05 - All Moving Parts (Stand Still) (Live World Tour 1976-77).wav

Peak level 97.0 %
Extraction speed 1.6 X
Track quality 99.9 %
Test CRC 4A3B60FB
Copy CRC 4A3B60FB
Track not present in AccurateRip database
Copy OK

Track 6

Filename D:\Torrents\Black Sabbath - Technical Ecstasy Super Deluxe (CD) [FLAC]\04\06 - Dirty Women (Live World Tour 1976-77).wav

Peak level 97.0 %
Extraction speed 1.9 X
Track quality 100.0 %
Test CRC FD6D50C5
Copy CRC FD6D50C5
Track not present in AccurateRip database
Copy OK

Track 7

Filename D:\Torrents\Black Sabbath - Technical Ecstasy Super Deluxe (CD) [FLAC]\04\07 - Drum Solo,Guitar Solo (Live World Tour 1976-77).wav

Peak level 97.0 %
Extraction speed 1.9 X
Track quality 100.0 %
Test CRC 05218B4E
Copy CRC 05218B4E
Track not present in AccurateRip database
Copy OK

Track 8

Filename D:\Torrents\Black Sabbath - Technical Ecstasy Super Deluxe (CD) [FLAC]\04\08 - Electric Funeral (Live World Tour 1976-77).wav

Peak level 97.0 %
Extraction speed 1.9 X
Track quality 100.0 %
Test CRC FFDB60AF
Copy CRC FFDB60AF
Track not present in AccurateRip database
Copy OK

Track 9

Filename D:\Torrents\Black Sabbath - Technical Ecstasy Super Deluxe (CD) [FLAC]\04\09 - Snowblind (Live World Tour 1976-77).wav

Peak level 97.0 %
Extraction speed 2.1 X
Track quality 100.0 %
Test CRC 70525FB5
Copy CRC 70525FB5
Track not present in AccurateRip database
Copy OK

Track 10

Filename D:\Torrents\Black Sabbath - Technical Ecstasy Super Deluxe (CD) [FLAC]\04\10 - Children of the Grave (Live World Tour 1976-77).wav

Peak level 97.0 %
Extraction speed 2.2 X
Track quality 100.0 %
Test CRC 6416B0E9
Copy CRC 6416B0E9
Track not present in AccurateRip database
Copy OK


None of the tracks are present in the AccurateRip database

No errors occurred

End of status report

–– CUETools DB Plugin V2.1.6

[CTDB TOCID: miw3x2gEHtj_92SF_b90R0fS790-] found
Submit result: miw3x2gEHtj_92SF_b90R0fS790- has been confirmed
Track | CTDB Status
1 | (4/4) Accurately ripped
2 | (4/4) Accurately ripped
3 | (4/4) Accurately ripped
4 | (4/4) Accurately ripped
5 | (4/4) Accurately ripped
6 | (4/4) Accurately ripped
7 | (4/4) Accurately ripped
8 | (4/4) Accurately ripped
9 | (4/4) Accurately ripped
10 | (4/4) Accurately ripped


==== Log checksum 49E7EEDA188DA0284A87C5F869DC7C4E5829037A4502953AE1980680B9A8D10F ====