Tags
Language
Tags
July 2024
Su Mo Tu We Th Fr Sa
30 1 2 3 4 5 6
7 8 9 10 11 12 13
14 15 16 17 18 19 20
21 22 23 24 25 26 27
28 29 30 31 1 2 3

Blind Faith - Blind Faith (1969) {2001, Deluxe Edition, Remastered}

Posted By: popsakov
Blind Faith - Blind Faith (1969) {2001, Deluxe Edition, Remastered}

Blind Faith - Blind Faith (1969) {2001, Deluxe Edition, Remastered}
2CD | EAC Rip | FLAC (Img) + Cue + Log ~ 931 Mb | MP3 CBR320 ~ 447 Mb
Full Scans | 01:14:39 + 00:57:29 | RAR 5% Recovery
Classic Rock, Blues Rock | Polydor #314 549 529-2

Blind Faith's lone album is often considered vivid proof as to why superstar collaborations simply don't work, but that is a little unfair – in contrast to, say, Chess Records' various Super Blues releases, which stuck top musicians such as Muddy Waters and Howlin' Wolf together in awkward combos that they didn't really want to be part of, the guys in Blind Faith really were trying to work together on a long-term basis, and had an affinity for each other's work; the group just never had the time to evolve properly. And in retrospect, the album does have something to offer, including two songs that are touchstones of classic late-'60s rock: "Can't Find My Way Home" and "Presence of the Lord," not to mention the bracing "Sea of Joy." "Had to Cry Today" is also pretty effective, as is the Buddy Holly cover "Well All Right." Still, for those who subscribe to conventional rock critic doctrine, it may seem a little strange that an album as muddied as Blind Faith was given this lavish Deluxe Edition, containing basically everything capable of being released that the group cut during these sessions. This expanded edition will not change any minds; just on principle, it may even sour some open-minded listeners who have a distaste for extended, seemingly endless jams; in the latter regard, anyone so inclined should probably skip all but the third track on the second disc entirely, since three of the four jams that comprise the nearly hourlong platter are the least interesting of the bonus materials, even if some moments work well – Eric Clapton's electric guitar playing is always interesting, and when Steve Winwood's organ kicks in there's a fair degree of excitement, though not without a lot of meandering before and after.

But the bonus tracks appended to the basic album on the first disc – which runs a whopping 75 minutes – are a different matter. These include two previously unreleased versions of "Sleeping in the Ground" (the one on Crossroads is missing), an electric version of "Can't Find My Way Home" that's just about worth the price of admission, and "Time Winds." If one compares this double-disc set to, say, The Layla Sessions triple-CD box, there's more here, if only because this group still had so many rough edges to work out that are worth a listen, whereas the completed Derek & the Dominos Layla album did, indeed, distill down the best of that band's work. With Blind Faith, there was still a lot of ground to cover musically, although "Acoustic Jam" will probably not be on too many listeners' playlists more than once or twice, except for some aspects of Eric Clapton's and Rick Grech's playing – this track may be the earliest instance (albeit an unintended one, as it wasn't ever supposed to see the light of day) justifying the criticism that sometimes gets hung on Steve Winwood's multi-instrumentalist status, that he is a jack of all trades and master of none, because his piano playing here just isn't very interesting. The fact remains that – even with these new tracks and the lavish presentation – this is a muddled album, but like The Layla Sessions it's still a hell of a set for the dedicated, filled with unheard music, good liners, and beautiful packaging. Those who do love the album or the work of the musicians involved will not be disappointed by this, and may well find new moments of fascination in the best of the jams. The two bonus tracks that appeared on the original late-'80s CD release of Blind Faith are not here, as it was subsequently discovered that they were Rick Grech demos that didn't involve the rest of the band.

~ Stephen Thomas Erlewine, All Music

***************

Track List CD1:

01. Had to Cry Today [8:49]
02. Can’t Find My Way Home [3:17]
03. Well All Right [4:27]
04. Presence of the Lord [4:51]
05. Sea of Joy [5:23]
06. Do What You Like [15:23]
07. Sleeping in the Ground (mix) [2:52]
08. Can’t Find My Way Home (electric version) (mix) [5:43]
09. Acoustic Jam [15:54]
10. Time Winds [3:18]
11. Sleeping in the Ground (slow blues version) [4:46]

Exact Audio Copy V1.1 from 23. June 2015

EAC extraction logfile from 26. August 2021, 13:49

Blind Faith / Blind Faith

Used drive : MATSHITADVD+-RW SW830 Adapter: 1 ID: 0

Read mode : Secure
Utilize accurate stream : Yes
Defeat audio cache : Yes
Make use of C2 pointers : No

Read offset correction : 6
Overread into Lead-In and Lead-Out : No
Fill up missing offset samples with silence : Yes
Delete leading and trailing silent blocks : No
Null samples used in CRC calculations : Yes
Used interface : Native Win32 interface for Win NT & 2000

Used output format : User Defined Encoder
Selected bitrate : 768 kBit/s
Quality : High
Add ID3 tag : No
Command line compressor : C:\Program Files (x86)\Exact Audio Copy\FLAC\FLAC.EXE
Additional command line options : -6 -V -T "ARTIST=%artist%" -T "TITLE=%title%" -T "ALBUM=%albumtitle%" -T "DATE=%year%" -T "TRACKNUMBER=%tracknr%" -T "GENRE=%genre%" -T "COMMENT=%comment%" -T "BAND=%albuminterpret%" -T "ALBUMARTIST=%albuminterpret%" -T "COMPOSER=%composer%" %haslyrics%–tag-from-file=LYRICS="%lyricsfile%"%haslyrics% -T "DISCNUMBER=%cdnumber%" -T "TOTALDISCS=%totalcds%" -T "TOTALTRACKS=%numtracks%" %hascover%–picture="%coverfile%"%hascover% %source% -o %dest%


TOC of the extracted CD

Track | Start | Length | Start sector | End sector
––––––––––––––––––––––––––––-
1 | 0:00.00 | 8:48.43 | 0 | 39642
2 | 8:48.43 | 3:16.10 | 39643 | 54352
3 | 12:04.53 | 4:27.00 | 54353 | 74377
4 | 16:31.53 | 4:50.74 | 74378 | 96201
5 | 21:22.52 | 5:22.16 | 96202 | 120367
6 | 26:44.68 | 15:22.69 | 120368 | 189586
7 | 42:07.62 | 2:51.58 | 189587 | 202469
8 | 44:59.45 | 5:42.57 | 202470 | 228176
9 | 50:42.27 | 15:53.38 | 228177 | 299689
10 | 66:35.65 | 3:17.52 | 299690 | 314516
11 | 69:53.42 | 4:45.01 | 314517 | 335892


Range status and errors

Selected range

Filename C:\Users\Boris\Desktop\lossless\BlinFaDelu\CD1\Blind Faith - Blind Faith.wav

Peak level 100.0 %
Extraction speed 8.3 X
Range quality 100.0 %
Test CRC 01A485B7
Copy CRC 01A485B7
Copy OK

No errors occurred


AccurateRip summary

Track 1 accurately ripped (confidence 200) [E6184307] (AR v2)
Track 2 accurately ripped (confidence 200) [AEF27672] (AR v2)
Track 3 accurately ripped (confidence 200) [634E1071] (AR v2)
Track 4 accurately ripped (confidence 200) [8B147483] (AR v2)
Track 5 accurately ripped (confidence 200) [3C8FCFDF] (AR v2)
Track 6 accurately ripped (confidence 200) [45569B9D] (AR v2)
Track 7 accurately ripped (confidence 200) [3F2A0F12] (AR v2)
Track 8 accurately ripped (confidence 200) [F4C50585] (AR v2)
Track 9 accurately ripped (confidence 200) [333F098A] (AR v2)
Track 10 accurately ripped (confidence 200) [5D425B56] (AR v2)
Track 11 accurately ripped (confidence 200) [ACB9C8CB] (AR v2)

All tracks accurately ripped

End of status report

–– CUETools DB Plugin V2.1.6

[CTDB TOCID: wnn_248YSbEsBv9ybzdDkGIedGQ-] found
Submit result: wnn_248YSbEsBv9ybzdDkGIedGQ- has been confirmed
Track | CTDB Status
1 | (458/462) Accurately ripped
2 | (458/462) Accurately ripped
3 | (457/462) Accurately ripped
4 | (457/462) Accurately ripped
5 | (457/462) Accurately ripped
6 | (453/462) Accurately ripped
7 | (455/462) Accurately ripped
8 | (454/462) Accurately ripped
9 | (450/462) Accurately ripped
10 | (451/462) Accurately ripped
11 | (440/462) Accurately ripped


==== Log checksum 5AF6E0C9739AA9C3EF8C5FF2352863EE00B736A3ECBAC37BFE17F105C66BD18F ====

Track List CD2:

01. Jam No. 1: “Very Long & Good Jam” [14:04]
02. Jam No. 2: “Slow Jam #1” [15:10]
03. Jam No. 3: “Change of Address Jam” [12:10]
04. Jam No. 4: “Slow Jam #2” [16:07]

Exact Audio Copy V1.1 from 23. June 2015

EAC extraction logfile from 27. August 2021, 23:58

Blind Faith / Blind Faith

Used drive : MATSHITADVD+-RW SW830 Adapter: 1 ID: 0

Read mode : Secure
Utilize accurate stream : Yes
Defeat audio cache : Yes
Make use of C2 pointers : No

Read offset correction : 6
Overread into Lead-In and Lead-Out : No
Fill up missing offset samples with silence : Yes
Delete leading and trailing silent blocks : No
Null samples used in CRC calculations : Yes
Used interface : Native Win32 interface for Win NT & 2000

Used output format : User Defined Encoder
Selected bitrate : 768 kBit/s
Quality : High
Add ID3 tag : No
Command line compressor : C:\Program Files (x86)\Exact Audio Copy\FLAC\FLAC.EXE
Additional command line options : -6 -V -T "ARTIST=%artist%" -T "TITLE=%title%" -T "ALBUM=%albumtitle%" -T "DATE=%year%" -T "TRACKNUMBER=%tracknr%" -T "GENRE=%genre%" -T "COMMENT=%comment%" -T "BAND=%albuminterpret%" -T "ALBUMARTIST=%albuminterpret%" -T "COMPOSER=%composer%" %haslyrics%–tag-from-file=LYRICS="%lyricsfile%"%haslyrics% -T "DISCNUMBER=%cdnumber%" -T "TOTALDISCS=%totalcds%" -T "TOTALTRACKS=%numtracks%" %hascover%–picture="%coverfile%"%hascover% %source% -o %dest%


TOC of the extracted CD

Track | Start | Length | Start sector | End sector
––––––––––––––––––––––––––––-
1 | 0:00.00 | 14:03.17 | 0 | 63241
2 | 14:03.17 | 15:09.21 | 63242 | 131437
3 | 29:12.38 | 12:09.31 | 131438 | 186143
4 | 41:21.69 | 16:06.10 | 186144 | 258603


Range status and errors

Selected range

Filename C:\Users\Boris\Desktop\lossless\BlinFaDelu\CD2\Blind Faith - Blind Faith.wav

Peak level 100.0 %
Extraction speed 7.2 X
Range quality 100.0 %
Test CRC D1D1A1CD
Copy CRC D1D1A1CD
Copy OK

No errors occurred


AccurateRip summary

Track 1 accurately ripped (confidence 200) [B1E828C2] (AR v2)
Track 2 accurately ripped (confidence 200) [12A6597F] (AR v2)
Track 3 accurately ripped (confidence 200) [9A812E73] (AR v2)
Track 4 accurately ripped (confidence 200) [EE692490] (AR v2)

All tracks accurately ripped

End of status report

–– CUETools DB Plugin V2.1.6

[CTDB TOCID: fhfh1e5WGCF4UWFR95zjDUesV9c-] found
Submit result: fhfh1e5WGCF4UWFR95zjDUesV9c- has been confirmed
Track | CTDB Status
1 | (461/470) Accurately ripped
2 | (461/470) Accurately ripped
3 | (460/470) Accurately ripped
4 | (449/470) Accurately ripped, or (3/470) differs in 6928 samples @16:05:64-16:05:70


==== Log checksum 8EDD2727CEF3FACB21E3C2195B1165E61F9EB888151E9B7103D7AC01082F9CC1 ====

All thanks go to Boris1

>>> My Blog <<<

DOWNLOAD: