Tags
Language
Tags

Bob Marley & The Wailers - Confrontation (1983)

Posted By: v3122
Bob Marley & The Wailers - Confrontation (1983)

Bob Marley & The Wailers - Confrontation (1983)
EAC | Flac(Image) + Cue + Log & MP3 CBR 320Kbps
2001 | Tuff Gong / Island, 548 903-2 | ~ 298 or 108 Mb | Artwork(jpg) -> 37 Mb
Reggae | Remastered

A posthumous collection produced by Rita Marley, based on work left behind by Bob upon his death. Some of his best post-Wailers work is here, with songs like "Buffalo Soldier," "Chant Down Babylon," and "Blackman Redemption." Given that he wasn't alive to do the production that he usually helped in, this album seems remarkably true to the general vision of Bob Marley's albums. Other somewhat lesser-known tracks also help to fill in all of the cracks with some remarkable material. Case in point: "Jump Nyabinghi," a nice danceable groove with perhaps less of the usual politics mixed in, but with just as much musicality. Overall, any Bob Marley fan ought to own this album. For the uninitiated, Legend is always the starting point, but, after that, this may not be such a bad choice for additions to the collection.

by Adam Greenberg, allmusic
Bob Marley & The Wailers - Confrontation (1983):

Bob Marley & The Wailers - Confrontation (1983)

Tracklist:

01. Chant Down Babylon (02:36)
02. Buffalo Soldier (04:18)
03. Jump Nyabinghi (03:45)
04. Mix Up, Mix Up (05:03)
05. Give Thanks & Praises (03:17)
06. Blackman Redemption (03:33)
07. Trench Town (03:13)
08. Stiff Necked Fools (03:26)
09. I Know (03:21)
10. Rastaman Live Up! (05:27)
11. Buffalo Soldier (12' Mix) [Bonus track] (07:37)

Exact Audio Copy V0.99 prebeta 4 from 23. January 2008

EAC extraction logfile from 9. March 2008, 18:08

Bob Marley & The Wailers / Confrontation

Used drive : HL-DT-STDVD-RAM GSA-H22L Adapter: 1 ID: 0

Read mode : Secure
Utilize accurate stream : Yes
Defeat audio cache : Yes
Make use of C2 pointers : No

Read offset correction : 102
Overread into Lead-In and Lead-Out : No
Fill up missing offset samples with silence : Yes
Delete leading and trailing silent blocks : No
Null samples used in CRC calculations : Yes
Used interface : Native Win32 interface for Win NT & 2000
Gap handling : Appended to previous track

Used output format : User Defined Encoder
Selected bitrate : 768 kBit/s
Quality : High
Add ID3 tag : No
Command line compressor : C:\Program Files\FLAC\flac.exe
Additional command line options : -5 -V -T "ARTIST=%a" -T "TITLE=%t" -T "ALBUM=%g" -T "DATE=%y" -T "TRACKNUMBER=%n" -T "GENRE=%m" -T "COMMENT=EAC FLAC -5" %s


TOC of the extracted CD

Track | Start | Length | Start sector | End sector
––––––––––––––––––––––––––––-
1 | 0:00.00 | 2:36.57 | 0 | 11756
2 | 2:36.57 | 4:17.33 | 11757 | 31064
3 | 6:54.15 | 3:44.62 | 31065 | 47926
4 | 10:39.02 | 5:02.48 | 47927 | 70624
5 | 15:41.50 | 3:16.45 | 70625 | 85369
6 | 18:58.20 | 3:33.40 | 85370 | 101384
7 | 22:31.60 | 3:12.45 | 101385 | 115829
8 | 25:44.30 | 3:25.52 | 115830 | 131256
9 | 29:10.07 | 3:20.68 | 131257 | 146324
10 | 32:31.00 | 5:27.10 | 146325 | 170859
11 | 37:58.10 | 7:37.20 | 170860 | 205154


Track 1

Filename C:\EAC\Bob Marley & The Wailers - Confrontation (1983) [FLAC] (2001 Remaster)\01 - Chant Down Babylon.wav

Pre-gap length 0:00:02.00

Peak level 99.8 %
Track quality 99.9 %
Test CRC 7B2104AF
Copy CRC 7B2104AF
Accurately ripped (confidence 9) [E80AB27F]
Copy OK

Track 2

Filename C:\EAC\Bob Marley & The Wailers - Confrontation (1983) [FLAC] (2001 Remaster)\02 - Buffalo Soldier.wav

Peak level 99.8 %
Track quality 100.0 %
Test CRC 94B425E3
Copy CRC 94B425E3
Accurately ripped (confidence 9) [54FFCB59]
Copy OK

Track 3

Filename C:\EAC\Bob Marley & The Wailers - Confrontation (1983) [FLAC] (2001 Remaster)\03 - Jump Nyabinghi.wav

Pre-gap length 0:00:01.60

Peak level 99.8 %
Track quality 100.0 %
Test CRC 1CE37833
Copy CRC 1CE37833
Accurately ripped (confidence 10) [3BCB6FFF]
Copy OK

Track 4

Filename C:\EAC\Bob Marley & The Wailers - Confrontation (1983) [FLAC] (2001 Remaster)\04 - Mix Up, Mix Up.wav

Peak level 99.8 %
Track quality 100.0 %
Test CRC 50A588BB
Copy CRC 50A588BB
Accurately ripped (confidence 9) [315B7619]
Copy OK

Track 5

Filename C:\EAC\Bob Marley & The Wailers - Confrontation (1983) [FLAC] (2001 Remaster)\05 - Give Thanks And Praises.wav

Peak level 99.8 %
Track quality 100.0 %
Test CRC 7E2BA831
Copy CRC 7E2BA831
Accurately ripped (confidence 8) [4576B10F]
Copy OK

Track 6

Filename C:\EAC\Bob Marley & The Wailers - Confrontation (1983) [FLAC] (2001 Remaster)\06 - Blackman Redemption.wav

Pre-gap length 0:00:02.57

Peak level 99.8 %
Track quality 99.9 %
Test CRC 235FB4EB
Copy CRC 235FB4EB
Accurately ripped (confidence 9) [EEE0C285]
Copy OK

Track 7

Filename C:\EAC\Bob Marley & The Wailers - Confrontation (1983) [FLAC] (2001 Remaster)\07 - Trench Town.wav

Peak level 99.8 %
Track quality 99.9 %
Test CRC 1D2218A7
Copy CRC 1D2218A7
Accurately ripped (confidence 11) [CC99183B]
Copy OK

Track 8

Filename C:\EAC\Bob Marley & The Wailers - Confrontation (1983) [FLAC] (2001 Remaster)\08 - Stiff Necked Fools.wav

Peak level 99.8 %
Track quality 100.0 %
Test CRC 8B2BCDF6
Copy CRC 8B2BCDF6
Accurately ripped (confidence 10) [566C721A]
Copy OK

Track 9

Filename C:\EAC\Bob Marley & The Wailers - Confrontation (1983) [FLAC] (2001 Remaster)\09 - I Know.wav

Peak level 99.8 %
Track quality 99.9 %
Test CRC 364687F5
Copy CRC 364687F5
Accurately ripped (confidence 10) [D35AF628]
Copy OK

Track 10

Filename C:\EAC\Bob Marley & The Wailers - Confrontation (1983) [FLAC] (2001 Remaster)\10 - Rastaman Live Up!.wav

Pre-gap length 0:00:01.60

Peak level 99.8 %
Track quality 100.0 %
Test CRC 7A661783
Copy CRC 7A661783
Accurately ripped (confidence 10) [C6ACB207]
Copy OK

Track 11

Filename C:\EAC\Bob Marley & The Wailers - Confrontation (1983) [FLAC] (2001 Remaster)\11 - Buffalo Soldier (12' Mix).wav

Peak level 99.8 %
Track quality 99.9 %
Test CRC 75532781
Copy CRC 75532781
Accurately ripped (confidence 7) [A609D103]
Copy OK


All tracks accurately ripped

No errors occurred

End of status report


[CUETools log; Date: 13.08.2021 14:05:04; Version: 2.1.4]
[AccurateRip ID: 00110d74-0095798d-850aaf0b] found.
Track [ CRC | V2 ] Status
01 [e80ab27f|32f96f0f] (018+031/183) Accurately ripped
02 [54ffcb59|ea4555b8] (018+033/189) Accurately ripped
03 [3bcb6fff|5dd90400] (018+032/188) Accurately ripped
04 [315b7619|e51b7a7a] (017+032/187) Accurately ripped
05 [4576b10f|aecb1e6c] (017+032/187) Accurately ripped
06 [eee0c285|d11f0072] (017+032/187) Accurately ripped
07 [cc99183b|7f5fd497] (018+032/188) Accurately ripped
08 [566c721a|5f768340] (018+032/188) Accurately ripped
09 [d35af628|3a3f7e35] (018+032/187) Accurately ripped
10 [c6acb207|fffb2b31] (018+033/187) Accurately ripped
11 [a609d103|28432433] (017+031/183) Accurately ripped
Offsetted by -290:
01 [abdebb2c] (014/183) Accurately ripped
02 [0919d93f] (015/189) Accurately ripped
03 [4dbdd613] (015/188) Accurately ripped
04 [20767b90] (015/187) Accurately ripped
05 [20355d8e] (015/187) Accurately ripped
06 [e9f2e20e] (015/187) Accurately ripped
07 [5e97d94b] (015/188) Accurately ripped
08 [b4a76e66] (015/188) Accurately ripped
09 [3d8b62f5] (015/187) Accurately ripped
10 [2f213f40] (014/187) Accurately ripped
11 [f81a9f33] (015/183) Accurately ripped
Offsetted by 374:
01 [c52c0f5f] (019/183) Accurately ripped
02 [3bbcf20f] (020/189) Accurately ripped
03 [839dd3dd] (020/188) Accurately ripped
04 [a4a9a073] (020/187) Accurately ripped
05 [ff373a3e] (020/187) Accurately ripped
06 [b29a7b4f] (020/187) Accurately ripped
07 [660a5a7c] (020/188) Accurately ripped
08 [79b107b9] (020/188) Accurately ripped
09 [a4346d33] (019/187) Accurately ripped
10 [2c0c66b9] (019/187) Accurately ripped
11 [fbecafc3] (018/183) Accurately ripped
Offsetted by -302:
01 [420ffa1d] (000/183) No match (V2 was not tested)
02 [83444fb7] (000/189) No match (V2 was not tested)
03 [1735229b] (000/188) No match (V2 was not tested)
04 [6e4bc75c] (000/187) No match (V2 was not tested)
05 [d6f450e7] (000/187) No match (V2 was not tested)
06 [37b2c6f3] (000/187) No match (V2 was not tested)
07 [5065caf2] (000/188) No match (V2 was not tested)
08 [df640910] (000/188) No match (V2 was not tested)
09 [bc575d48] (000/187) No match (V2 was not tested)
10 [8a66ac59] (000/187) No match (V2 was not tested)
11 [b55741e2] (000/183) No match (V2 was not tested)
Offsetted by -48:
01 [acf5ade6] (000/183) No match (V2 was not tested)
02 [bdd2c759] (000/189) No match (V2 was not tested)
03 [7d641105] (000/188) No match (V2 was not tested)
04 [3c3086a9] (000/187) No match (V2 was not tested)
05 [947a60df] (000/187) No match (V2 was not tested)
06 [ce6b4c23] (000/187) No match (V2 was not tested)
07 [a077d7cc] (000/188) No match (V2 was not tested)
08 [d1b1cdff] (000/188) No match (V2 was not tested)
09 [cbecf48b] (000/187) No match (V2 was not tested)
10 [48b55113] (000/187) No match (V2 was not tested)
11 [b1afb58d] (000/183) No match (V2 was not tested)

Track Peak [ CRC32 ] [W/O NULL] [ LOG ]
– 99,8 [7B44C4F6] [9C290CB4]
01 99,8 [7B2104AF] [22C4B2F5] CRC32
02 99,8 [94B425E3] [CA5EEEB2] CRC32
03 99,8 [1CE37833] [E174630F] CRC32
04 99,8 [50A588BB] [A3896E3B] CRC32
05 99,8 [7E2BA831] [0A3172AE] CRC32
06 99,8 [235FB4EB] [5A0C6024] CRC32
07 99,8 [1D2218A7] [742A3D0B] CRC32
08 99,8 [8B2BCDF6] [9905BA58] CRC32
09 99,8 [364687F5] [728F4531] CRC32
10 99,8 [7A661783] [8328DAAF] CRC32
11 99,8 [75532781] [B79C891A] CRC32


Bob Marley & The Wailers - Confrontation (1983)

All thanks go to the original releaser

Bob Marley in my Blog

Download Bob Marley & The Wailers - Confrontation (1983):