Tags
Language
Tags

Bonnie Raitt - The Lost Broadcast Philadelphia 1972 (2010) Unofficial Release [Re-Up]

Posted By: Designol
Bonnie Raitt - The Lost Broadcast Philadelphia 1972 (2010) Unofficial Release [Re-Up]

Bonnie Raitt - The Lost Broadcast Philadelphia 1972 (2010)
EAC | FLAC | Tracks (Cue&Log) ~ 323 Mb | Mp3 (CBR320) ~ 134 Mb | Scans included | 00:57:19
Blues, Slide Guitar Blues, Country-Blues, Country Rock | Label: Leftfield Media | # LFMCD502

This has been around as a bootleg for some time, a great radio broadcast from February 1972 featuring mainly Bonnie with Freebo on bass but also T. J. Tindle on lead guitar and John Davis playing harp on a couple of tracks. The sound quality isn't perfect but it's pretty good and it captures Bonnie doing material from her first two albums as well as some songs that have never been officially released - Steve Winwood's 'Can't Find My Way Home', John Hurt's 'Richland Woman Blues' and her own song 'Blender Blues'. Although Bonnie sounds young (she was only 22) she also sounds very confident and relaxed, her voice is perfectly controlled and her guitar playing is particularly good on blues like Robert Johnson's 'Walking blues' and 'Richland Woman Blues'.

Bonnie wrote two of the songs included in the set - the R&B sounds of 'Thank you' (on which she plays piano) and the more bluesy 'Finest loving man' and she also includes two covers from one of her major influences Sippie Wallace - 'Mighty tight woman' and 'Women be wise'. As well as the straight blues she also does more contemporary covers of Stephen Stills 'Bluebird', Paul Siebel's 'Any day woman' and Jackson Browne's 'Under The Falling Sky'. This is a nice varied set that showcases all sides of Bonnie's early material, more folky and bluesy than her current line up but basically the same mix of blues, soul and folk that she has always sang. Highly recommended.

Review by G. E. Harrison, Amazon.co.uk

Bonnie Raitt at Allmusic
Bonnie Raitt Website
Bonnie Raitt at Wiki

Tracklist:

01. Mighty Tight Woman (3:52)
02. Rollin' & Tumblin' (0:00)
03. Any Day Woman (7:12)
04. Woman Be Wise (3:00)
05. Thank You (1:39:51)
06. Bluebird (1:37:02)
07. Finest Lovin' Man (1:33:40)
08. Big Road (1:28:10)
09. Stayed Too Long (1:23:32)
10. Under The Falling Sky (1:10:22)
11. Walkin'Blues (1:16:08)
12. Can't Find My Way Home (1:12:06)
13. Richland Woman Blues (1:08:58)
14. Blender Blues (1:06:02)
15. Since I Fell For You (3:51)


Exact Audio Copy V1.0 beta 3 from 29. August 2011

EAC extraction logfile from 18. February 2012, 19:02

Bonnie Raitt / The Lost Broadcast (Philadelphia 1972)

Used drive : TSSTcorpCDDVDW TS-L632H Adapter: 1 ID: 1

Read mode : Secure
Utilize accurate stream : Yes
Defeat audio cache : Yes
Make use of C2 pointers : No

Read offset correction : 6
Overread into Lead-In and Lead-Out : No
Fill up missing offset samples with silence : Yes
Delete leading and trailing silent blocks : No
Null samples used in CRC calculations : Yes
Used interface : Native Win32 interface for Win NT & 2000
Gap handling : Appended to previous track

Used output format : User Defined Encoder
Selected bitrate : 32 kBit/s
Quality : High
Add ID3 tag : No
Command line compressor : C:\Program Files\Exact Audio Copy\Flac\flac.exe
Additional command line options : -V -8 -T "artist=%artist%" -T "title=%title%" -T "album=%albumtitle%" -T "date=%year%" -T "tracknumber=%tracknr%" -T "genre=%genre%" %source%


TOC of the extracted CD

Track | Start | Length | Start sector | End sector
––––––––––––––––––––––––––––-
1 | 0:00.01 | 3:51.72 | 1 | 17397
2 | 3:51.73 | 3:48.65 | 17398 | 34562
3 | 7:40.63 | 4:12.14 | 34563 | 53476
4 | 11:53.02 | 3:08.46 | 53477 | 67622
5 | 15:01.48 | 2:48.72 | 67623 | 80294
6 | 17:50.45 | 3:22.65 | 80295 | 95509
7 | 21:13.35 | 5:29.13 | 95510 | 120197
8 | 26:42.48 | 4:38.57 | 120198 | 141104
9 | 31:21.30 | 3:09.41 | 141105 | 155320
10 | 34:30.71 | 4:14.24 | 155321 | 174394
11 | 38:45.20 | 4:01.70 | 174395 | 192539
12 | 42:47.15 | 3:07.40 | 192540 | 206604
13 | 45:54.55 | 2:56.50 | 206605 | 219854
14 | 48:51.30 | 4:37.02 | 219855 | 240631
15 | 53:28.32 | 3:51.06 | 240632 | 257962


Track 1

Filename G:\WHAT.CD\Bonnie Raitt - The Lost Broadcast Philadelphia 1972 (2010)\01 - Mighty Tight Woman.wav

Pre-gap length 0:00:02.01

Peak level 100.0 %
Extraction speed 1.7 X
Track quality 100.0 %
Test CRC 68CF254D
Copy CRC 68CF254D
Track not present in AccurateRip database
Copy OK

Track 2

Filename G:\WHAT.CD\Bonnie Raitt - The Lost Broadcast Philadelphia 1972 (2010)\02 - Rollin' & Tumblin'.wav

Peak level 100.0 %
Extraction speed 1.8 X
Track quality 100.0 %
Test CRC 92AD5F88
Copy CRC 92AD5F88
Track not present in AccurateRip database
Copy OK

Track 3

Filename G:\WHAT.CD\Bonnie Raitt - The Lost Broadcast Philadelphia 1972 (2010)\03 - Any Day Woman.wav

Pre-gap length 0:03:48.65

Peak level 100.0 %
Extraction speed 2.0 X
Track quality 100.0 %
Test CRC A4BD11DC
Copy CRC A4BD11DC
Track not present in AccurateRip database
Copy OK

Track 4

Filename G:\WHAT.CD\Bonnie Raitt - The Lost Broadcast Philadelphia 1972 (2010)\04 - Woman Be Wise.wav

Pre-gap length 0:08:01.04

Peak level 100.0 %
Extraction speed 1.9 X
Track quality 100.0 %
Test CRC E0E2F65A
Copy CRC E0E2F65A
Track not present in AccurateRip database
Copy OK

Track 5

Filename G:\WHAT.CD\Bonnie Raitt - The Lost Broadcast Philadelphia 1972 (2010)\05 - Thank You.wav

Pre-gap length 0:11:09.50

Peak level 100.0 %
Extraction speed 1.5 X
Track quality 99.9 %
Test CRC FF7957D7
Copy CRC FF7957D7
Track not present in AccurateRip database
Copy OK

Track 6

Filename G:\WHAT.CD\Bonnie Raitt - The Lost Broadcast Philadelphia 1972 (2010)\06 - Bluebird.wav

Pre-gap length 0:13:58.47

Peak level 100.0 %
Extraction speed 1.7 X
Track quality 99.9 %
Test CRC 93EEA6AE
Copy CRC 93EEA6AE
Track not present in AccurateRip database
Copy OK

Track 7

Filename G:\WHAT.CD\Bonnie Raitt - The Lost Broadcast Philadelphia 1972 (2010)\07 - Finest Lovin' Man.wav

Pre-gap length 0:17:21.37

Peak level 100.0 %
Extraction speed 2.4 X
Track quality 100.0 %
Test CRC DEEA7B0B
Copy CRC DEEA7B0B
Track not present in AccurateRip database
Copy OK

Track 8

Filename G:\WHAT.CD\Bonnie Raitt - The Lost Broadcast Philadelphia 1972 (2010)\08 - Big Road.wav

Pre-gap length 0:22:50.50

Peak level 100.0 %
Extraction speed 2.4 X
Track quality 100.0 %
Test CRC AFA2F51C
Copy CRC AFA2F51C
Track not present in AccurateRip database
Copy OK

Track 9

Filename G:\WHAT.CD\Bonnie Raitt - The Lost Broadcast Philadelphia 1972 (2010)\09 - Stayed Too Long.wav

Pre-gap length 0:27:29.32

Peak level 100.0 %
Extraction speed 1.8 X
Track quality 99.9 %
Test CRC E9989E9A
Copy CRC E9989E9A
Track not present in AccurateRip database
Copy OK

Track 10

Filename G:\WHAT.CD\Bonnie Raitt - The Lost Broadcast Philadelphia 1972 (2010)\10 - Under The Falling Sky.wav

Pre-gap length 0:30:38.73

Peak level 100.0 %
Extraction speed 2.1 X
Track quality 99.9 %
Test CRC 4FBDD155
Copy CRC 4FBDD155
Track not present in AccurateRip database
Copy OK

Track 11

Filename G:\WHAT.CD\Bonnie Raitt - The Lost Broadcast Philadelphia 1972 (2010)\11 - Walkin'Blues.wav

Pre-gap length 0:34:53.22

Peak level 100.0 %
Extraction speed 2.5 X
Track quality 100.0 %
Test CRC 849BB2CB
Copy CRC 849BB2CB
Track not present in AccurateRip database
Copy OK

Track 12

Filename G:\WHAT.CD\Bonnie Raitt - The Lost Broadcast Philadelphia 1972 (2010)\12 - Can't Find My Way Home.wav

Pre-gap length 0:38:55.17

Peak level 100.0 %
Extraction speed 1.9 X
Track quality 99.9 %
Test CRC 99FE8168
Copy CRC 99FE8168
Track not present in AccurateRip database
Copy OK

Track 13

Filename G:\WHAT.CD\Bonnie Raitt - The Lost Broadcast Philadelphia 1972 (2010)\13 - Richland Woman Blues.wav

Pre-gap length 0:42:02.57

Peak level 100.0 %
Extraction speed 2.4 X
Track quality 100.0 %
Test CRC 7F16FC39
Copy CRC 7F16FC39
Track not present in AccurateRip database
Copy OK

Track 14

Filename G:\WHAT.CD\Bonnie Raitt - The Lost Broadcast Philadelphia 1972 (2010)\14 - Blender Blues.wav

Pre-gap length 0:44:59.32

Peak level 100.0 %
Extraction speed 2.7 X
Track quality 100.0 %
Test CRC 84F65248
Copy CRC 84F65248
Track not present in AccurateRip database
Copy OK

Track 15

Filename G:\WHAT.CD\Bonnie Raitt - The Lost Broadcast Philadelphia 1972 (2010)\15 - Since I Fell For You.wav

Pre-gap length 0:49:36.34

Peak level 100.0 %
Extraction speed 2.2 X
Track quality 99.9 %
Test CRC 84F573F4
Copy CRC 84F573F4
Track not present in AccurateRip database
Copy OK


None of the tracks are present in the AccurateRip database

No errors occurred

End of status report

==== Log checksum 17D72C1378C33F52949E34B3805377EAF0D16454CE20BB1460B52787B579DC0D ====

foobar2000 1.2 / Dynamic Range Meter 1.1.1
log date: 2017-03-07 20:28:35

––––––––––––––––––––––––––––––––––––––––
Analyzed: Bonnie Raitt / The Lost Broadcast (Philadelphia 1972)
––––––––––––––––––––––––––––––––––––––––

DR Peak RMS Duration Track
––––––––––––––––––––––––––––––––––––––––
DR14 0.00 dB -16.02 dB 3:52 01-Mighty Tight Woman
DR13 0.00 dB -15.12 dB 3:49 02-Rollin' & Tumblin'
DR17 0.00 dB -21.47 dB 4:12 03-Any Day Woman
DR15 0.00 dB -18.04 dB 3:09 04-Woman Be Wise
DR13 0.00 dB -17.42 dB 2:49 05-Thank You
DR12 0.00 dB -14.62 dB 3:23 06-Bluebird
DR11 0.00 dB -14.64 dB 5:29 07-Finest Lovin' Man
DR11 0.00 dB -14.15 dB 4:39 08-Big Road
DR14 0.00 dB -18.57 dB 3:10 09-Stayed Too Long
DR12 0.00 dB -14.98 dB 4:14 10-Under The Falling Sky
DR11 0.00 dB -14.54 dB 4:02 11-Walkin'Blues
DR12 0.00 dB -16.07 dB 3:08 12-Can't Find My Way Home
DR12 0.00 dB -15.41 dB 2:57 13-Richland Woman Blues
DR12 0.00 dB -15.21 dB 4:37 14-Blender Blues
DR12 0.00 dB -16.73 dB 3:51 15-Since I Fell For You
––––––––––––––––––––––––––––––––––––––––

Number of tracks: 15
Official DR value: DR13

Samplerate: 44100 Hz
Channels: 2
Bits per sample: 16
Bitrate: 720 kbps
Codec: FLAC
================================================================================

Bonnie Raitt - The Lost Broadcast Philadelphia 1972 (2010) Unofficial Release [Re-Up]

Bonnie Raitt - The Lost Broadcast Philadelphia 1972 (2010) Unofficial Release [Re-Up]