Subcategories

Bow Wow Wow - When The Going Gets Tough, The Tough Get Going (1983) {1997, Reissue}

Posted By: popsakov
Bow Wow Wow - When The Going Gets Tough, The Tough Get Going (1983) {1997, Reissue}

Bow Wow Wow - When The Going Gets Tough, The Tough Get Going (1983) {1997, Reissue}
EAC Rip | FLAC (Img) + Cue + Log ~ 222 Mb | MP3 CBR320 ~ 86 Mb
Full Scans ~ 149 Mb | 00:35:43 | RAR 5% Recovery
Alternative Rock, New Wave, Dance-Rock | One Way Records #OW 34503

Producer Mike Chapman, who had recently worked with Pat Benatar and Blondie, came on board for Bow Wow Wow's When the Going Gets Tough the Tough Get Going set. Perhaps it's Chapman's involvement that finds lead singer Annabella Lwin sounding a bit like Debbie Harry at times. This 1983 album was also the first that had no writers from outside the band contributing. When the Going Gets Tough is a well-polished, well-executed effort that holds some surprises mainly in the fact that there is more diversity than on prior Bow Wow Wow records. Chapman adds a gloss to the ballads "Lonesome Tonight" and the dreamy "Love Me," with Lwin toning down her usual frantic delivery. "The Man Mountain" sounds like an old folk song. And, there's also the straight-ahead, playful pop that you'd expect from the band on the ultra-hooky single "Do You Wanna Hold Me" and "Tommy Tucker," which begins as a nursery rhyme and concludes with a quasi-football chant.

~ Tom Demalon, All Music

***************

Track List:

01. Aphrodisiac [3:02]
02. Do You Wanna Hold Me? [3:16]
03. Roustabout [2:23]
04. Lonesome Tonight [2:51]
05. Love Me [3:33]
06. What's The Time (Hey Buddy) [3:08]
07. Mario (Your Own Way To Paradise) [2:59]
08. Quiver (Arrows In My) [3:18]
09. The Man Mountain [2:30]
10. Rikki Dee [3:05]
11. Tommy Tucker [2:46]
12. Love, Peace And Harmony [2:52]

Exact Audio Copy V1.1 from 23. June 2015

EAC extraction logfile from 10. July 2020, 1:32

Bow Wow Wow / When The Going Gets Tough The Tough Get Going

Used drive : MATSHITADVD+-RW SW830 Adapter: 1 ID: 0

Read mode : Secure
Utilize accurate stream : Yes
Defeat audio cache : Yes
Make use of C2 pointers : No

Read offset correction : 6
Overread into Lead-In and Lead-Out : No
Fill up missing offset samples with silence : Yes
Delete leading and trailing silent blocks : No
Null samples used in CRC calculations : Yes
Used interface : Native Win32 interface for Win NT & 2000

Used output format : User Defined Encoder
Selected bitrate : 768 kBit/s
Quality : High
Add ID3 tag : No
Command line compressor : C:\Program Files (x86)\Exact Audio Copy\FLAC\FLAC.EXE
Additional command line options : -6 -V -T "ARTIST=%artist%" -T "TITLE=%title%" -T "ALBUM=%albumtitle%" -T "DATE=%year%" -T "TRACKNUMBER=%tracknr%" -T "GENRE=%genre%" -T "COMMENT=%comment%" -T "BAND=%albuminterpret%" -T "ALBUMARTIST=%albuminterpret%" -T "COMPOSER=%composer%" %haslyrics%–tag-from-file=LYRICS="%lyricsfile%"%haslyrics% -T "DISCNUMBER=%cdnumber%" -T "TOTALDISCS=%totalcds%" -T "TOTALTRACKS=%numtracks%" %hascover%–picture="%coverfile%"%hascover% %source% -o %dest%


TOC of the extracted CD

Track | Start | Length | Start sector | End sector
––––––––––––––––––––––––––––-
1 | 0:00.00 | 3:02.15 | 0 | 13664
2 | 3:02.15 | 3:16.00 | 13665 | 28364
3 | 6:18.15 | 2:23.37 | 28365 | 39126
4 | 8:41.52 | 2:51.18 | 39127 | 51969
5 | 11:32.70 | 3:32.45 | 51970 | 67914
6 | 15:05.40 | 3:08.22 | 67915 | 82036
7 | 18:13.62 | 2:59.13 | 82037 | 95474
8 | 21:13.00 | 3:17.40 | 95475 | 110289
9 | 24:30.40 | 2:30.00 | 110290 | 121539
10 | 27:00.40 | 3:04.52 | 121540 | 135391
11 | 30:05.17 | 2:46.13 | 135392 | 147854
12 | 32:51.30 | 2:51.45 | 147855 | 160724


Range status and errors

Selected range

Filename C:\Users\Boris\Desktop\lossless\BowWwWw83\Bow Wow Wow - When The Going Gets Tough The Tough Get Going.wav

Peak level 96.3 %
Extraction speed 6.2 X
Range quality 100.0 %
Test CRC 9B0DD847
Copy CRC 9B0DD847
Copy OK

No errors occurred


AccurateRip summary

Track 1 accurately ripped (confidence 5) [0B4DB966] (AR v2)
Track 2 accurately ripped (confidence 5) [29411DAB] (AR v2)
Track 3 accurately ripped (confidence 5) [9AD83EDC] (AR v2)
Track 4 accurately ripped (confidence 5) [06FAEA19] (AR v2)
Track 5 accurately ripped (confidence 5) [A803BA75] (AR v2)
Track 6 accurately ripped (confidence 5) [6F5A1884] (AR v2)
Track 7 accurately ripped (confidence 5) [78F824F5] (AR v2)
Track 8 accurately ripped (confidence 5) [D14DF126] (AR v2)
Track 9 accurately ripped (confidence 5) [671F05E6] (AR v2)
Track 10 accurately ripped (confidence 5) [80D40C12] (AR v2)
Track 11 accurately ripped (confidence 5) [FB41EC7D] (AR v2)
Track 12 accurately ripped (confidence 5) [E51E1A57] (AR v2)

All tracks accurately ripped

End of status report

–– CUETools DB Plugin V2.1.6

[CTDB TOCID: 41zxkkpC5rBrigkW72t1kUJSmww-] found
Submit result: already submitted
Track | CTDB Status
1 | (5/5) Accurately ripped
2 | (5/5) Accurately ripped
3 | (5/5) Accurately ripped
4 | (5/5) Accurately ripped
5 | (5/5) Accurately ripped
6 | (5/5) Accurately ripped
7 | (5/5) Accurately ripped
8 | (5/5) Accurately ripped
9 | (5/5) Accurately ripped
10 | (5/5) Accurately ripped
11 | (5/5) Accurately ripped
12 | (5/5) Accurately ripped


==== Log checksum EB268E02AED0D00367D31C18DA1B461E79FE9CBD74F66CE0E686EA0ED6975B43 ====

[CUETools log; Date: 12.07.2020 13:20:24; Version: 2.1.6]
[CTDB TOCID: 41zxkkpC5rBrigkW72t1kUJSmww-] found.
Track | CTDB Status
1 | (5/5) Accurately ripped
2 | (5/5) Accurately ripped
3 | (5/5) Accurately ripped
4 | (5/5) Accurately ripped
5 | (5/5) Accurately ripped
6 | (5/5) Accurately ripped
7 | (5/5) Accurately ripped
8 | (5/5) Accurately ripped
9 | (5/5) Accurately ripped
10 | (5/5) Accurately ripped
11 | (5/5) Accurately ripped
12 | (5/5) Accurately ripped
[AccurateRip ID: 00101694-0096134c-a2085f0c] found.
Track [ CRC | V2 ] Status
01 [8deb904f|0b4db966] (0+5/5) Accurately ripped
02 [3b0399a8|29411dab] (0+5/5) Accurately ripped
03 [d37a3edf|9ad83edc] (0+5/5) Accurately ripped
04 [3c60c042|06faea19] (0+5/5) Accurately ripped
05 [7b721693|a803ba75] (0+5/5) Accurately ripped
06 [5b1a7377|6f5a1884] (0+5/5) Accurately ripped
07 [41538060|78f824f5] (0+5/5) Accurately ripped
08 [c15ff905|d14df126] (0+5/5) Accurately ripped
09 [b2d823b8|671f05e6] (0+5/5) Accurately ripped
10 [a0fe2efa|80d40c12] (0+5/5) Accurately ripped
11 [dd59138e|fb41ec7d] (0+5/5) Accurately ripped
12 [b878ca80|e51e1a57] (0+5/5) Accurately ripped

Track Peak [ CRC32 ] [W/O NULL] [ LOG ]
– 96,3 [9B0DD847] [5BC1D023] CRC32
01 93,8 [CA2A6AA7] [428197EA]
02 96,3 [BD52BA95] [173E70A3]
03 80,0 [5ED4F2F5] [8E40493B]
04 81,1 [BDB4BBB1] [99371A63]
05 95,0 [DA975A0C] [779D27FE]
06 83,0 [F5182311] [1595BA2C]
07 94,5 [54AD7508] [6502C152]
08 83,5 [9C62186E] [16D27D4F]
09 63,5 [9196F8CB] [476EFC59]
10 80,8 [691E38B1] [F5EE6B48]
11 86,5 [20271957] [91345ED6]
12 86,3 [4D103296] [549F6D35]

Bow Wow Wow - When The Going Gets Tough, The Tough Get Going (1983) {1997, Reissue}


All thanks go to Boris1

>>> My Blog <<<

DOWNLOAD: