Tags
Language
Tags
November 2022
Su Mo Tu We Th Fr Sa
30 31 1 2 3 4 5
6 7 8 9 10 11 12
13 14 15 16 17 18 19
20 21 22 23 24 25 26
27 28 29 30 1 2 3

Brandon Coleman - Resistance (2018) Japanese Release

Posted By: Designol
Brandon Coleman - Resistance (2018) Japanese Release

Brandon Coleman - Resistance (2018) Japanese Release
EAC | FLAC | Tracks (Cue&Log) ~ 325 Mb | Mp3 (CBR320) ~ 121 Mb | Scans included
Jazz-Funk, Funk, R&B | Label: Brainfeeder/Beat | # BRC-573 | Time: 00:47:00

Recognized most for his keyboard work but also a composer, producer, arranger, and vocoder-armed vocalist, Brandon Coleman is among the flock of jazz-rooted musicians hatched out of Los Angeles during the early 2000s. The musician is connected with virtually all West Coast luminaries of his generation – Kamasi Washington, Ryan Porter, Miles Mosley, Thundercat, and so on – and has ventured stylistically afield with Babyface and Anthony Hamilton among those who have sought his talent. Moreover, Coleman is likely the lone link from smooth jazz stalwart Boney James to polyglot experimentalist Flying Lotus, the latter of whom featured him on Until the Quiet Comes and You're Dead!, and issued Resistance on his Brainfeeder label. This is actually Coleman's second album as a leader. His first, Self Taught, received a low-key release in 2011 and a few years later was reissued in Japan. Like it, Resistance enables Coleman to indulge in his affinity for late-'70s/early-'80s electronic funk from a jazz perspective. As a teenager, around the time he started learning to play, his head was spun by Herbie Hancock's vocoder-ized Sunlight, and that work, as well as other openhearted moments of the master's catalog from Man-Child through Lite Me Up, informs the material here. Considering Coleman's rare spotlight, truckload of stockpiled gear (20 instruments, just for himself), and accommodation of fellow instrumentalists and background singers numbering in the dozens (including many L.A. players), Resistance is extraordinarily condensed. The songs average around four minutes in length and contain few instances of outright flash, with Coleman taking only a couple modestly dazzling solos on electric piano. All of them are filled with love and affection, even when born of negativity, distinguished by their sinuous vocal melodies as much as anything else. Most astounding is "Sundae," a lazing, wriggling groove that plays out like a seamless composite of Herbie's "Sun Touch," "Spiraling Prism," and (the Quincy Jones-produced version of) "Tell Me a Bedtime Story" (with radiant N'Dambi in the role of Patti Austin). Yet Herbie isn't the lone inspiration. The same-era touch of George Duke is felt throughout "Just Reach for the Stars." The one-two punch of "Addiction" and "Sexy" bounces, backstrokes, and pop locks like a funk caucus run by Fatback, Zapp, and Ronnie Hudson. Patrice Rushen and Bernie Worrell are elsewhere in the mix, too. Coleman absorbs and converts all the energy into something else: a joyous act of opposition to unacknowledged tyranny.

Review by Andy Kellman, Allmusic.com

Brandon Coleman - Resistance (2018) Japanese Release



Tracklist:

01. Live for Today (4:03)
02. All Around the World (4:03)
03. A Letter to My Buggers (4:25)
04. Addiction (feat. Sheera) (3:34)
05. Sexy (4:32)
06. There's No Turning Back (2:21)
07. Resistance (1:52)
08. Sundae (feat. N'Dambi) (3:38)
09. Just Reach for the Stars (2:03)
10. Love (4:06)
11. Giant Feelings (feat. Patrice Quinn & Techdizzle) (5:43)
12. Walk Free (3:58)
13. Dance with Me (2:42)


Exact Audio Copy V1.3 from 2. September 2016

EAC extraction logfile from 18. September 2018, 19:18

Brandon Coleman / Resistance

Used drive : PLEXTOR DVDR PX-891SAW Adapter: 1 ID: 0

Read mode : Secure
Utilize accurate stream : Yes
Defeat audio cache : Yes
Make use of C2 pointers : No

Read offset correction : 48
Overread into Lead-In and Lead-Out : No
Fill up missing offset samples with silence : Yes
Delete leading and trailing silent blocks : No
Null samples used in CRC calculations : Yes
Used interface : Native Win32 interface for Win NT & 2000
Gap handling : Appended to previous track

Used output format : User Defined Encoder
Selected bitrate : 1024 kBit/s
Quality : High
Add ID3 tag : No
Command line compressor : C:\Program Files (x86)\Exact Audio Copy\Flac\flac.exe
Additional command line options : -8 -V -T "ARTIST=%artist%" -T "TITLE=%title%" -T "ALBUM=%albumtitle%" -T "DATE=%year%" -T "TRACKNUMBER=%tracknr%" -T "GENRE=%genre%" -T "PERFORMER=%albuminterpret%" -T "COMPOSER=%composer%" %haslyrics%–tag-from-file=LYRICS="%lyricsfile%"%haslyrics% -T "ALBUMARTIST=%albumartist%" -T "DISCNUMBER=%cdnumber%" -T "TOTALDISCS=%totalcds%" -T "TOTALTRACKS=%numtracks%" -T "COMMENT=%comment%" %source% -o %dest%


TOC of the extracted CD

Track | Start | Length | Start sector | End sector
––––––––––––––––––––––––––––-
1 | 0:00.00 | 4:03.16 | 0 | 18240
2 | 4:03.16 | 4:03.22 | 18241 | 36487
3 | 8:06.38 | 4:25.21 | 36488 | 56383
4 | 12:31.59 | 3:33.61 | 56384 | 72419
5 | 16:05.45 | 4:32.26 | 72420 | 92845
6 | 20:37.71 | 2:20.57 | 92846 | 103402
7 | 22:58.53 | 1:51.38 | 103403 | 111765
8 | 24:50.16 | 3:37.42 | 111766 | 128082
9 | 28:27.58 | 2:02.73 | 128083 | 137305
10 | 30:30.56 | 4:06.16 | 137306 | 155771
11 | 34:36.72 | 5:43.22 | 155772 | 181518
12 | 40:20.19 | 3:57.56 | 181519 | 199349
13 | 44:18.00 | 2:42.00 | 199350 | 211499


Track 1

Filename D:\Rips\01 - Live For Today.wav

Pre-gap length 0:00:02.00

Peak level 96.6 %
Extraction speed 4.8 X
Track quality 100.0 %
Test CRC BF1E025E
Copy CRC BF1E025E
Track not present in AccurateRip database
Copy OK

Track 2

Filename D:\Rips\02 - All Around The World.wav

Peak level 96.6 %
Extraction speed 5.2 X
Track quality 100.0 %
Test CRC 7C156188
Copy CRC 7C156188
Track not present in AccurateRip database
Copy OK

Track 3

Filename D:\Rips\03 - A Letter To My Buggers.wav

Peak level 96.6 %
Extraction speed 4.0 X
Track quality 99.9 %
Test CRC B92A4C26
Copy CRC B92A4C26
Track not present in AccurateRip database
Copy OK

Track 4

Filename D:\Rips\04 - Addiction.wav

Peak level 96.6 %
Extraction speed 4.0 X
Track quality 99.9 %
Test CRC 1871E440
Copy CRC 1871E440
Track not present in AccurateRip database
Copy OK

Track 5

Filename D:\Rips\05 - Sexy.wav

Peak level 96.6 %
Extraction speed 6.4 X
Track quality 100.0 %
Test CRC 7BF85E54
Copy CRC 7BF85E54
Track not present in AccurateRip database
Copy OK

Track 6

Filename D:\Rips\06 - There's No Turning Back.wav

Peak level 96.6 %
Extraction speed 3.6 X
Track quality 99.9 %
Test CRC 807DA5AC
Copy CRC 807DA5AC
Track not present in AccurateRip database
Copy OK

Track 7

Filename D:\Rips\07 - Resistance.wav

Peak level 96.6 %
Extraction speed 5.9 X
Track quality 100.0 %
Test CRC EDA01F4B
Copy CRC EDA01F4B
Track not present in AccurateRip database
Copy OK

Track 8

Filename D:\Rips\08 - Sundae.wav

Peak level 96.6 %
Extraction speed 6.9 X
Track quality 100.0 %
Test CRC 6F2A0706
Copy CRC 6F2A0706
Track not present in AccurateRip database
Copy OK

Track 9

Filename D:\Rips\09 - Just Reach For The Stars.wav

Peak level 96.6 %
Extraction speed 6.4 X
Track quality 100.0 %
Test CRC 6D366D2D
Copy CRC 6D366D2D
Track not present in AccurateRip database
Copy OK

Track 10

Filename D:\Rips\10 - Love.wav

Peak level 96.6 %
Extraction speed 7.4 X
Track quality 100.0 %
Test CRC 37F1F3F2
Copy CRC 37F1F3F2
Track not present in AccurateRip database
Copy OK

Track 11

Filename D:\Rips\11 - Giant Feelings.wav

Peak level 96.6 %
Extraction speed 6.1 X
Track quality 99.9 %
Test CRC EE64950B
Copy CRC EE64950B
Track not present in AccurateRip database
Copy OK

Track 12

Filename D:\Rips\12 - Walk Free.wav

Peak level 96.6 %
Extraction speed 7.7 X
Track quality 100.0 %
Test CRC D7D6EC16
Copy CRC D7D6EC16
Track not present in AccurateRip database
Copy OK

Track 13

Filename D:\Rips\13 - Dance With Me.wav

Peak level 98.7 %
Extraction speed 4.7 X
Track quality 99.9 %
Test CRC D29DDD95
Copy CRC D29DDD95
Track not present in AccurateRip database
Copy OK


None of the tracks are present in the AccurateRip database

No errors occurred

End of status report

–– CUETools DB Plugin V2.1.6

[CTDB TOCID: 625h6A0H21roWxvaKLeJ3yf7Z.g-] disk not present in database
Submit result: 625h6A0H21roWxvaKLeJ3yf7Z.g- has been uploaded


==== Log checksum E4CD57C824388EE798F2D81AA877ACE75529F9F8CC9D49A789A55E9615F29DA0 ====

foobar2000 1.2 / Dynamic Range Meter 1.1.1
log date: 2018-09-21 20:42:02

––––––––––––––––––––––––––––––––––––––––
Analyzed: Brandon Coleman / Resistance
––––––––––––––––––––––––––––––––––––––––

DR Peak RMS Duration Track
––––––––––––––––––––––––––––––––––––––––
DR7 -0.30 dB -8.10 dB 4:03 01-Live for Today
DR6 -0.30 dB -7.97 dB 4:03 02-All Around the World
DR6 -0.30 dB -7.80 dB 4:25 03-A Letter to My Buggers
DR6 -0.30 dB -6.92 dB 3:34 04-Addiction (feat. Sheera)
DR7 -0.30 dB -8.91 dB 4:32 05-Sexy
DR6 -0.30 dB -7.23 dB 2:21 06-There's No Turning Back
DR8 -0.30 dB -11.76 dB 1:52 07-Resistance
DR7 -0.30 dB -9.40 dB 3:38 08-Sundae (feat. N'Dambi)
DR7 -0.30 dB -8.98 dB 2:03 09-Just Reach for the Stars
DR6 -0.30 dB -8.22 dB 4:06 10-Love
DR6 -0.30 dB -7.74 dB 5:43 11-Giant Feelings (feat. Patrice Quinn & Techdizzle)
DR7 -0.30 dB -9.63 dB 3:58 12-Walk Free
DR7 -0.11 dB -10.20 dB 2:42 13-Dance with Me
––––––––––––––––––––––––––––––––––––––––

Number of tracks: 13
Official DR value: DR7

Samplerate: 44100 Hz
Channels: 2
Bits per sample: 16
Bitrate: 860 kbps
Codec: FLAC
================================================================================

Brandon Coleman - Resistance (2018) Japanese Release

All thanks to original releaser - thezabs

More interesting music in My Blog