Subcategories

Broken Bells - Albums Collection 2010-2014 (3CD) [Re-Up]

Posted By: Designol
Broken Bells - Albums Collection 2010-2014 (3CD) [Re-Up]

Broken Bells - Albums Collection 2010-2014 (3CD)
EAC | FLAC | Tracks (Cue&Log) ~ 650 Mb | Mp3 (CBR320) ~ 265 Mb | Complete Scans
Indie Rock, Indie Pop, Space Rock | Time: 01:35:05

Though Broken Bells featured two of the bigger names in indie and alternative music – the Shins' singer/guitarist James Mercer and producer/multi-instrumentalist Brian Burton, aka Danger Mouse – the duo managed to keep their project secret for a relatively long time. The pair were inspired to collaborate when they met at 2004's Roskilde music festival in Denmark, where they discovered they were fans of each other's work. However, they didn't start writing and recording together as a band until March 2008, when Mercer holed up in Burton's home studio in Los Angeles. The duo took a different approach to their work together than they had with their other projects: Burton avoided the sample-heavy style he used on The Grey Album and Beck's Modern Guilt, and played only live instruments, while Mercer broadened his vocal style to include falsettos and deeper registers. Mercer and Burton announced they were Broken Bells in fall 2009, and late that year they released their debut single, "The High Road." Their self-titled debut album arrived in spring 2010. A year later, the Meyrin Fields EP arrived, featuring previously unreleased tracks as well as the title track, which had been the B-side to the single The Ghost Inside. In late 2013 the duo released a teaser for a forthcoming second album, entitled After the Disco, in the shape of a retro-futurist short film starring Anton Yelchin and Kate Mara. The album was preceded by the singles "After the Disco" and "Holding on for Life," which had an old-school, psychedelic '70s feel, right down to the production, with the latter track sounding uncannily like the Bee Gees. After the Disco arrived in February 2014.

Heather Phares, Allmusic.com

Broken Bells - Albums Collection 2010-2014 (3CD) [Re-Up]






Broken Bells - Albums Collection 2010-2014 (3CD) [Re-Up]

Broken Bells - Broken Bells (2010)
EAC | FLAC | Tracks (Cue&Log) ~ 274 Mb | Mp3 (CBR320) ~ 122 Mb
Label: Columbia | # 88697 55865 2 | Time: 00:37:30 | Scans included

James Mercer and Danger Mouse (aka Brian Burton) want their project Broken Bells to be seen, and heard, as an honest-to-goodness band, not a side-project dalliance. It's a little tricky to do that when first listening to their self-titled debut album, since they're such well-known and distinctive talents: Mercer crafted singularly bittersweet indie pop with the Shins, while Burton brought the Beatles and Jay-Z together on The Grey Album and went on to shape sounds for equally omnivorous artists like Beck and Gorillaz. Mercer's songwriting skills and Danger Mouse's production mastery sound like a potent combo, and they are, when the pair balances its ambitions and respective strengths. They work hard – maybe too hard – at avoiding their previous sounds. Mercer's vocals and melodies will almost certainly evoke the Shins to some degree or another, but he and Burton steer clear of the bright pop that countered that band's gloomier moments in favor of winding melodies and mellow atmospheres. While these songs don't feel as confessional as Mercer's work with his other band, they strive for an intimacy that the lush production and arrangements tend to distance. At times, this makes for intriguing contrasts: “Citizen” presents its small melody in lavish surroundings – it’s hazy bedroom pop, if that bedroom were in a five-star hotel with 1000-thread-count sheets. Too often, though, Broken Bells’ songs aren’t as compelling as the trappings around them, though touches like “October”’s wah-wah piano and “Your Head Is on Fire”’s zero-gravity synths are enjoyable in their own right. When Burton and Mercer get their styles to really mix, instead of just share the same space, they live up to their potential. “The High Road” melds slick electronic percussion and a searching, minor-key melody into something that echoes the duo’s previous work without rehashing it. “The Ghost Inside” is especially exciting, pushing Mercer outside of his comfort zone by pairing his falsetto with wobbly keyboards and strings. Toward the end, Broken Bells break out of their meandering with “Mongrel Heart” and “The Mall & the Misery,” which, after a lengthy expanse of strings and horns, closes the album with some crisp chamber pop. Somewhat surprisingly, Broken Bells is an honest-to-goodness debut album – there are as many promising flashes as frustrating moments here. Mercer and Burton have obvious chemistry, but they need to blend more for true alchemy.

Heather Phares, Allmusic.com

Tracklist:

01. The High Road (03:52)
02. Vaporize (03:29)
03. Your Head Is On Fire (03:04)
04. The Ghost Inside (03:18)
05. Sailing To Nowhere (03:46)
06. Trap Doors (03:19)
07. Citizen (04:29)
08. October (03:39)
09. Mongrel Heart (04:23)
10. The Mall And Misery (04:06)


Exact Audio Copy V0.99 prebeta 5 from 4. May 2009

EAC extraction logfile from 17. May 2011, 11:41

Broken Bells / Broken Bells

Used drive : PIONEER DVD-RW DVR-118L Adapter: 2 ID: 0

Read mode : Secure
Utilize accurate stream : Yes
Defeat audio cache : Yes
Make use of C2 pointers : No

Read offset correction : 6
Overread into Lead-In and Lead-Out : No
Fill up missing offset samples with silence : Yes
Delete leading and trailing silent blocks : No
Null samples used in CRC calculations : Yes
Used interface : Native Win32 interface for Win NT & 2000
Gap handling : Appended to previous track

Used output format : User Defined Encoder
Selected bitrate : 128 kBit/s
Quality : High
Add ID3 tag : No
Command line compressor : C:\Program Files (x86)\Exact Audio Copy\Flac\flac.exe
Additional command line options : -8 -V -T "ARTIST=%a" -T "TITLE=%t" -T "ALBUM=%g" -T "DATE=%y" -T "TRACKNUMBER=%n" -T "GENRE=%m" -T "COMMENT=EAC FLAC -8" %s


TOC of the extracted CD

Track | Start | Length | Start sector | End sector
––––––––––––––––––––––––––––-
1 | 0:00.00 | 3:52.15 | 0 | 17414
2 | 3:52.15 | 3:29.70 | 17415 | 33159
3 | 7:22.10 | 3:04.07 | 33160 | 46966
4 | 10:26.17 | 3:18.58 | 46967 | 61874
5 | 13:45.00 | 3:46.15 | 61875 | 78839
6 | 17:31.15 | 3:19.20 | 78840 | 93784
7 | 20:50.35 | 4:29.22 | 93785 | 113981
8 | 25:19.57 | 3:39.68 | 113982 | 130474
9 | 28:59.50 | 4:23.52 | 130475 | 150251
10 | 33:23.27 | 4:06.73 | 150252 | 168774


Track 1

Filename D:\Торрент\Broken Bells\2010 - Broken Bells\01. Broken Bells - The High Road.wav

Pre-gap length 0:00:02.00

Peak level 98.8 %
Track quality 100.0 %
Test CRC 610E7E6A
Copy CRC 610E7E6A
Accurately ripped (confidence 200) [33F85E79]
Copy OK

Track 2

Filename D:\Торрент\Broken Bells\2010 - Broken Bells\02. Broken Bells - Vaporize.wav

Peak level 98.7 %
Track quality 100.0 %
Test CRC 6484C659
Copy CRC 6484C659
Accurately ripped (confidence 200) [0A9376BA]
Copy OK

Track 3

Filename D:\Торрент\Broken Bells\2010 - Broken Bells\03. Broken Bells - Your Head Is On Fire.wav

Pre-gap length 0:00:00.73

Peak level 98.8 %
Track quality 100.0 %
Test CRC BB837E33
Copy CRC BB837E33
Accurately ripped (confidence 200) [5872F4AC]
Copy OK

Track 4

Filename D:\Торрент\Broken Bells\2010 - Broken Bells\04. Broken Bells - The Ghost Inside.wav

Pre-gap length 0:00:02.06

Peak level 97.6 %
Track quality 100.0 %
Test CRC 1C561066
Copy CRC 1C561066
Accurately ripped (confidence 200) [A73D068C]
Copy OK

Track 5

Filename D:\Торрент\Broken Bells\2010 - Broken Bells\05. Broken Bells - Sailing To Nowhere.wav

Pre-gap length 0:00:00.73

Peak level 98.8 %
Track quality 100.0 %
Test CRC 0B38A196
Copy CRC 0B38A196
Accurately ripped (confidence 200) [E6934665]
Copy OK

Track 6

Filename D:\Торрент\Broken Bells\2010 - Broken Bells\06. Broken Bells - Trap Doors.wav

Pre-gap length 0:00:00.13

Peak level 98.7 %
Track quality 100.0 %
Test CRC C351C15C
Copy CRC C351C15C
Accurately ripped (confidence 200) [7C6CB6E1]
Copy OK

Track 7

Filename D:\Торрент\Broken Bells\2010 - Broken Bells\07. Broken Bells - Citizen.wav

Pre-gap length 0:00:00.10

Peak level 98.8 %
Track quality 99.9 %
Test CRC C95050E1
Copy CRC C95050E1
Accurately ripped (confidence 200) [120120D7]
Copy OK

Track 8

Filename D:\Торрент\Broken Bells\2010 - Broken Bells\08. Broken Bells - October.wav

Peak level 98.8 %
Track quality 100.0 %
Test CRC 6B396CDA
Copy CRC 6B396CDA
Accurately ripped (confidence 200) [37C5B30F]
Copy OK

Track 9

Filename D:\Торрент\Broken Bells\2010 - Broken Bells\09. Broken Bells - Mongrel Heart.wav

Pre-gap length 0:00:01.80

Peak level 98.8 %
Track quality 100.0 %
Test CRC 4D2C95C5
Copy CRC 4D2C95C5
Accurately ripped (confidence 200) [B7F823D0]
Copy OK

Track 10

Filename D:\Торрент\Broken Bells\2010 - Broken Bells\10. Broken Bells - The Mall And Misery.wav

Peak level 99.8 %
Track quality 100.0 %
Test CRC 743A8864
Copy CRC 743A8864
Accurately ripped (confidence 200) [9883799E]
Copy OK


All tracks accurately ripped

No errors occurred

End of status report

foobar2000 1.2 / Dynamic Range Meter 1.1.1
log date: 2014-06-30 20:50:11

––––––––––––––––––––––––––––––––––––––––
Analyzed: Broken Bells / Broken Bells
––––––––––––––––––––––––––––––––––––––––

DR Peak RMS Duration Track
––––––––––––––––––––––––––––––––––––––––
DR8 -0.11 dB -9.23 dB 3:52 01-The High Road
DR7 -0.11 dB -9.68 dB 3:30 02-Vaporize
DR8 -0.10 dB -9.57 dB 3:04 03-Your Head Is On Fire
DR7 -0.21 dB -8.12 dB 3:19 04-The Ghost Inside
DR8 -0.10 dB -11.06 dB 3:46 05-Sailing To Nowhere
DR6 -0.11 dB -7.83 dB 3:19 06-Trap Doors
DR7 -0.10 dB -8.70 dB 4:29 07-Citizen
DR6 -0.11 dB -7.97 dB 3:40 08-October
DR6 -0.11 dB -7.88 dB 4:24 09-Mongrel Heart
DR6 -0.01 dB -8.80 dB 4:07 10-The Mall And Misery
––––––––––––––––––––––––––––––––––––––––

Number of tracks: 10
Official DR value: DR7

Samplerate: 44100 Hz
Channels: 2
Bits per sample: 16
Bitrate: 780 kbps
Codec: FLAC
================================================================================




Broken Bells - Albums Collection 2010-2014 (3CD) [Re-Up]

Broken Bells - Meyrin Fields (2011) EP
EAC | FLAC | Tracks (Cue&Log) ~ 87 Mb | Mp3 (CBR320) ~ 38 Mb
Label: Columbia | # 88697 86130 2 | Time: 00:11:42 | Scans included

When a producer as prolific as Danger Mouse and a songwriter as multifaceted as James Mercer get together, there are bound to be some bizarre studio concoctions. While their self-titled debut album as Broken Bells was promising, it occasionally felt like the duo was holding itself in check. Meyrin Fields, however, unleashes the more psychedelic side of the band's talents with songs that are less subdued and studied, and more fanciful and energetic. The EP is bookended by its two most fully realized songs. Though the moody title track was originally released as a B-side to "The Ghost Inside," it's a shame "Meyrin Fields" didn't appear on Broken Bells: Mercer warns, "It's coming, wait for it" over electronic squiggles and an oddly menacing bassline that has more weight and momentum than all the songs on Broken Bells' debut combined. This song and "Heartless Empire," which pairs the weirder side of Mercer's brainy, melancholy pop with intergalactic production by Mr. Mouse, show just how well they complement each other when they're firing on all cylinders. While the surfy "Windows" and the instrumental "An Easy Life" – which recalls Danger Mouse's previous collaborators, Gorillaz – aren't quite as full-fledged as the EP's other songs, they still show how dynamic Broken Bells' balance of solid hooks and sonic flights of fancy can be. In many ways, this glimpse at the strange underbelly of Mercer and Mouse's music is more exciting than Broken Bells was; at the very least, it shows that there's more life and creativity in this project than just the one album. Meyrin Fields may be under 12 minutes long, but it's still a musical goodie bag that sounds like it was as much fun to make as it is to hear.

Heather Phares, Allmusic.com

Tracklist:

01. Meyrin Fields (02:48)
02. Windows (03:13)
03. An Easy Life (02:56)
04. Heartless Empire (02:44)


Exact Audio Copy V0.99 prebeta 5 from 4. May 2009

EAC extraction logfile from 17. May 2011, 12:14

Broken Bells / Meyrin Fields

Used drive : PIONEER DVD-RW DVR-118L Adapter: 2 ID: 0

Read mode : Secure
Utilize accurate stream : Yes
Defeat audio cache : Yes
Make use of C2 pointers : No

Read offset correction : 6
Overread into Lead-In and Lead-Out : No
Fill up missing offset samples with silence : Yes
Delete leading and trailing silent blocks : No
Null samples used in CRC calculations : Yes
Used interface : Native Win32 interface for Win NT & 2000
Gap handling : Appended to previous track

Used output format : User Defined Encoder
Selected bitrate : 128 kBit/s
Quality : High
Add ID3 tag : No
Command line compressor : C:\Program Files (x86)\Exact Audio Copy\Flac\flac.exe
Additional command line options : -8 -V -T "ARTIST=%a" -T "TITLE=%t" -T "ALBUM=%g" -T "DATE=%y" -T "TRACKNUMBER=%n" -T "GENRE=%m" -T "COMMENT=EAC FLAC -8" %s


TOC of the extracted CD

Track | Start | Length | Start sector | End sector
––––––––––––––––––––––––––––-
1 | 0:00.00 | 2:48.05 | 0 | 12604
2 | 2:48.05 | 3:13.02 | 12605 | 27081
3 | 6:01.07 | 2:56.45 | 27082 | 40326
4 | 8:57.52 | 2:44.51 | 40327 | 52677


Track 1

Filename D:\Торрент\Broken Bells\2011 - Meyrin Fields [EP]\01. Broken Bells - Meyrin Fields.wav

Pre-gap length 0:00:02.00

Peak level 98.8 %
Track quality 100.0 %
Test CRC 99A76E2F
Copy CRC 99A76E2F
Cannot be verified as accurate (confidence 2) [E9F0C478], AccurateRip returned [EFBDA210]
Copy OK

Track 2

Filename D:\Торрент\Broken Bells\2011 - Meyrin Fields [EP]\02. Broken Bells - Windows.wav

Pre-gap length 0:00:01.16

Peak level 98.8 %
Track quality 100.0 %
Test CRC C75D2067
Copy CRC C75D2067
Cannot be verified as accurate (confidence 2) [9201C212], AccurateRip returned [8852E9D7]
Copy OK

Track 3

Filename D:\Торрент\Broken Bells\2011 - Meyrin Fields [EP]\03. Broken Bells - An Easy Life.wav

Pre-gap length 0:00:01.04

Peak level 98.8 %
Track quality 100.0 %
Test CRC 8324B46E
Copy CRC 8324B46E
Cannot be verified as accurate (confidence 2) [D0B8C12F], AccurateRip returned [C4A625F5]
Copy OK

Track 4

Filename D:\Торрент\Broken Bells\2011 - Meyrin Fields [EP]\04. Broken Bells - Heartless Empire.wav

Pre-gap length 0:00:01.81

Peak level 98.8 %
Track quality 100.0 %
Test CRC 1A211555
Copy CRC 1A211555
Cannot be verified as accurate (confidence 2) [31212BE2], AccurateRip returned [DD821355]
Copy OK


No tracks could be verified as accurate
You may have a different pressing from the one(s) in the database

No errors occurred

End of status report

foobar2000 1.2 / Dynamic Range Meter 1.1.1
log date: 2014-06-30 20:50:16

––––––––––––––––––––––––––––––––––––––––
Analyzed: Broken Bells / Meyrin Fields
––––––––––––––––––––––––––––––––––––––––

DR Peak RMS Duration Track
––––––––––––––––––––––––––––––––––––––––
DR6 -0.10 dB -7.92 dB 2:48 01-Meyrin Fields
DR7 -0.10 dB -7.97 dB 3:13 02-Windows
DR5 -0.10 dB -6.68 dB 2:57 03-An Easy Life
DR5 -0.10 dB -6.37 dB 2:45 04-Heartless Empire
––––––––––––––––––––––––––––––––––––––––

Number of tracks: 4
Official DR value: DR5

Samplerate: 44100 Hz
Channels: 2
Bits per sample: 16
Bitrate: 887 kbps
Codec: FLAC
================================================================================




Broken Bells - Albums Collection 2010-2014 (3CD) [Re-Up]

Broken Bells - After The Disco (2014)
EAC | FLAC | Tracks (Cue&Log) ~ 289 Mb | Mp3 (CBR320) ~ 105 Mb
Label: Columbia | # 88843037172 | Time: 00:45:52 | Scans ~ 153 Mb

At times, Broken Bells' self-titled debut was so hazy that it felt like it was about to dissipate in a cloud of wry West Coast melancholy, but on After the Disco, James Mercer and Brian Burton give that atmosphere a little more form. Building on previous highlights like "The Ghost Inside" and "The High Road," the pair dive deeper into their synth pop, new wave, and disco fascinations to soundtrack songs that, as the album title suggests, are filled with comedowns and disappointments. Former single and standout track "Holding on for Life" uses its slow-motion disco beat and eerie keyboards to underscore the emptiness lurking in lyrics like "what a lovely day to be lonely," cultivating a mood that falls somewhere between desperate and glamorous. As always in Broken Bells' world, there's a fine line between bittersweet and bummed out; while these aren't the easiest moods to make appealing, Burton and Mercer succeed when they bring some energy to the proceedings. "Medicine" bolsters its contemplative sighs with spiky, percussive pop that recalls Gotye, while "No Matter What You're Told" gives some brassy bite to its blasé cynicism. Here and on songs like "Lazy Wonderland," which sells the merits of watching the wheels go round and round with some alluring major-minor chord changes, After the Disco feels like a much more organic and satisfying blend of Mercer and Burton's respective strengths than Broken Bells did. However, the duo still sometimes border on being too tasteful, and much of the album's pleasure comes from appreciating flourishes like the flute-like keys on "Leave It Alone" and the update of smoky '70s soft rock on "The Angel and the Fool" rather than the songs' actual sentiments; even the title of the closing track, "The Remains of Rock & Roll," suggests that passion doesn't have much of a place here. Given Burton and Mercer's pedigrees, it's hard not to want more from Broken Bells, but After the Disco's strongest moments suggest that their music is coming into focus.

Heather Phares, Allmusic.com

Tracklist:

01. Perfect World (06:24)
02. After the Disco (03:39)
03. Holding On for Life (03:56)
04. Leave It Alone (05:30)
05. The Changing Lights (03:48)
06. Control (03:41)
07. Lazy Wonderland (03:21)
08. Medicine (03:28)
09. No Matter What You're Told (03:50)
10. The Angel and the Fool (03:15)
11. The Remains of Rock & Roll (04:54)


Exact Audio Copy V1.0 beta 3 from 29. August 2011

EAC extraction logfile from 27. February 2014, 19:32

Broken Bells / After the Disco

Used drive : PIONEER DVD-RW DVR-118L Adapter: 2 ID: 0

Read mode : Secure
Utilize accurate stream : Yes
Defeat audio cache : Yes
Make use of C2 pointers : No

Read offset correction : 6
Overread into Lead-In and Lead-Out : No
Fill up missing offset samples with silence : Yes
Delete leading and trailing silent blocks : No
Null samples used in CRC calculations : Yes
Used interface : Native Win32 interface for Win NT & 2000
Gap handling : Appended to previous track

Used output format : User Defined Encoder
Selected bitrate : 1024 kBit/s
Quality : High
Add ID3 tag : No
Command line compressor : C:\Program Files (x86)\Exact Audio Copy\Flac\flac.exe
Additional command line options : -8 -V -T "ARTIST=%artist%" -T "TITLE=%title%" -T "ALBUM=%albumtitle%" -T "DATE=%year%" -T "TRACKNUMBER=%tracknr%" -T "GENRE=%genre%" -T "PERFORMER=%albuminterpret%" -T "COMPOSER=%composer%" %haslyrics%–tag-from-file=LYRICS="%lyricsfile%"%haslyrics% -T "ALBUMARTIST=%albumartist%" -T "DISCNUMBER=%cdnumber%" -T "TOTALDISCS=%totalcds%" -T "TOTALTRACKS=%numtracks%" -T "COMMENT=%comment%" %source% -o %dest%


TOC of the extracted CD

Track | Start | Length | Start sector | End sector
––––––––––––––––––––––––––––-
1 | 0:00.00 | 6:24.32 | 0 | 28831
2 | 6:24.32 | 3:39.22 | 28832 | 45278
3 | 10:03.54 | 3:56.65 | 45279 | 63043
4 | 14:00.44 | 5:30.64 | 63044 | 87857
5 | 19:31.33 | 3:48.41 | 87858 | 104998
6 | 23:19.74 | 3:41.32 | 104999 | 121605
7 | 27:01.31 | 3:21.59 | 121606 | 136739
8 | 30:23.15 | 3:28.52 | 136740 | 152391
9 | 33:51.67 | 3:50.54 | 152392 | 169695
10 | 37:42.46 | 3:15.06 | 169696 | 184326
11 | 40:57.52 | 4:54.39 | 184327 | 206415


Track 1

Filename D:\CDRip\01 - Perfect World.wav

Pre-gap length 0:00:02.00

Peak level 100.0 %
Extraction speed 1.1 X
Track quality 99.9 %
Test CRC 825651BA
Copy CRC 825651BA
Track not present in AccurateRip database
Copy OK

Track 2

Filename D:\CDRip\02 - After the Disco.wav

Peak level 100.0 %
Extraction speed 1.2 X
Track quality 100.0 %
Test CRC 7A94087C
Copy CRC 7A94087C
Track not present in AccurateRip database
Copy OK

Track 3

Filename D:\CDRip\03 - Holding On for Life.wav

Peak level 100.0 %
Extraction speed 1.4 X
Track quality 100.0 %
Test CRC 27F74368
Copy CRC 27F74368
Track not present in AccurateRip database
Copy OK

Track 4

Filename D:\CDRip\04 - Leave It Alone.wav

Peak level 99.2 %
Extraction speed 1.5 X
Track quality 100.0 %
Test CRC 52968B71
Copy CRC 52968B71
Track not present in AccurateRip database
Copy OK

Track 5

Filename D:\CDRip\05 - The Changing Lights.wav

Peak level 99.6 %
Extraction speed 1.6 X
Track quality 100.0 %
Test CRC 9123E0FA
Copy CRC 9123E0FA
Track not present in AccurateRip database
Copy OK

Track 6

Filename D:\CDRip\06 - Control.wav

Peak level 100.0 %
Extraction speed 1.4 X
Track quality 99.9 %
Test CRC C69E7E9F
Copy CRC C69E7E9F
Track not present in AccurateRip database
Copy OK

Track 7

Filename D:\CDRip\07 - Lazy Wonderland.wav

Peak level 98.3 %
Extraction speed 1.7 X
Track quality 100.0 %
Test CRC 82BF4170
Copy CRC 82BF4170
Track not present in AccurateRip database
Copy OK

Track 8

Filename D:\CDRip\08 - Medicine.wav

Peak level 100.0 %
Extraction speed 1.7 X
Track quality 100.0 %
Test CRC E2EDCFBB
Copy CRC E2EDCFBB
Track not present in AccurateRip database
Copy OK

Track 9

Filename D:\CDRip\09 - No Matter What You're Told.wav

Peak level 99.5 %
Extraction speed 1.6 X
Track quality 99.9 %
Test CRC 36FFD1E8
Copy CRC 36FFD1E8
Track not present in AccurateRip database
Copy OK

Track 10

Filename D:\CDRip\10 - The Angel and the Fool.wav

Peak level 99.2 %
Extraction speed 1.8 X
Track quality 100.0 %
Test CRC 312C3798
Copy CRC 312C3798
Track not present in AccurateRip database
Copy OK

Track 11

Filename D:\CDRip\11 - The Remains of Rock & Roll.wav

Peak level 100.0 %
Extraction speed 2.0 X
Track quality 100.0 %
Test CRC 0085B959
Copy CRC 0085B959
Track not present in AccurateRip database
Copy OK


None of the tracks are present in the AccurateRip database

No errors occurred

End of status report

–– CUETools DB Plugin V2.1.3

[CTDB TOCID: ABmFaPjHzvkCTSks0iLYVj.yPAw-] found, Submit result: ABmFaPjHzvkCTSks0iLYVj.yPAw- has been confirmed
[cd00d54e] (31/33) Accurately ripped
[76e5a18b] (01/33) No match
[120eb122] (01/33) No match


==== Log checksum CC866229E0A32ACD3D9BCFC2ADA99933356556F74872E34CF10C33A48C26BC5A ====

foobar2000 1.2 / Dynamic Range Meter 1.1.1
log date: 2014-06-30 20:50:29

––––––––––––––––––––––––––––––––––––––––
Analyzed: Broken Bells / After the Disco
––––––––––––––––––––––––––––––––––––––––

DR Peak RMS Duration Track
––––––––––––––––––––––––––––––––––––––––
DR7 0.00 dB -8.63 dB 6:24 01-Perfect World
DR7 0.00 dB -8.38 dB 3:39 02-After the Disco
DR6 0.00 dB -7.40 dB 3:57 03-Holding On for Life
DR7 -0.07 dB -10.28 dB 5:31 04-Leave It Alone
DR6 -0.03 dB -6.86 dB 3:49 05-The Changing Lights
DR7 0.00 dB -8.42 dB 3:41 06-Control
DR8 -0.15 dB -10.07 dB 3:22 07-Lazy Wonderland
DR7 0.00 dB -9.40 dB 3:29 08-Medicine
DR7 -0.04 dB -8.83 dB 3:51 09-No Matter What You're Told
DR9 -0.07 dB -10.24 dB 3:15 10-The Angel and the Fool
DR6 0.00 dB -8.65 dB 4:55 11-The Remains of Rock & Roll
––––––––––––––––––––––––––––––––––––––––

Number of tracks: 11
Official DR value: DR7

Samplerate: 44100 Hz
Channels: 2
Bits per sample: 16
Bitrate: 905 kbps
Codec: FLAC
================================================================================




All thanks to original releaser - Знак Качества

More interesting music in My Blog