Subcategories

Bryan Ferry + Roxy Music - The Platinum Collection (2004) 3CD Box Set [Re-Up]

Posted By: Designol
Bryan Ferry + Roxy Music - The Platinum Collection (2004) 3CD Box Set [Re-Up]

Bryan Ferry + Roxy Music - The Platinum Collection (2004) 3CD Box Set
EAC | FLAC | Tracks (Cue&Log) ~ 1.2 Gb (incl 5%) | Scans ~ 75 Mb | Time: 02:58:50
Genre: Pop Rock, Art Rock, Glam Rock, Proto-Punk | Label: Virgin | # 07243-57 1229-2-4

The first Ferry and Roxy collection to include Bryan's most recent work alongside such group and solo masterpieces as Virginia Plain; Street Life; Love Is the Drug; Avalon; More Than This; A Hard Rain's Gonna Fall; Both Ends Burning; Smoke Gets in Your Eyes; Angel Eyes; Over You; The Same Old Scene; Let's Stick Together (Let's Work Together); Sign of the Times, and more. 45 tracks from the most debonair (and complex) singer in rock.

Along with Queen, Roxy Music started life as a glam band with a heavy prog rock edge before embarking on a long and successful career that saw a variety of musical styles touched upon. And while quite a few single-disc Roxy Music compilations have been released over the years (the best probably being the 1986 collection, Street Life: 20 Greatest Hits), most die-hard Roxy fans would argue that there were far too many highlights that fell through the cracks due to the limitation of a single disc. Hence, the 2004, triple-disc set The Platinum Collection. In conjunction with his Roxy work, singer Bryan Ferry also issued solo albums (which were quite stylistically similar to one another), and both are included in hefty portions here. Although never the superstars in the U.S. that they were in the U.K., Roxy Music and Ferry certainly had the tunes – the early classics "Virginia Plain," "Do the Strand," and "Love Is the Drug" – while latter day tracks as "More Than This," "Avalon," and a cover of John Lennon's "Jealous Guy" (the latter of which was a U.K. chart-topper) showed the group eventually mature into a more mainstream band. The Platinum Collection bridges the gap between the countless single-disc Roxy compilations, and the exhaustive Thrill of It All box set.

Review by Greg Prato, Allmusic.com

Originally conceived for the British market, where Roxy Music and its debonair frontman Bryan Ferry were much more popular than in the States, The Platinum Collection gathers every band and Ferry single, along with some popular album tracks, on three chronologically arranged discs. As an overview of both acts' extensive and connected careers, from 1973 through Ferry's 2002 Frantic album, this is a far more comprehensive overview than the many single compilations already released. Initially, there was a substantial musical dissimilarity between lead vocalist Ferry's solo work, much of it less artsy and aggressive than early Roxy songs such as "Do the Strand" and "Virginia Plain." Eventually, by the late 70s the two became less distinct. The primary difference being Ferry's tendency to radically rearrange musty pop, folk, and R&B covers between his more sensually lush, dance oriented music. Roxy Music disbanded in 1983 leaving Ferry, whose solo work comprises almost half of this package and the entire third disc, to carry the torch. Short but pertinent notes about each song, along with small reproductions of the original British picture sleeves, provide some historical background. And although all three CDs include 15 tracks, there is plenty of unused room on each for more music. Regardless, this is an essential addition to any British rock fan's collection. The compilation is nearly as classy and sophisticated as the stylish band, and its suave singer, deserves.

Review by Hal Horowitz

Bryan Ferry + Roxy Music - The Platinum Collection (2004) 3CD Box Set [Re-Up]



Tracklist:

CD1:

01. Roxy Music - Virginia Plain (02:59)
02. Roxy Music - Pyjamarama (02:52)
03. Roxy Music - Do The Strand (04:02)
04. Bryan Ferry - A Hard Rain's A-Gonna Fall (05:20)
05. Roxy Music - Street Life (03:29)
06. Roxy Music - All I Want Is You (02:53)
07. Bryan Ferry - The 'In' Crowd (04:34)
08. Bryan Ferry - Smoke Gets In Your Eyes (02:54)
09. Bryan Ferry - You Go To My Head (02:43)
10. Roxy Music - Love Is The Drug (04:09)
11. Roxy Music - Both Ends Burning (05:15)
12. Bryan Ferry - Let's Stick Together (03:01)
13. Bryan Ferry - The Price Of Love (03:27)
14. Bryan Ferry - This Is Tomorrow (03:40)
15. Bryan Ferry - Tokyo Joe (03:55)

CD2:

01. Bryan Ferry - Sign Of The Times (02:28)
02. Bryan Ferry - What Goes On (04:11)
03. Bryan Ferry - Carrickfergus (03:48)
04. Roxy Music - Trash (02:13)
05. Roxy Music - Dance Away (03:47)
06. Roxy Music - Angel Eyes (02:52)
07. Roxy Music - Over You (03:28)
08. Roxy Music - Oh Yeah! (04:51)
09. Roxy Music - Same Old Scene (03:59)
10. Roxy Music - Jealous Guy (04:58)
11. Roxy Music - More Than This (04:30)
12. Roxy Music - Avalon (04:17)
13. Roxy Music - Take A Chance With Me (04:43)
14. Bryan Ferry - Don't Stop The Dance (04:21)
15. Bryan Ferry - Windswept (04:36)

CD3:

01. Bryan Ferry - Slave To Love (04:27)
02. Bryan Ferry - Is Your Love Strong Enough? (04:53)
03. Bryan Ferry - The Right Stuff (04:23)
04. Bryan Ferry - Kiss And Tell (04:54)
05. Bryan Ferry - Limbo (05:00)
06. Bryan Ferry - He'll Have To Go (04:04)
07. Bryan Ferry - I Put A Spell On You (05:27)
08. Bryan Ferry - Will You Love Me Tomorrow (04:19)
09. Bryan Ferry - Girl Of My Best Friend (03:26)
10. Bryan Ferry - Your Painted Smile (03:14)
11. Bryan Ferry - Mamouna (05:11)
12. Bryan Ferry - As Time Goes By (02:35)
13. Bryan Ferry - Goddess Of Love (03:33)
14. Bryan Ferry - It's All Over Now, Baby Blue (04:06)
15. Bryan Ferry - A Fool For Love (04:42)


Exact Audio Copy V0.99 prebeta 4 from 23. January 2008

EAC extraction logfile from 30. November 2008, 20:19

Bryan Ferry + Roxy Music / The Platinum Collection (Disc 1)

Used drive : TSSTcorpCDDVDW SH-S223F Adapter: 5 ID: 0

Read mode : Secure
Utilize accurate stream : Yes
Defeat audio cache : Yes
Make use of C2 pointers : No

Read offset correction : 6
Overread into Lead-In and Lead-Out : No
Fill up missing offset samples with silence : Yes
Delete leading and trailing silent blocks : No
Null samples used in CRC calculations : Yes
Used interface : Native Win32 interface for Win NT & 2000
Gap handling : Appended to previous track

Used output format : User Defined Encoder
Selected bitrate : 768 kBit/s
Quality : High
Add ID3 tag : No
Command line compressor : C:\Program Files\Exact Audio Copy\FLAC\FLAC.EXE
Additional command line options : -8 -V -T "ARTIST=%a" -T "TITLE=%t" -T "ALBUM=%g" -T "DATE=%y" -T "TRACKNUMBER=%n" -T "GENRE=%m" -T "TOTALTRACKS=%x" %s


TOC of the extracted CD

Track | Start | Length | Start sector | End sector
––––––––––––––––––––––––––––-
1 | 0:00.00 | 2:59.15 | 0 | 13439
2 | 2:59.15 | 2:52.47 | 13440 | 26386
3 | 5:51.62 | 4:02.13 | 26387 | 44549
4 | 9:54.00 | 5:20.20 | 44550 | 68569
5 | 15:14.20 | 3:29.10 | 68570 | 84254
6 | 18:43.30 | 2:53.15 | 84255 | 97244
7 | 21:36.45 | 4:34.65 | 97245 | 117859
8 | 26:11.35 | 2:54.45 | 117860 | 130954
9 | 29:06.05 | 2:43.55 | 130955 | 143234
10 | 31:49.60 | 4:09.05 | 143235 | 161914
11 | 35:58.65 | 5:15.65 | 161915 | 185604
12 | 41:14.55 | 3:01.12 | 185605 | 199191
13 | 44:15.67 | 3:27.65 | 199192 | 214781
14 | 47:43.57 | 3:40.45 | 214782 | 231326
15 | 51:24.27 | 3:55.18 | 231327 | 248969


Track 1

Filename C:\Rip\01 - Virginia Plain.wav

Pre-gap length 0:00:02.00

Peak level 93.9 %
Track quality 100.0 %
Test CRC E0FF6AEC
Copy CRC E0FF6AEC
Accurately ripped (confidence 13) [EAE96B67]
Copy OK

Track 2

Filename C:\Rip\02 - Pyjamarama.wav

Pre-gap length 0:00:00.72

Peak level 92.9 %
Track quality 100.0 %
Test CRC 92A4FACD
Copy CRC 92A4FACD
Accurately ripped (confidence 12) [5BF83BEB]
Copy OK

Track 3

Filename C:\Rip\03 - Do The Strand.wav

Pre-gap length 0:00:00.40

Peak level 94.1 %
Track quality 100.0 %
Test CRC 3995D8DE
Copy CRC 3995D8DE
Accurately ripped (confidence 12) [FA4B4255]
Copy OK

Track 4

Filename C:\Rip\04 - A Hard Rain's A-Gonna Fall.wav

Pre-gap length 0:00:01.10

Peak level 92.5 %
Track quality 100.0 %
Test CRC 94ED9D66
Copy CRC 94ED9D66
Accurately ripped (confidence 12) [E1439D1D]
Copy OK

Track 5

Filename C:\Rip\05 - Street Life.wav

Pre-gap length 0:00:00.74

Peak level 93.7 %
Track quality 100.0 %
Test CRC 2356C314
Copy CRC 2356C314
Accurately ripped (confidence 12) [59240F83]
Copy OK

Track 6

Filename C:\Rip\06 - All I Want Is You.wav

Pre-gap length 0:00:00.86

Peak level 94.1 %
Track quality 100.0 %
Test CRC EE870FBA
Copy CRC EE870FBA
Accurately ripped (confidence 12) [ACFCB5FB]
Copy OK

Track 7

Filename C:\Rip\07 - The 'In' Crowd.wav

Pre-gap length 0:00:01.04

Peak level 93.5 %
Track quality 100.0 %
Test CRC 16D55813
Copy CRC 16D55813
Accurately ripped (confidence 13) [CF356671]
Copy OK

Track 8

Filename C:\Rip\08 - Smoke Gets In Your Eyes.wav

Pre-gap length 0:00:00.52

Peak level 93.5 %
Track quality 100.0 %
Test CRC 3809EBA4
Copy CRC 3809EBA4
Accurately ripped (confidence 13) [0E703DC1]
Copy OK

Track 9

Filename C:\Rip\09 - You Go To My Head.wav

Pre-gap length 0:00:01.02

Peak level 94.1 %
Track quality 100.0 %
Test CRC CE9CEE10
Copy CRC CE9CEE10
Accurately ripped (confidence 12) [CBB9F52F]
Copy OK

Track 10

Filename C:\Rip\10 - Love Is The Drug.wav

Pre-gap length 0:00:01.30

Peak level 93.7 %
Track quality 99.9 %
Test CRC 468F437C
Copy CRC 468F437C
Accurately ripped (confidence 13) [E392B481]
Copy OK

Track 11

Filename C:\Rip\11 - Both Ends Burning.wav

Pre-gap length 0:00:01.42

Peak level 93.7 %
Track quality 100.0 %
Test CRC 269359EC
Copy CRC 269359EC
Accurately ripped (confidence 12) [D509A720]
Copy OK

Track 12

Filename C:\Rip\12 - Let's Stick Together.wav

Pre-gap length 0:00:01.38

Peak level 93.1 %
Track quality 100.0 %
Test CRC 12D9FA62
Copy CRC 12D9FA62
Accurately ripped (confidence 13) [04DCAAEA]
Copy OK

Track 13

Filename C:\Rip\13 - The Price Of Love.wav

Pre-gap length 0:00:01.48

Peak level 94.1 %
Track quality 99.9 %
Test CRC 9600AECF
Copy CRC 9600AECF
Accurately ripped (confidence 12) [2549B79A]
Copy OK

Track 14

Filename C:\Rip\14 - This Is Tomorrow.wav

Pre-gap length 0:00:01.00

Peak level 92.5 %
Track quality 100.0 %
Test CRC 36302F7E
Copy CRC 36302F7E
Accurately ripped (confidence 12) [79F872AC]
Copy OK

Track 15

Filename C:\Rip\15 - Tokyo Joe.wav

Pre-gap length 0:00:00.52

Peak level 93.1 %
Track quality 100.0 %
Test CRC 7B22BB28
Copy CRC 7B22BB28
Accurately ripped (confidence 11) [BD9BD83C]
Copy OK


All tracks accurately ripped

No errors occurred

End of status report

foobar2000 1.2 / Dynamic Range Meter 1.1.1
log date: 2013-08-17 18:44:02

––––––––––––––––––––––––––––––––––––––––
Analyzed: Bryan Ferry / The Platinum Collection (Disc 1) (1-8)
Roxy Music / The Platinum Collection (Disc 1) (9-15)
––––––––––––––––––––––––––––––––––––––––

DR Peak RMS Duration Track
––––––––––––––––––––––––––––––––––––––––
DR8 -0.67 dB -9.80 dB 5:20 04-A Hard Rain's A-Gonna Fall
DR6 -0.58 dB -7.85 dB 4:35 07-The 'In' Crowd
DR7 -0.58 dB -9.63 dB 2:55 08-Smoke Gets In Your Eyes
DR9 -0.53 dB -11.38 dB 2:44 09-You Go To My Head
DR7 -0.62 dB -9.30 dB 3:01 12-Let's Stick Together
DR6 -0.52 dB -8.30 dB 3:28 13-The Price Of Love
DR8 -0.67 dB -10.97 dB 3:41 14-This Is Tomorrow
DR8 -0.62 dB -10.00 dB 3:55 15-Tokyo Joe
DR7 -0.54 dB -10.48 dB 2:59 01-Virginia Plain
DR8 -0.64 dB -10.00 dB 2:53 02-Pyjamarama
DR7 -0.52 dB -8.78 dB 4:02 03-Do The Strand
DR7 -0.56 dB -9.34 dB 3:29 05-Street Life
DR7 -0.52 dB -8.67 dB 2:53 06-All I Want Is You
DR8 -0.56 dB -9.92 dB 4:09 10-Love Is The Drug
DR8 -0.56 dB -9.52 dB 5:16 11-Both Ends Burning
––––––––––––––––––––––––––––––––––––––––

Number of tracks: 15
Official DR value: DR7

Samplerate: 44100 Hz
Channels: 2
Bits per sample: 16
Bitrate: 975 kbps
Codec: FLAC
================================================================================


Exact Audio Copy V0.99 prebeta 4 from 23. January 2008

EAC extraction logfile from 30. November 2008, 19:54

Bryan Ferry + Roxy Music / The Platinum Collection (Disc 2)

Used drive : TSSTcorpCDDVDW SH-S223F Adapter: 5 ID: 0

Read mode : Secure
Utilize accurate stream : Yes
Defeat audio cache : Yes
Make use of C2 pointers : No

Read offset correction : 6
Overread into Lead-In and Lead-Out : No
Fill up missing offset samples with silence : Yes
Delete leading and trailing silent blocks : No
Null samples used in CRC calculations : Yes
Used interface : Native Win32 interface for Win NT & 2000
Gap handling : Appended to previous track

Used output format : User Defined Encoder
Selected bitrate : 768 kBit/s
Quality : High
Add ID3 tag : No
Command line compressor : C:\Program Files\Exact Audio Copy\FLAC\FLAC.EXE
Additional command line options : -8 -V -T "ARTIST=%a" -T "TITLE=%t" -T "ALBUM=%g" -T "DATE=%y" -T "TRACKNUMBER=%n" -T "GENRE=%m" -T "TOTALTRACKS=%x" %s


TOC of the extracted CD

Track | Start | Length | Start sector | End sector
––––––––––––––––––––––––––––-
1 | 0:00.00 | 2:28.72 | 0 | 11171
2 | 2:28.72 | 4:11.35 | 11172 | 30031
3 | 6:40.32 | 3:48.60 | 30032 | 47191
4 | 10:29.17 | 2:13.30 | 47192 | 57196
5 | 12:42.47 | 3:47.18 | 57197 | 74239
6 | 16:29.65 | 2:52.65 | 74240 | 87204
7 | 19:22.55 | 3:28.25 | 87205 | 102829
8 | 22:51.05 | 4:51.25 | 102830 | 124679
9 | 27:42.30 | 3:59.07 | 124680 | 142611
10 | 31:41.37 | 4:58.05 | 142612 | 164966
11 | 36:39.42 | 4:30.48 | 164967 | 185264
12 | 41:10.15 | 4:17.20 | 185265 | 204559
13 | 45:27.35 | 4:43.57 | 204560 | 225841
14 | 50:11.17 | 4:21.65 | 225842 | 245481
15 | 54:33.07 | 4:36.63 | 245482 | 266244


Track 1

Filename C:\Rip\01 - Sign Of The Times.wav

Pre-gap length 0:00:02.00

Peak level 87.7 %
Track quality 100.0 %
Test CRC 99E94B02
Copy CRC 99E94B02
Accurately ripped (confidence 11) [D3E03BD5]
Copy OK

Track 2

Filename C:\Rip\02 - What Goes On.wav

Peak level 88.0 %
Track quality 100.0 %
Test CRC C4F7AFE9
Copy CRC C4F7AFE9
Accurately ripped (confidence 11) [5EB89395]
Copy OK

Track 3

Filename C:\Rip\03 - Carrickfergus.wav

Pre-gap length 0:00:00.45

Peak level 88.0 %
Track quality 99.9 %
Test CRC B3848AD5
Copy CRC B3848AD5
Accurately ripped (confidence 11) [323861D9]
Copy OK

Track 4

Filename C:\Rip\04 - Trash.wav

Pre-gap length 0:00:01.56

Peak level 89.4 %
Track quality 100.0 %
Test CRC 492FA45B
Copy CRC 492FA45B
Accurately ripped (confidence 11) [FE0C19D4]
Copy OK

Track 5

Filename C:\Rip\05 - Dance Away.wav

Pre-gap length 0:00:01.37

Peak level 89.4 %
Track quality 100.0 %
Test CRC A9A30474
Copy CRC A9A30474
Accurately ripped (confidence 12) [DC32CB25]
Copy OK

Track 6

Filename C:\Rip\06 - Angel Eyes.wav

Pre-gap length 0:00:00.53

Peak level 98.8 %
Track quality 100.0 %
Test CRC DE778AE2
Copy CRC DE778AE2
Accurately ripped (confidence 12) [3218F845]
Copy OK

Track 7

Filename C:\Rip\07 - Over You.wav

Pre-gap length 0:00:01.21

Peak level 88.6 %
Track quality 100.0 %
Test CRC DA8666A9
Copy CRC DA8666A9
Accurately ripped (confidence 11) [B9B27CCA]
Copy OK

Track 8

Filename C:\Rip\08 - Oh Yeah!.wav

Pre-gap length 0:00:01.29

Peak level 89.4 %
Track quality 100.0 %
Test CRC CD326D5B
Copy CRC CD326D5B
Accurately ripped (confidence 11) [4E6341CD]
Copy OK

Track 9

Filename C:\Rip\09 - Same Old Scene.wav

Pre-gap length 0:00:00.65

Peak level 89.4 %
Track quality 99.9 %
Test CRC 9CFC3EF7
Copy CRC 9CFC3EF7
Accurately ripped (confidence 11) [C99A4E1A]
Copy OK

Track 10

Filename C:\Rip\10 - Jealous Guy.wav

Pre-gap length 0:00:01.58

Peak level 88.9 %
Track quality 100.0 %
Test CRC 9215B646
Copy CRC 9215B646
Accurately ripped (confidence 12) [C1B2AB97]
Copy OK

Track 11

Filename C:\Rip\11 - More Than This.wav

Pre-gap length 0:00:01.50

Peak level 88.8 %
Track quality 99.9 %
Test CRC F493EF60
Copy CRC F493EF60
Accurately ripped (confidence 11) [7F05496F]
Copy OK

Track 12

Filename C:\Rip\12 - Avalon.wav

Pre-gap length 0:00:01.40

Peak level 89.4 %
Track quality 100.0 %
Test CRC CF150A65
Copy CRC CF150A65
Accurately ripped (confidence 12) [DD9CC56D]
Copy OK

Track 13

Filename C:\Rip\13 - Take A Chance With Me.wav

Pre-gap length 0:00:01.57

Peak level 88.2 %
Track quality 100.0 %
Test CRC 06FDEBAF
Copy CRC 06FDEBAF
Accurately ripped (confidence 11) [B646DABF]
Copy OK

Track 14

Filename C:\Rip\14 - Don't Stop The Dance.wav

Pre-gap length 0:00:01.56

Peak level 88.0 %
Track quality 100.0 %
Test CRC 4C2CEEC3
Copy CRC 4C2CEEC3
Accurately ripped (confidence 11) [5B6AB663]
Copy OK

Track 15

Filename C:\Rip\15 - Windswept.wav

Pre-gap length 0:00:01.78

Peak level 88.0 %
Track quality 100.0 %
Test CRC 382CA5CE
Copy CRC 382CA5CE
Accurately ripped (confidence 11) [B0B2BFB9]
Copy OK


All tracks accurately ripped

No errors occurred

End of status report

foobar2000 1.2 / Dynamic Range Meter 1.1.1
log date: 2013-08-17 18:44:23

––––––––––––––––––––––––––––––––––––––––
Analyzed: Bryan Ferry / The Platinum Collection (Disc 2) (1-5)
Roxy Music / The Platinum Collection (Disc 2) (6-15)
––––––––––––––––––––––––––––––––––––––––

DR Peak RMS Duration Track
––––––––––––––––––––––––––––––––––––––––
DR6 -1.14 dB -8.45 dB 2:29 01-Sign Of The Times
DR6 -1.10 dB -8.68 dB 4:11 02-What Goes On
DR9 -1.11 dB -13.11 dB 3:49 03-Carrickfergus
DR8 -1.10 dB -10.47 dB 4:22 14-Don't Stop The Dance
DR8 -1.10 dB -10.95 dB 4:37 15-Windswept
DR6 -0.97 dB -9.06 dB 2:13 04-Trash
DR8 -0.97 dB -10.05 dB 3:47 05-Dance Away
DR10 -0.10 dB -11.22 dB 2:53 06-Angel Eyes
DR7 -1.04 dB -10.49 dB 3:28 07-Over You
DR7 -0.97 dB -11.38 dB 4:51 08-Oh Yeah!
DR7 -0.97 dB -9.03 dB 3:59 09-Same Old Scene
DR7 -1.02 dB -10.61 dB 4:58 10-Jealous Guy
DR7 -1.02 dB -9.80 dB 4:31 11-More Than This
DR8 -0.97 dB -10.49 dB 4:17 12-Avalon
DR8 -1.08 dB -11.08 dB 4:44 13-Take A Chance With Me
––––––––––––––––––––––––––––––––––––––––

Number of tracks: 15
Official DR value: DR7

Samplerate: 44100 Hz
Channels: 2
Bits per sample: 16
Bitrate: 911 kbps
Codec: FLAC
================================================================================


Exact Audio Copy V0.99 prebeta 4 from 23. January 2008

EAC extraction logfile from 30. November 2008, 21:27

Bryan Ferry + Roxy Music / The Platinum Collection (Disc 3)

Used drive : TSSTcorpCDDVDW SH-S223F Adapter: 5 ID: 0

Read mode : Secure
Utilize accurate stream : Yes
Defeat audio cache : Yes
Make use of C2 pointers : No

Read offset correction : 6
Overread into Lead-In and Lead-Out : No
Fill up missing offset samples with silence : Yes
Delete leading and trailing silent blocks : No
Null samples used in CRC calculations : Yes
Used interface : Native Win32 interface for Win NT & 2000
Gap handling : Appended to previous track

Used output format : User Defined Encoder
Selected bitrate : 768 kBit/s
Quality : High
Add ID3 tag : No
Command line compressor : C:\Program Files\Exact Audio Copy\FLAC\FLAC.EXE
Additional command line options : -8 -V -T "ARTIST=%a" -T "TITLE=%t" -T "ALBUM=%g" -T "DATE=%y" -T "TRACKNUMBER=%n" -T "GENRE=%m" -T "TOTALTRACKS=%x" %s


TOC of the extracted CD

Track | Start | Length | Start sector | End sector
––––––––––––––––––––––––––––-
1 | 0:00.00 | 4:27.00 | 0 | 20024
2 | 4:27.00 | 4:53.25 | 20025 | 42024
3 | 9:20.25 | 4:23.22 | 42025 | 61771
4 | 13:43.47 | 4:54.25 | 61772 | 83846
5 | 18:37.72 | 5:00.45 | 83847 | 106391
6 | 23:38.42 | 4:04.73 | 106392 | 124764
7 | 27:43.40 | 5:27.20 | 124765 | 149309
8 | 33:10.60 | 4:19.35 | 149310 | 168769
9 | 37:30.20 | 3:26.45 | 168770 | 184264
10 | 40:56.65 | 3:14.12 | 184265 | 198826
11 | 44:11.02 | 5:11.60 | 198827 | 222211
12 | 49:22.62 | 2:35.33 | 222212 | 233869
13 | 51:58.20 | 3:33.15 | 233870 | 249859
14 | 55:31.35 | 4:06.60 | 249860 | 268369
15 | 59:38.20 | 4:42.52 | 268370 | 289571


Track 1

Filename C:\Rip\01 - Slave To Love.wav

Pre-gap length 0:00:02.00

Peak level 88.2 %
Track quality 100.0 %
Test CRC 3770A2D0
Copy CRC 3770A2D0
Accurately ripped (confidence 11) [7772FF1E]
Copy OK

Track 2

Filename C:\Rip\02 - Is Your Love Strong Enough.wav

Pre-gap length 0:00:00.56

Peak level 88.3 %
Track quality 100.0 %
Test CRC B545B70A
Copy CRC B545B70A
Accurately ripped (confidence 11) [3E597F28]
Copy OK

Track 3

Filename C:\Rip\03 - The Right Stuff.wav

Pre-gap length 0:00:00.84

Peak level 88.8 %
Track quality 100.0 %
Test CRC 89AECFC8
Copy CRC 89AECFC8
Accurately ripped (confidence 11) [B53D1961]
Copy OK

Track 4

Filename C:\Rip\04 - Kiss And Tell.wav

Pre-gap length 0:00:01.42

Peak level 89.4 %
Track quality 100.0 %
Test CRC FEE2611B
Copy CRC FEE2611B
Accurately ripped (confidence 11) [9F045B98]
Copy OK

Track 5

Filename C:\Rip\05 - Limbo.wav

Pre-gap length 0:00:00.93

Peak level 82.8 %
Track quality 100.0 %
Test CRC 92609893
Copy CRC 92609893
Accurately ripped (confidence 11) [A2E0FDBF]
Copy OK

Track 6

Filename C:\Rip\06 - He'll Have To Go.wav

Pre-gap length 0:00:01.25

Peak level 89.0 %
Track quality 100.0 %
Test CRC AEB79FDD
Copy CRC AEB79FDD
Accurately ripped (confidence 11) [A970B83D]
Copy OK

Track 7

Filename C:\Rip\07 - I Put A Spell On You.wav

Pre-gap length 0:00:01.30

Peak level 89.4 %
Track quality 100.0 %
Test CRC 45E75F2E
Copy CRC 45E75F2E
Accurately ripped (confidence 11) [9C923C55]
Copy OK

Track 8

Filename C:\Rip\08 - Will You Love Me Tomorrow.wav

Peak level 89.4 %
Track quality 100.0 %
Test CRC 4C0A06AB
Copy CRC 4C0A06AB
Accurately ripped (confidence 11) [73A12200]
Copy OK

Track 9

Filename C:\Rip\09 - Girl Of My Best Friend.wav

Pre-gap length 0:00:01.48

Peak level 89.0 %
Track quality 100.0 %
Test CRC E6946A7A
Copy CRC E6946A7A
Accurately ripped (confidence 11) [15557279]
Copy OK

Track 10

Filename C:\Rip\10 - Your Painted Smile.wav

Pre-gap length 0:00:00.72

Peak level 89.3 %
Track quality 100.0 %
Test CRC C952B300
Copy CRC C952B300
Accurately ripped (confidence 11) [20AEF303]
Copy OK

Track 11

Filename C:\Rip\11 - Mamouna.wav

Peak level 87.5 %
Track quality 99.9 %
Test CRC F130D4E5
Copy CRC F130D4E5
Accurately ripped (confidence 11) [E99BEEE5]
Copy OK

Track 12

Filename C:\Rip\12 - As Time Goes By.wav

Pre-gap length 0:00:01.52

Peak level 86.8 %
Track quality 100.0 %
Test CRC C52EEDD9
Copy CRC C52EEDD9
Accurately ripped (confidence 11) [ED7E0BA2]
Copy OK

Track 13

Filename C:\Rip\13 - Goddess Of Love.wav

Pre-gap length 0:00:01.21

Peak level 89.3 %
Track quality 99.9 %
Test CRC 1C282686
Copy CRC 1C282686
Accurately ripped (confidence 11) [4EFA07F2]
Copy OK

Track 14

Filename C:\Rip\14 - It's All Over Now, Baby Blue.wav

Pre-gap length 0:00:00.65

Peak level 89.3 %
Track quality 100.0 %
Test CRC 3362ED97
Copy CRC 3362ED97
Accurately ripped (confidence 11) [8FEB6AA4]
Copy OK

Track 15

Filename C:\Rip\15 - A Fool For Love.wav

Pre-gap length 0:00:00.60

Peak level 89.3 %
Track quality 100.0 %
Test CRC 5D2EEF69
Copy CRC 5D2EEF69
Accurately ripped (confidence 11) [51CBEBFF]
Copy OK


All tracks accurately ripped

No errors occurred

End of status report

foobar2000 1.2 / Dynamic Range Meter 1.1.1
log date: 2013-08-17 18:44:45

––––––––––––––––––––––––––––––––––––––––
Analyzed: Bryan Ferry / The Platinum Collection (Disc 3)
––––––––––––––––––––––––––––––––––––––––

DR Peak RMS Duration Track
––––––––––––––––––––––––––––––––––––––––
DR8 -1.08 dB -10.52 dB 4:27 01-Slave To Love
DR12 -1.08 dB -16.06 dB 4:53 02-Is Your Love Strong Enough?
DR8 -1.03 dB -11.10 dB 4:23 03-The Right Stuff
DR10 -0.97 dB -12.40 dB 4:54 04-Kiss And Tell
DR9 -1.63 dB -12.86 dB 5:01 05-Limbo
DR11 -1.01 dB -14.12 dB 4:05 06-He'll Have To Go
DR8 -0.97 dB -10.59 dB 5:27 07-I Put A Spell On You
DR7 -0.97 dB -9.76 dB 4:19 08-Will You Love Me Tomorrow
DR7 -1.01 dB -9.71 dB 3:27 09-Girl Of My Best Friend
DR9 -0.98 dB -11.68 dB 3:14 10-Your Painted Smile
DR7 -1.16 dB -10.10 dB 5:12 11-Mamouna
DR12 -1.23 dB -16.05 dB 2:35 12-As Time Goes By
DR7 -0.97 dB -9.67 dB 3:33 13-Goddess Of Love
DR7 -0.97 dB -9.34 dB 4:07 14-It's All Over Now, Baby Blue
DR7 -0.97 dB -10.83 dB 4:43 15-A Fool For Love
––––––––––––––––––––––––––––––––––––––––

Number of tracks: 15
Official DR value: DR9

Samplerate: 44100 Hz
Channels: 2
Bits per sample: 16
Bitrate: 850 kbps
Codec: FLAC
================================================================================

Bryan Ferry + Roxy Music - The Platinum Collection (2004) 3CD Box Set [Re-Up]

Bryan Ferry + Roxy Music - The Platinum Collection (2004) 3CD Box Set [Re-Up]