Tags
Language
Tags

Bunny Sigler - From Bunny With Love & A Little Soul (2012)

Posted By: BlondStyle
Bunny Sigler - From Bunny With Love & A Little Soul (2012)

Bunny Sigler - From Bunny With Love & A Little Soul (2012)
R&B, Soul, Pop/Rock | EAC Rip | FLAC, Img+CUE+LOG+Scans (TIF) | 51:28 | 409,23 Mb
Label: Bunz Z Music and Records LLC (USA) | Released: 2012-04-17

The first track on Bunny Sigler’s "From Bunny With Love & a Little Soul", "Sweet Lorraine," sports a title straight out of the Great American Songbook. I hear that title, and the first thing that comes to mind is Nat King Cole tinkling the ivories as he leads his trio. Knowing a bit about Sigler’s history as a vocalist and a hit maker during Gamble and Huff’s wheelhouse days at Philadelphia International, a record of standards would kind of make sense. He’s an industry veteran who is not exactly a household name with the younger generation of fans. However, an album that only looks back would ignore the more contemporary part of Sigler’s resume. He has also worked with some hip-hop and R&B stars, and has the artist’s natural curiosity about what’s happening now. So, in that respect, it should not be surprising that every track on From Bunny With Love & a Little Soul is original. Sigler doesn’t shy away from embracing both classic and contemporary sounds - touching on both the 70s soul vibes where he reached his initial success, while also embracing the ultra modern production techniques that he picked up while working today’s hit makers. What listeners get on From Bunny With Love in a project that features a lot of good moments, but also a few that are kind of blah and a couple that are derivative and cringe worthy. First the good: I let my son listen to Sigler’s “You Never Know,” and he thought that he was listening to song by T-Pain. That means that Sigler penned a track that could get some airplay on one of these Hot R&B and hip-hop stations. That track sports a bouncy Latin melody and finds Sigler employing auto-tune. But before you panic and accuse Sigler of selling out, you have to listen to the Spanish guitar flourishes and the tight backing harmonies – especially on the hook. This is a really, really good song, and hearing it the listener will understand why contemporary artists such as Nelly and Jay-Z seek out Sigler. “You Never Know” can be found in the first half of the album, and Sigler is definitely on top of his game there. Sigler shows that he can stretch his soft tenor vocal range with ease on the ballad “To Love Again,” a track with harmonies that will remind some of that classic Whispers’ sound, while “Nobody Else For Me” could be a steppers’ anthem. From Bunny With Love loses both momentum and direction in the second half. “How Bad Do You Want It,” Sigler's attempt to pen a bedroom ballad – ala Marvin Gaye – comes off as a derivative, cliché filled parody. “Super Guy” has the funky sound of Curtis Mayfield and finds Sigler boasting of his macking swagger, and it could have worked had Sigler given it an ironic twist. Instead he sang it straight, and it just comes off as dated. The irony comes from the fact that Sigler follows that tune up with the inspirational “I Wish” – a rambling number where the artist sings about world he wants to live in. But not all of the tracks on the second half of From Bunny With Love are misses: Sigler goes hard on the bass driven and percussive funky torch song, “In a Minute,” and the final track, the doo-wop style kiss off ballad “Face the Music,” is absolutely wonderful. Sigler’s From Bunny With Love & a Little Soul is probably twice as long as it needs to be. Still, there’s more than enough meat here to remind listeners why artists and record executives have been beating a path to Sigler’s door for the better part of six decades.
~Review by Howard Dukes

Bunny Sigler - From Bunny With Love & A Little Soul (2012)

Bunny Sigler - From Bunny With Love & A Little Soul (2012)




Release of the album/CD: 2012, April, 17 [CD Bunz Z Music and Records LLC (USA), Cat.# - / UPC: 609456344678]
℗ Bunz Z Music & Records LLC.
© 2011.

Tracklist:

01. Sweet Lorraine (03:54)
02. Unspoken Words (05:22)
03. To Love Again (04:17)
04. Nobody Else For Me (03:43)
05. You Never Know (03:42)
06. How Bad Do You Want It (04:50)
07. In A Minute (02:34)
08. Super Guy (04:32)
09. I Wish (04:52)
10. Too Sexy (03:57)
11. She's My Lady (05:00)
12. Face The Music (04:45)

Exact Audio Copy V1.6 from 23. October 2020

EAC extraction logfile from 29. June 2021, 4:12

Bunny Sigler / From Bunny With Love & A Little Soul

Used drive : Memorex MRX-650LE v7 Adapter: 1 ID: 1

Read mode : Secure
Utilize accurate stream : Yes
Defeat audio cache : Yes
Make use of C2 pointers : No

Read offset correction : 6
Overread into Lead-In and Lead-Out : No
Fill up missing offset samples with silence : Yes
Delete leading and trailing silent blocks : No
Null samples used in CRC calculations : Yes
Used interface : Native Win32 interface for Win NT & 2000

Used output format : User Defined Encoder
Selected bitrate : 768 kBit/s
Quality : High
Add ID3 tag : Yes
Command line compressor : C:\Program Files (x86)\Exact Audio Copy\FLAC\FLAC.EXE
Additional command line options : -6 -V -T "ARTIST=%artist%" -T "TITLE=%title%" -T "ALBUM=%albumtitle%" -T "DATE=%year%" -T "TRACKNUMBER=%tracknr%" -T "GENRE=%genre%" -T "COMMENT=%comment%" -T "BAND=%albuminterpret%" -T "ALBUMARTIST=%albuminterpret%" -T "COMPOSER=%composer%" %haslyrics%–tag-from-file=LYRICS="%lyricsfile%"%haslyrics% -T "DISCNUMBER=%cdnumber%" -T "TOTALDISCS=%totalcds%" -T "TOTALTRACKS=%numtracks%" %hascover%–picture="%coverfile%"%hascover% %source% -o %dest%


TOC of the extracted CD

Track | Start | Length | Start sector | End sector
––––––––––––––––––––––––––––-
1 | 0:00.00 | 3:53.66 | 0 | 17540
2 | 3:53.66 | 5:21.66 | 17541 | 41681
3 | 9:15.57 | 4:16.50 | 41682 | 60931
4 | 13:32.32 | 3:43.15 | 60932 | 77671
5 | 17:15.47 | 3:41.70 | 77672 | 94316
6 | 20:57.42 | 4:49.62 | 94317 | 116053
7 | 25:47.29 | 2:33.72 | 116054 | 127600
8 | 28:21.26 | 4:32.33 | 127601 | 148033
9 | 32:53.59 | 4:52.20 | 148034 | 169953
10 | 37:46.04 | 3:57.06 | 169954 | 187734
11 | 41:43.10 | 5:00.37 | 187735 | 210271
12 | 46:43.47 | 4:45.05 | 210272 | 231651


Range status and errors

Selected range

Filename C:\Users\M@ce\Music\Bunny Sigler - From Bunny With Love & A Little Soul.wav

Peak level 99.9 %
Extraction speed 4.5 X
Range quality 100.0 %
Test CRC 49BD8D7C
Copy CRC 49BD8D7C
Copy OK

No errors occurred


AccurateRip summary

Track 1 not present in database
Track 2 not present in database
Track 3 not present in database
Track 4 not present in database
Track 5 not present in database
Track 6 not present in database
Track 7 not present in database
Track 8 not present in database
Track 9 not present in database
Track 10 not present in database
Track 11 not present in database
Track 12 not present in database

None of the tracks are present in the AccurateRip database

End of status report

–– CUETools DB Plugin V2.1.6

[CTDB TOCID: af99ttU.c03jCSZj6WqsnP7fBE4-] disk not present in database
Submit result: af99ttU.c03jCSZj6WqsnP7fBE4- has been uploaded


==== Log checksum C1D819B75E3A02C6743FBE1E3014D8BC7E921B24E62FB4688060C2B763CDB82D ====

––––––––––––––––––––––––––––––––––––––––
Analyzed: Bunny Sigler / From Bunny With Love & A Little Soul
––––––––––––––––––––––––––––––––––––––––

DR Peak RMS Duration Track
––––––––––––––––––––––––––––––––––––––––
DR10 -0.01 dB -11.47 dB 3:54 01-Sweet Lorraine
DR10 -0.01 dB -11.90 dB 5:22 02-Unspoken Words
DR8 -0.01 dB -10.71 dB 4:17 03-To Love Again
DR9 -0.01 dB -10.43 dB 3:43 04-Nobody Else For Me
DR7 -0.21 dB -10.37 dB 3:42 05-You Never Know
DR7 -0.01 dB -9.43 dB 4:50 06-How Bad Do You Want It
DR7 -0.01 dB -8.38 dB 2:34 07-In A Minute
DR8 -0.08 dB -8.83 dB 4:32 08-Super Guy
DR9 -0.01 dB -12.16 dB 4:52 09-I Wish
DR6 -0.01 dB -7.75 dB 3:57 10-Too Sexy
DR10 -0.01 dB -11.47 dB 5:00 11-She's My Lady
DR9 -0.01 dB -11.17 dB 4:45 12-Face The Music
––––––––––––––––––––––––––––––––––––––––

Number of tracks: 12
Official DR value: DR8

Samplerate: 44100 Hz
Channels: 2
Bits per sample: 16
Bitrate: 882 kbps
Codec: FLAC
================================================================================

Thanks to my friend, M@ce

See also:
Bunny Sigler - My Music (1976) [2005, Remastered Reissue]
Bunny Sigler - Let It Snow (1980) [2003, Reissue]

♫~Welcome To My Blog~♫

password: BlondStyle