Subcategories
Tags
Language
Tags

Candy Dulfer: Collection (1997 - 2015) [7CD, 2DVD, 2HDTV]

Posted By: v3122
Candy Dulfer: Collection (1997 - 2015) [7CD, 2DVD, 2HDTV]

Candy Dulfer: Collection (1997 - 2015)
EAC | Flac(Image) + Cue + Log & MP3 CBR 320Kbps
7CD | Label: Various | ~ 2637 or 924 Mb | Artwork -> 959 Mb
2xDVD: PAL 4:3 & 16:9 (720x576) VBR | Dolby AC3, 2 & 6 ch
2xHDTV: MPEG4 (H264) 1280x720, 50fps | Dolby AC3 48000Hz, 6ch, 448kbps
Smooth jazz / Funk / Nu jazz

Candy Dulfer (born 19 September 1969) is a Dutch jazz and pop saxophonist. She is the daughter of jazz saxophonist Hans Dulfer. She began playing at age six and founded her band Funky Stuff when she was fourteen. Her debut album Saxuality (1990) received a Grammy nomination. She has performed and recorded with Hans Dulfer, Prince, Dave Stewart, Van Morrison, Angie Stone, Maceo Parker and Rick Braun and has performed live with Alan Parsons (1995), Pink Floyd (1990), and Tower of Power (2014). She hosted the Dutch television series Candy Meets… (2007), in which she interviewed musicians. In 2013, she became a judge in the fifth season of the Dutch version of X Factor…

~ wiki
Candy Dulfer: Collection (1997 - 2015) [7CD, 2DVD, 2HDTV]

Candy Dulfer: Collection (1997 - 2015):

Candy Dulfer: Collection (1997 - 2015) [7CD, 2DVD, 2HDTV]

Tracklist CD01. 1997 - For The Love Of You (BMG 74321 468622, EU):

01. Saxy Intro [0:00:14.00]
02. Saxy Mood [0:04:21.50]
03. For The Love Of You [0:05:02.50]
04. Once You Get Started [0:04:58.62]
05. Smooth [0:04:36.70]
06. Gititon [0:04:33.35]
07. Girls Should Stick Together [0:05:09.50]
08. Wish You Were Here [0:04:16.67]
09. Allright [0:04:29.16]
10. Give Me Some More [0:03:52.20]
11. Sunday Cool [0:03:34.46]
12. Bird [0:06:24.67]
13. For The Love Of You (Bonustrack) [0:04:12.57]

Exact Audio Copy V1.3 from 2. September 2016

EAC extraction logfile from 14. April 2019, 11:07

Candy Dulfer / For The Love Of You

Used drive : PLEXTOR DVDR PX-L890SA Adapter: 1 ID: 1

Read mode : Secure
Utilize accurate stream : Yes
Defeat audio cache : Yes
Make use of C2 pointers : No

Read offset correction : 6
Overread into Lead-In and Lead-Out : No
Fill up missing offset samples with silence : Yes
Delete leading and trailing silent blocks : No
Null samples used in CRC calculations : Yes
Used interface : Native Win32 interface for Win NT & 2000

Used output format : User Defined Encoder
Selected bitrate : 1024 kBit/s
Quality : High
Add ID3 tag : No
Command line compressor : C:\Program Files (x86)\Exact Audio Copy\Flac\flac.exe
Additional command line options : -V -8 -T "Date=%year%" -T "Genre=%genre%" %source%


TOC of the extracted CD

Track | Start | Length | Start sector | End sector
––––––––––––––––––––––––––––-
1 | 0:00.00 | 0:14.00 | 0 | 1049
2 | 0:14.00 | 4:21.50 | 1050 | 20674
3 | 4:35.50 | 5:02.50 | 20675 | 43374
4 | 9:38.25 | 4:58.62 | 43375 | 65786
5 | 14:37.12 | 4:36.70 | 65787 | 86556
6 | 19:14.07 | 4:33.35 | 86557 | 107066
7 | 23:47.42 | 5:09.50 | 107067 | 130291
8 | 28:57.17 | 4:16.67 | 130292 | 149558
9 | 33:14.09 | 4:29.16 | 149559 | 169749
10 | 37:43.25 | 3:52.20 | 169750 | 187169
11 | 41:35.45 | 3:34.46 | 187170 | 203265
12 | 45:10.16 | 6:24.67 | 203266 | 232132
13 | 51:35.08 | 4:12.57 | 232133 | 251089


Range status and errors

Selected range

Filename H:\AUDIO\MUSIC\Candy Dulfer\1997. Candy Dulfer - For The Love Of You (BMG 74321 468622, EU)\Candy Dulfer - For The Love Of You.wav

Peak level 98.8 %
Extraction speed 5.8 X
Range quality 99.9 %
Test CRC 7AB5ABB9
Copy CRC 7AB5ABB9
Copy OK

No errors occurred


AccurateRip summary

Track 1 accurately ripped (confidence 48) [C1FFA195] (AR v2)
Track 2 accurately ripped (confidence 48) [4F45DC3A] (AR v2)
Track 3 accurately ripped (confidence 48) [DE77E0CC] (AR v2)
Track 4 accurately ripped (confidence 48) [2DD4476E] (AR v2)
Track 5 accurately ripped (confidence 47) [CBEF528D] (AR v2)
Track 6 accurately ripped (confidence 47) [5CC79DCC] (AR v2)
Track 7 accurately ripped (confidence 47) [1D262EB6] (AR v2)
Track 8 accurately ripped (confidence 48) [A81187E8] (AR v2)
Track 9 accurately ripped (confidence 48) [202CD4B9] (AR v2)
Track 10 accurately ripped (confidence 48) [D5E368BD] (AR v2)
Track 11 accurately ripped (confidence 48) [5E70C7C1] (AR v2)
Track 12 accurately ripped (confidence 47) [14458385] (AR v2)
Track 13 accurately ripped (confidence 45) [120A8E4B] (AR v2)

All tracks accurately ripped

End of status report

==== Log checksum 934BFFA9ADECFD570DF24BE53D8FD2D42E3C64CD1CC5AA876CA4DEFC81106260 ====


[CUETools log; Date: 14.02.2021 14:31:14; Version: 2.1.4]
[CTDB TOCID: tcn6X0MtcJzIFFWjOmpbbAerzuw-] found.
Track | CTDB Status
1 | (243/243) Accurately ripped
2 | (237/243) Accurately ripped
3 | (237/243) Accurately ripped
4 | (236/243) Accurately ripped
5 | (236/243) Accurately ripped
6 | (235/243) Accurately ripped
7 | (234/243) Accurately ripped
8 | (234/243) Accurately ripped
9 | (235/243) Accurately ripped
10 | (235/243) Accurately ripped
11 | (234/243) Accurately ripped
12 | (231/243) Accurately ripped
13 | (230/243) Accurately ripped, or (2/243) differs in 6 samples @04:12:34-04:12:35
[AccurateRip ID: 0019249b-0102abe2-cc0d130d] found.
Track [ CRC | V2 ] Status
01 [a4e3660d|c1ffa195] (038+056/141) Accurately ripped
02 [4e2424db|4f45dc3a] (037+056/139) Accurately ripped
03 [bb4b48f9|de77e0cc] (038+056/142) Accurately ripped
04 [f0faac40|2dd4476e] (038+056/142) Accurately ripped
05 [a0be8099|cbef528d] (038+055/140) Accurately ripped
06 [dd0175b6|5cc79dcc] (038+055/141) Accurately ripped
07 [fece90bb|1d262eb6] (038+055/140) Accurately ripped
08 [c73d45a0|a81187e8] (038+056/142) Accurately ripped
09 [ce66653c|202cd4b9] (037+056/141) Accurately ripped
10 [a75b3bdf|d5e368bd] (037+055/138) Accurately ripped
11 [9122d381|5e70c7c1] (038+055/140) Accurately ripped
12 [5ad3631e|14458385] (037+054/138) Accurately ripped
13 [be1d12d9|120a8e4b] (037+052/136) Accurately ripped
Offsetted by -669:
01 [9bbf0cf6] (009/141) Accurately ripped
02 [85e6b35c] (008/139) Accurately ripped
03 [c93ae7c5] (009/142) Accurately ripped
04 [e46672b4] (009/142) Accurately ripped
05 [12770942] (009/140) Accurately ripped
06 [7eab382b] (009/141) Accurately ripped
07 [9e22f254] (008/140) Accurately ripped
08 [d354cd95] (009/142) Accurately ripped
09 [0e29514c] (009/141) Accurately ripped
10 [7e3fcf59] (008/138) Accurately ripped
11 [cf17d115] (009/140) Accurately ripped
12 [cd6453b1] (009/138) Accurately ripped
13 [220db9b3] (009/136) Accurately ripped
Offsetted by -842:
01 [f4079bf3] (005/141) Accurately ripped
02 [03ea2501] (000/139) No match
03 [d47cb251] (000/142) No match
04 [99f8f168] (000/142) No match
05 [6c553fbb] (000/140) No match
06 [50d84430] (000/141) No match
07 [775cbcbd] (000/140) No match
08 [15fad71a] (000/142) No match
09 [eafd4fa9] (000/141) No match
10 [db5910d8] (000/138) No match
11 [5c738c06] (000/140) No match
12 [b5241661] (000/138) No match
13 [bec47ead] (000/136) No match
Offsetted by -841:
01 [ba6f1bb5] (000/141) No match
02 [4fd9b0c5] (000/139) No match
03 [905a4815] (000/142) No match
04 [79d90564] (000/142) No match
05 [1edd953e] (000/140) No match
06 [761a9877] (000/141) No match
07 [5882e090] (000/140) No match
08 [7a3807e1] (000/142) No match
09 [52d9185a] (000/141) No match
10 [93ab18ac] (000/138) No match
11 [35e2affc] (000/140) No match
12 [b6ef7121] (000/138) No match
13 [6513588b] (000/136) No match (V2 was not tested)
Offsetted by -840:
01 [419d188b] (000/141) No match
02 [964f4065] (000/139) No match
03 [4c37ddd9] (000/142) No match
04 [59b91960] (000/142) No match
05 [d165eac1] (000/140) No match
06 [9b5cecbe] (000/141) No match
07 [39a90463] (000/140) No match
08 [de7538a8] (000/142) No match (V2 was not tested)
09 [68df90a4] (000/141) No match
10 [4a8fd4ef] (000/138) No match
11 [7a166972] (000/140) No match
12 [b8b9cbe1] (000/138) No match
13 [0b623269] (000/136) No match
Offsetted by -839:
01 [a1cb778b] (000/141) No match
02 [d6c9d433] (000/139) No match
03 [0815739d] (000/142) No match (V2 was not tested)
04 [39992d5c] (000/142) No match
05 [83ee4044] (000/140) No match
06 [c09f4105] (000/141) No match
07 [1acf2836] (000/140) No match
08 [42b2696f] (000/142) No match
09 [581b5959] (000/141) No match
10 [a9ea2850] (000/138) No match (V2 was not tested)
11 [552e8d68] (000/140) No match
12 [ba8426a0] (000/138) No match
13 [b1b10c47] (000/136) No match
Offsetted by -838:
01 [361e4660] (000/141) No match
02 [10f36c7c] (000/139) No match (V2 was not tested)
03 [c3f30961] (000/142) No match
04 [19794158] (000/142) No match (V2 was not tested)
05 [367695c7] (000/140) No match
06 [e5e1954c] (000/141) No match
07 [fbf54c09] (000/140) No match
08 [a6ef9a36] (000/142) No match
09 [46a1f9db] (000/141) No match (V2 was not tested)
10 [91eee48f] (000/138) No match
11 [9b1446df] (000/140) No match
12 [bc4d815f] (000/138) No match
13 [57ffe625] (000/136) No match
Offsetted by -837:
01 [b4a06cdc] (000/141) No match
02 [44a40986] (000/139) No match
03 [7fd09f25] (000/142) No match
04 [f9595554] (000/142) No match
05 [e8feeb4a] (000/140) No match (V2 was not tested)
06 [0b23e993] (000/141) No match (V2 was not tested)
07 [dd1b6fdc] (000/140) No match (V2 was not tested)
08 [0b2ccafd] (000/142) No match
09 [0c3f722b] (000/141) No match
10 [982f837d] (000/138) No match
11 [77f36ad6] (000/140) No match (V2 was not tested)
12 [be16dc1d] (000/138) No match (V2 was not tested)
13 [fe4ec003] (000/136) No match
Offsetted by -676:
01 [79b4844d] (000/141) No match (V2 was not tested)
02 [51b6e993] (000/139) No match (V2 was not tested)
03 [a62bcf69] (000/142) No match (V2 was not tested)
04 [c545e6d0] (000/142) No match (V2 was not tested)
05 [30bcb2ad] (000/140) No match (V2 was not tested)
06 [79daea3a] (000/141) No match (V2 was not tested)
07 [7617f78f] (000/140) No match (V2 was not tested)
08 [15a87824] (000/142) No match (V2 was not tested)
09 [567083a5] (000/141) No match (V2 was not tested)
10 [a6997556] (000/138) No match (V2 was not tested)
11 [b99f12fe] (000/140) No match (V2 was not tested)
12 [c302da51] (000/138) No match (V2 was not tested)
13 [95e5c4a1] (000/136) No match (V2 was not tested)
Offsetted by 6:
01 [997e38ac] (000/141) No match (V2 was not tested)
02 [f8e5d3d8] (000/139) No match (V2 was not tested)
03 [227ccb91] (000/142) No match (V2 was not tested)
04 [303b2428] (000/142) No match (V2 was not tested)
05 [cff081ab] (000/140) No match (V2 was not tested)
06 [bc8f6f60] (000/141) No match (V2 was not tested)
07 [45b367ad] (000/140) No match (V2 was not tested)
08 [20ac6a4a] (000/142) No match (V2 was not tested)
09 [93587d31] (000/141) No match (V2 was not tested)
10 [d2f63e0a] (000/138) No match (V2 was not tested)
11 [b90348a5] (000/140) No match (V2 was not tested)
12 [5d517bb8] (000/138) No match (V2 was not tested)
13 [a3f62e0d] (000/136) No match (V2 was not tested)

Track Peak [ CRC32 ] [W/O NULL] [ LOG ]
– 98,8 [7AB5ABB9] [C8E525C3] CRC32
01 43,2 [F3653C06] [7C4BB8F1]
02 98,8 [5F8A053F] [71B7A56A]
03 98,8 [C63FBC4E] [6FA11AFA]
04 98,8 [393DE944] [2AC2A0CD]
05 98,8 [499CA797] [93917AF3]
06 98,8 [28528163] [04894D4B]
07 98,8 [8A121828] [07882734]
08 98,8 [CA01688E] [4410A5D3]
09 98,8 [F9519BBD] [EC31D787]
10 98,8 [59318DBA] [C64B2380]
11 98,8 [35CC161C] [6A54E336]
12 98,8 [FCFFADB1] [29C59FA9]
13 98,8 [E90BBED2] [782DD612]


Candy Dulfer: Collection (1997 - 2015) [7CD, 2DVD, 2HDTV]

Tracklist CD02. 1999 - Girls Night Out (BMG-Ariola 74321 686002, EU):

01. Girls Night Out [0:03:25.67]
02. 2025 [0:04:44.68]
03. Fred's Joint [0:04:26.00]
04. Mr. Slim [0:04:05.50]
05. Island Lady [0:04:56.15]
06. Nikki's Dream [0:03:13.10]
07. So Cool [0:05:42.47]
08. Dance 'Till You Bop [0:05:10.23]
09. No Problem [0:05:10.20]
10. I'm the One [0:03:50.60]
11. Soullala [0:04:08.37]
12. What Does It Take (To Win Your Love for Me) [0:04:17.58]
13. Cookie [0:05:03.20]

Exact Audio Copy V1.3 from 2. September 2016

EAC extraction logfile from 8. January 2020, 18:45

Candy Dulfer / Girls Night Out

Used drive : PLEXTOR DVDR PX-L890SA Adapter: 1 ID: 0

Read mode : Secure
Utilize accurate stream : Yes
Defeat audio cache : Yes
Make use of C2 pointers : No

Read offset correction : 6
Overread into Lead-In and Lead-Out : No
Fill up missing offset samples with silence : Yes
Delete leading and trailing silent blocks : No
Null samples used in CRC calculations : Yes
Used interface : Native Win32 interface for Win NT & 2000

Used output format : User Defined Encoder
Selected bitrate : 1024 kBit/s
Quality : High
Add ID3 tag : No
Command line compressor : C:\Program Files (x86)\Exact Audio Copy\Flac\flac.exe
Additional command line options : -V -8 -T "Date=%year%" -T "Genre=%genre%" %source%


TOC of the extracted CD

Track | Start | Length | Start sector | End sector
––––––––––––––––––––––––––––-
1 | 0:00.00 | 3:25.67 | 0 | 15441
2 | 3:25.67 | 4:44.68 | 15442 | 36809
3 | 8:10.60 | 4:26.00 | 36810 | 56759
4 | 12:36.60 | 4:05.50 | 56760 | 75184
5 | 16:42.35 | 4:56.15 | 75185 | 97399
6 | 21:38.50 | 3:13.10 | 97400 | 111884
7 | 24:51.60 | 5:42.47 | 111885 | 137581
8 | 30:34.32 | 5:10.23 | 137582 | 160854
9 | 35:44.55 | 5:10.20 | 160855 | 184124
10 | 40:55.00 | 3:50.60 | 184125 | 201434
11 | 44:45.60 | 4:08.37 | 201435 | 220071
12 | 48:54.22 | 4:17.58 | 220072 | 239404
13 | 53:12.05 | 5:03.20 | 239405 | 262149


Range status and errors

Selected range

Filename H:\AUDIO\MUSIC\1999. Candy Dulfer - Girls Night Out (BMG-Ariola 74321 686002, EU)\Candy Dulfer - Girls Night Out.wav

Peak level 99.3 %
Extraction speed 8.9 X
Range quality 100.0 %
Test CRC E7EF14E4
Copy CRC E7EF14E4
Copy OK

No errors occurred


AccurateRip summary

Track 1 accurately ripped (confidence 48) [DA57BF61] (AR v2)
Track 2 accurately ripped (confidence 48) [28636936] (AR v2)
Track 3 accurately ripped (confidence 47) [AF79D3C1] (AR v2)
Track 4 accurately ripped (confidence 48) [968C6E54] (AR v2)
Track 5 accurately ripped (confidence 48) [49650999] (AR v2)
Track 6 accurately ripped (confidence 48) [CA769A5B] (AR v2)
Track 7 accurately ripped (confidence 48) [41A18650] (AR v2)
Track 8 accurately ripped (confidence 48) [703FF9A5] (AR v2)
Track 9 accurately ripped (confidence 48) [2C9F4758] (AR v2)
Track 10 accurately ripped (confidence 48) [30DD37F0] (AR v2)
Track 11 accurately ripped (confidence 47) [B3FC6F39] (AR v2)
Track 12 accurately ripped (confidence 47) [1842D157] (AR v2)
Track 13 accurately ripped (confidence 47) [A1B625A6] (AR v2)

All tracks accurately ripped

End of status report

==== Log checksum 7E06741288CF8FE5C904955284F3D5B96B9923ED80353EE4D1EE0815CBB99377 ====


[CUETools log; Date: 14.02.2021 14:31:22; Version: 2.1.4]
[CTDB TOCID: 2wYjFFKpwWNYMqsLM_9N9a_LiJ0-] found.
Track | CTDB Status
1 | (118/118) Accurately ripped
2 | (118/118) Accurately ripped
3 | (117/118) Accurately ripped
4 | (118/118) Accurately ripped
5 | (118/118) Accurately ripped
6 | (118/118) Accurately ripped
7 | (118/118) Accurately ripped
8 | (117/118) Accurately ripped
9 | (118/118) Accurately ripped
10 | (118/118) Accurately ripped
11 | (117/118) Accurately ripped
12 | (116/118) Accurately ripped
13 | (115/118) Accurately ripped
[AccurateRip ID: 001b73c2-0114cd4a-b50da70d] found.
Track [ CRC | V2 ] Status
01 [8e51fc5e|da57bf61] (31+52/94) Accurately ripped
02 [8b505ed5|28636936] (31+52/94) Accurately ripped
03 [59a12760|af79d3c1] (32+51/94) Accurately ripped
04 [66e648f4|968c6e54] (32+52/95) Accurately ripped
05 [38cce8f0|49650999] (32+52/95) Accurately ripped
06 [5b46a639|ca769a5b] (32+52/95) Accurately ripped
07 [d313c2b5|41a18650] (32+52/95) Accurately ripped
08 [a681887c|703ff9a5] (32+52/93) Accurately ripped
09 [65724e8c|2c9f4758] (32+52/95) Accurately ripped
10 [432eaf88|30dd37f0] (31+52/94) Accurately ripped
11 [76fd85f2|b3fc6f39] (31+51/91) Accurately ripped
12 [6ddf30b3|1842d157] (31+51/91) Accurately ripped
13 [abc2c276|a1b625a6] (28+51/88) Accurately ripped
Offsetted by -669:
01 [dde17ddb] (02/94) Accurately ripped
02 [23f97724] (02/94) Accurately ripped
03 [09063932] (02/94) Accurately ripped
04 [06ad1b1a] (02/95) Accurately ripped
05 [99aff9b5] (02/95) Accurately ripped
06 [2aa7c574] (02/95) Accurately ripped
07 [45cac073] (02/95) Accurately ripped
08 [103d2784] (02/93) Accurately ripped
09 [296d3095] (02/95) Accurately ripped
10 [a9155b75] (02/94) Accurately ripped
11 [686c2b11] (02/91) Accurately ripped
12 [799b3a95] (02/91) Accurately ripped
13 [6aba9a60] (02/88) Accurately ripped
Offsetted by -12:
01 [03ccd6a9] (05/94) Accurately ripped
02 [e2ecc841] (05/94) Accurately ripped
03 [301ad9b4] (05/94) Accurately ripped
04 [11977df2] (05/95) Accurately ripped
05 [4bb0d8ec] (05/95) Accurately ripped
06 [61b9ee5f] (05/95) Accurately ripped
07 [0fa7253a] (05/95) Accurately ripped
08 [e0790b0b] (05/93) Accurately ripped
09 [7c781dcd] (05/95) Accurately ripped
10 [720c87aa] (05/94) Accurately ripped
11 [7a1f3b72] (05/91) Accurately ripped
12 [54cb1fb9] (05/91) Accurately ripped
13 [1b36aba1] (05/88) Accurately ripped
Offsetted by -71:
01 [cbddd460] (00/94) No match (V2 was not tested)
02 [653eb853] (00/94) No match (V2 was not tested)
03 [a436be8b] (00/94) No match (V2 was not tested)
04 [c0645471] (00/95) No match (V2 was not tested)
05 [7b9acda1] (00/95) No match (V2 was not tested)
06 [9bb0c780] (00/95) No match (V2 was not tested)
07 [9c4ca580] (00/95) No match (V2 was not tested)
08 [51e60191] (00/93) No match (V2 was not tested)
09 [92a15b29] (00/95) No match (V2 was not tested)
10 [92fb8ef8] (00/94) No match (V2 was not tested)
11 [42c1d496] (00/91) No match (V2 was not tested)
12 [85a04a85] (00/91) No match (V2 was not tested)
13 [150c36b0] (00/88) No match (V2 was not tested)
Offsetted by 478:
01 [f81bf2e5] (00/94) No match (V2 was not tested)
02 [3317216e] (00/94) No match (V2 was not tested)
03 [3e11a5e7] (00/94) No match (V2 was not tested)
04 [3cb405cd] (00/95) No match (V2 was not tested)
05 [d2364f69] (00/95) No match (V2 was not tested)
06 [37b9a567] (00/95) No match (V2 was not tested)
07 [8f691442] (00/95) No match (V2 was not tested)
08 [3892aedd] (00/93) No match (V2 was not tested)
09 [e0131d33] (00/95) No match (V2 was not tested)
10 [ea5e8d51] (00/94) No match (V2 was not tested)
11 [89d8e20f] (00/91) No match (V2 was not tested)
12 [3ebd687f] (00/91) No match (V2 was not tested)
13 [2491fed6] (00/88) No match (V2 was not tested)

Track Peak [ CRC32 ] [W/O NULL] [ LOG ]
– 99,3 [E7EF14E4] [AD50D2B9] CRC32
01 99,3 [29B6C173] [42C6AA64]
02 99,3 [31F54644] [146AF6BD]
03 99,3 [BF658072] [2BC70689]
04 99,3 [82E8F2E0] [08253772]
05 99,3 [37CCBDE0] [72A53ABB]
06 99,3 [686532B2] [98E3E8E0]
07 99,3 [291873AF] [E1FF14AB]
08 99,3 [324BF14A] [6568748D]
09 99,3 [64B14A09] [1667BBF9]
10 99,3 [25850061] [29F54B1E]
11 99,3 [16CBC770] [5BE7E30B]
12 99,3 [BF8C1015] [8ED799CE]
13 99,0 [3DB17DD2] [DE1E44F0]


Candy Dulfer: Collection (1997 - 2015) [7CD, 2DVD, 2HDTV]

Tracklist CD03. 1999 - What Does It Take (N-Coded NC-4204-2, USA, Promo):

01. Mr. Slim [0:04:05.10]
02. Fred's Joint [0:04:25.00]
03. What Does It Take (To Win Your Love For Me) [0:04:16.15]
04. Nikki's Dream [0:04:03.45]
05. Soullala [0:04:04.10]
06. 2025 [0:04:43.17]
07. So Cool [0:04:40.10]
08. Island Lady [0:04:53.40]
09. I'm The One [0:03:46.58]
10. No Problem [0:05:13.62]
11. Cookie [0:05:03.15]

Exact Audio Copy V1.3 from 2. September 2016

EAC extraction logfile from 11. May 2019, 16:53

Candy Dulfer / What Does It Take

Used drive : PLEXTOR DVDR PX-L890SA Adapter: 1 ID: 1

Read mode : Secure
Utilize accurate stream : Yes
Defeat audio cache : Yes
Make use of C2 pointers : No

Read offset correction : 6
Overread into Lead-In and Lead-Out : No
Fill up missing offset samples with silence : Yes
Delete leading and trailing silent blocks : No
Null samples used in CRC calculations : Yes
Used interface : Native Win32 interface for Win NT & 2000

Used output format : User Defined Encoder
Selected bitrate : 1024 kBit/s
Quality : High
Add ID3 tag : No
Command line compressor : C:\Program Files (x86)\Exact Audio Copy\Flac\flac.exe
Additional command line options : -V -8 -T "Date=%year%" -T "Genre=%genre%" %source%


TOC of the extracted CD

Track | Start | Length | Start sector | End sector
––––––––––––––––––––––––––––-
1 | 0:00.00 | 4:05.10 | 0 | 18384
2 | 4:05.10 | 4:25.00 | 18385 | 38259
3 | 8:30.10 | 4:16.15 | 38260 | 57474
4 | 12:46.25 | 4:03.45 | 57475 | 75744
5 | 16:49.70 | 4:04.10 | 75745 | 94054
6 | 20:54.05 | 4:43.17 | 94055 | 115296
7 | 25:37.22 | 4:40.10 | 115297 | 136306
8 | 30:17.32 | 4:53.40 | 136307 | 158321
9 | 35:10.72 | 3:46.58 | 158322 | 175329
10 | 38:57.55 | 5:13.62 | 175330 | 198866
11 | 44:11.42 | 5:03.15 | 198867 | 221606


Range status and errors

Selected range

Filename H:\AUDIO\MUSIC\Candy Dulfer\1999. Candy Dulfer - What Does It Take (N-Coded NC-4204-2, USA, Promo)\Candy Dulfer - What Does It Take.wav

Peak level 99.3 %
Extraction speed 5.8 X
Range quality 100.0 %
Test CRC CBFA4A30
Copy CRC CBFA4A30
Copy OK

No errors occurred


AccurateRip summary

Track 1 accurately ripped (confidence 23) [12CD82A6] (AR v2)
Track 2 accurately ripped (confidence 23) [038BE3D2] (AR v2)
Track 3 accurately ripped (confidence 24) [02D3F927] (AR v2)
Track 4 accurately ripped (confidence 24) [40DE2398] (AR v2)
Track 5 accurately ripped (confidence 23) [E5E18BE0] (AR v2)
Track 6 accurately ripped (confidence 23) [F06FE209] (AR v2)
Track 7 accurately ripped (confidence 23) [D9382E65] (AR v2)
Track 8 accurately ripped (confidence 23) [2C9A4721] (AR v2)
Track 9 accurately ripped (confidence 23) [E022D8F0] (AR v2)
Track 10 accurately ripped (confidence 23) [82961025] (AR v2)
Track 11 accurately ripped (confidence 23) [75911BC4] (AR v2)

All tracks accurately ripped

End of status report

==== Log checksum D20471A0AC4277A95F879EA34FD139DE43B05906216B2C214E9EEDAC0DBE4682 ====


[CUETools log; Date: 14.02.2021 14:31:29; Version: 2.1.4]
[CTDB TOCID: HuKS0COszeVe6zxSoWWIrvnckJU-] found.
Track | CTDB Status
1 | (41/41) Accurately ripped
2 | (41/41) Accurately ripped
3 | (41/41) Accurately ripped
4 | (41/41) Accurately ripped
5 | (41/41) Accurately ripped
6 | (41/41) Accurately ripped
7 | (41/41) Accurately ripped
8 | (41/41) Accurately ripped
9 | (41/41) Accurately ripped
10 | (40/41) Accurately ripped
11 | (41/41) Accurately ripped
[AccurateRip ID: 0013adb2-00ab9dd4-890b8a0b] found.
Track [ CRC | V2 ] Status
01 [dadf7c74|12cd82a6] (12+29/43) Accurately ripped
02 [b489fbcc|038be3d2] (12+29/43) Accurately ripped
03 [1e39dadd|02d3f927] (12+30/44) Accurately ripped
04 [49341bbb|40de2398] (12+30/44) Accurately ripped
05 [124567ae|e5e18be0] (12+29/43) Accurately ripped
06 [2db0a40c|f06fe209] (12+29/43) Accurately ripped
07 [1be9ec2b|d9382e65] (12+29/43) Accurately ripped
08 [75830599|2c9a4721] (12+29/43) Accurately ripped
09 [e78a873d|e022d8f0] (12+29/43) Accurately ripped
10 [27813810|82961025] (12+29/43) Accurately ripped
11 [c9545f35|75911bc4] (12+29/43) Accurately ripped
Offsetted by -69:
01 [06325d50] (02/43) Accurately ripped
02 [846fd3a6] (02/43) Accurately ripped
03 [1b160991] (02/44) Accurately ripped
04 [d97fc39e] (02/44) Accurately ripped
05 [db97a682] (02/43) Accurately ripped
06 [59f62192] (02/43) Accurately ripped
07 [1c9bf9d0] (02/43) Accurately ripped
08 [5edc1c1b] (02/43) Accurately ripped
09 [5faa0cb1] (02/43) Accurately ripped
10 [fa0ac4d0] (02/43) Accurately ripped
11 [905b8bb8] (02/43) Accurately ripped

Track Peak [ CRC32 ] [W/O NULL] [ LOG ]
– 99,3 [CBFA4A30] [3921EF1C] CRC32
01 99,3 [EADBE1E2] [80C7E23C]
02 99,3 [5FE5319E] [095E2159]
03 99,3 [1814FD71] [42701FED]
04 99,3 [7DEC193F] [8EB9733E]
05 99,3 [9497DB9F] [AD5766B8]
06 99,3 [D0B5D409] [FFC619F5]
07 99,3 [B775850E] [BBDF7635]
08 99,3 [60BAF57F] [6DF247FB]
09 99,3 [481F1B62] [33AAF0BE]
10 99,3 [7E3EBE34] [3FA667DC]
11 99,2 [C068E46B] [8CA17C24]


Candy Dulfer: Collection (1997 - 2015) [7CD, 2DVD, 2HDTV]

Tracklist CD04. 2002 - Dulfer Dulfer (Eagle WK24345, USA):

01. Big Breakdown [0:04:03.44]
02. Bumrush (Featuring E-Life) [0:03:57.38]
03. Hands In The Air [0:03:45.25]
04. Move Your Money (Featuring Brainpower) [0:03:45.33]
05. Modular [0:04:22.61]
06. Modular (Groove Reprise) [0:01:37.23]
07. Ooh Let's Go [0:05:05.04]
08. Indian Vibes [0:04:30.48]
09. Sambastic (Featuring Lilian Vieira) [0:04:56.39]
10. Got Soul [0:04:17.71]
11. Triphoppin' With Hans [0:04:22.57]
12. Triphoppin' With Candy [0:04:23.62]
13. Cool Criminal [0:03:25.31]
14. Tribute [0:04:25.42]

Exact Audio Copy V1.3 from 2. September 2016

EAC extraction logfile from 11. May 2019, 15:02

Hans & Candy Dulfer / Dulfer Dulfer

Used drive : PLEXTOR DVDR PX-L890SA Adapter: 1 ID: 1

Read mode : Secure
Utilize accurate stream : Yes
Defeat audio cache : Yes
Make use of C2 pointers : No

Read offset correction : 6
Overread into Lead-In and Lead-Out : No
Fill up missing offset samples with silence : Yes
Delete leading and trailing silent blocks : No
Null samples used in CRC calculations : Yes
Used interface : Native Win32 interface for Win NT & 2000

Used output format : User Defined Encoder
Selected bitrate : 1024 kBit/s
Quality : High
Add ID3 tag : No
Command line compressor : C:\Program Files (x86)\Exact Audio Copy\Flac\flac.exe
Additional command line options : -V -8 -T "Date=%year%" -T "Genre=%genre%" %source%


TOC of the extracted CD

Track | Start | Length | Start sector | End sector
––––––––––––––––––––––––––––-
1 | 0:00.00 | 4:03.44 | 0 | 18268
2 | 4:03.44 | 3:57.38 | 18269 | 36081
3 | 8:01.07 | 3:45.25 | 36082 | 52981
4 | 11:46.32 | 3:45.33 | 52982 | 69889
5 | 15:31.65 | 4:22.61 | 69890 | 89600
6 | 19:54.51 | 1:37.23 | 89601 | 96898
7 | 21:31.74 | 5:05.04 | 96899 | 119777
8 | 26:37.03 | 4:30.48 | 119778 | 140075
9 | 31:07.51 | 4:56.39 | 140076 | 162314
10 | 36:04.15 | 4:17.71 | 162315 | 181660
11 | 40:22.11 | 4:22.57 | 181661 | 201367
12 | 44:44.68 | 4:23.62 | 201368 | 221154
13 | 49:08.55 | 3:25.31 | 221155 | 236560
14 | 52:34.11 | 4:25.42 | 236561 | 256477


Range status and errors

Selected range

Filename H:\AUDIO\MUSIC\Candy Dulfer\2002. Hans & Candy Dulfer - Dulfer Dulfer (Eagle WK24345, USA)\Hans & Candy Dulfer - Dulfer Dulfer.wav

Peak level 98.8 %
Extraction speed 5.9 X
Range quality 100.0 %
Test CRC 5138D8B3
Copy CRC 5138D8B3
Copy OK

No errors occurred


AccurateRip summary

Track 1 accurately ripped (confidence 11) [C57B13B4] (AR v2)
Track 2 accurately ripped (confidence 11) [670E2C5E] (AR v2)
Track 3 accurately ripped (confidence 11) [E1232A21] (AR v2)
Track 4 accurately ripped (confidence 11) [98EC29AE] (AR v2)
Track 5 accurately ripped (confidence 11) [F83B0601] (AR v2)
Track 6 accurately ripped (confidence 11) [16260F1B] (AR v2)
Track 7 accurately ripped (confidence 11) [E6DCBBC0] (AR v2)
Track 8 accurately ripped (confidence 11) [328F7FC7] (AR v2)
Track 9 accurately ripped (confidence 11) [2F2B158A] (AR v2)
Track 10 accurately ripped (confidence 11) [4C1814FC] (AR v2)
Track 11 accurately ripped (confidence 11) [D645FE9D] (AR v2)
Track 12 accurately ripped (confidence 11) [B1BBE36C] (AR v2)
Track 13 accurately ripped (confidence 11) [C2562B14] (AR v2)
Track 14 accurately ripped (confidence 11) [60D3F794] (AR v2)

All tracks accurately ripped

End of status report

==== Log checksum D8C2A15D4758CB3C53AFFCFE96E6FE7B4858F814528E2A7FCCDC216DC0435151 ====


[CUETools log; Date: 14.02.2021 14:31:46; Version: 2.1.4]
[CTDB TOCID: YVR83biWmj2WopbkWrWkb7TSCLY-] found.
Track | CTDB Status
1 | (29/29) Accurately ripped
2 | (29/29) Accurately ripped
3 | (29/29) Accurately ripped
4 | (29/29) Accurately ripped
5 | (29/29) Accurately ripped
6 | (29/29) Accurately ripped
7 | (29/29) Accurately ripped
8 | (29/29) Accurately ripped
9 | (29/29) Accurately ripped
10 | (29/29) Accurately ripped
11 | (29/29) Accurately ripped
12 | (29/29) Accurately ripped
13 | (29/29) Accurately ripped
14 | (29/29) Accurately ripped
[AccurateRip ID: 001cbbeb-01346c6e-da0d5b0e] found.
Track [ CRC | V2 ] Status
01 [534818a9|c57b13b4] (03+16/21) Accurately ripped
02 [7bd73c4d|670e2c5e] (03+16/21) Accurately ripped
03 [5fbffc35|e1232a21] (03+16/21) Accurately ripped
04 [27a61c01|98ec29ae] (03+16/21) Accurately ripped
05 [3bd08708|f83b0601] (03+16/21) Accurately ripped
06 [c8977397|16260f1b] (03+16/21) Accurately ripped
07 [818ab4c7|e6dcbbc0] (03+15/20) Accurately ripped
08 [4fde0089|328f7fc7] (03+16/21) Accurately ripped
09 [901b4e48|2f2b158a] (02+16/20) Accurately ripped
10 [26dd59f8|4c1814fc] (03+16/21) Accurately ripped
11 [ab8229c9|d645fe9d] (03+16/21) Accurately ripped
12 [cd57cc33|b1bbe36c] (03+16/21) Accurately ripped
13 [dc8f9cb8|c2562b14] (03+16/21) Accurately ripped
14 [e1178db3|60d3f794] (03+16/21) Accurately ripped
Offsetted by -3:
01 [031ba36b] (00/21) No match (V2 was not tested)
02 [9a86b0ed] (00/21) No match (V2 was not tested)
03 [268ba35c] (00/21) No match (V2 was not tested)
04 [0bd12e3d] (00/21) No match (V2 was not tested)
05 [7be268a1] (00/21) No match (V2 was not tested)
06 [58192330] (00/21) No match (V2 was not tested)
07 [73a205b8] (00/20) No match (V2 was not tested)
08 [045b7f45] (00/21) No match (V2 was not tested)
09 [4338ea24] (00/20) No match (V2 was not tested)
10 [de3e4776] (00/21) No match (V2 was not tested)
11 [d1c56a60] (00/21) No match (V2 was not tested)
12 [6db0da78] (00/21) No match (V2 was not tested)
13 [f98ef520] (00/21) No match (V2 was not tested)
14 [14cdb6b7] (00/21) No match (V2 was not tested)

Track Peak [ CRC32 ] [W/O NULL] [ LOG ]
– 98,8 [5138D8B3] [2E99A78B] CRC32
01 98,8 [4353BE7C] [962106D8]
02 98,8 [802B9F56] [EC1BBBB9]
03 84,9 [303AEF59] [BA8DFBAC]
04 98,8 [B16085CB] [38CA549F]
05 98,8 [1157D8D9] [48C9E279]
06 98,8 [16F842FC] [C5527E22]
07 83,0 [40B1EF34] [12F7823F]
08 98,8 [6641C6FA] [81BA77C4]
09 98,8 [D9839BA8] [376E6760]
10 98,8 [5F5D9CDE] [7F5DDEE5]
11 98,8 [853360BA] [5035999B]
12 98,8 [73BCF8BA] [23052164]
13 98,8 [4A58F94D] [FFA0F1A9]
14 98,8 [49080DDB] [D05C340D]


Candy Dulfer: Collection (1997 - 2015) [7CD, 2DVD, 2HDTV]

Tracklist CD05. 2003 - Right In My Soul (Eagles EAGCD208, EU):

01. My Love [0:04:04.44]
02. Let Me Show You [0:03:18.08]
03. Right In My Soul [0:05:21.05]
04. Power To The People [0:06:02.09]
05. It's My Life [0:05:42.52]
06. Everyday People [0:05:31.15]
07. Play A Little Game [0:03:21.09]
08. Finsbury Park, Café 67 [0:04:43.22]
09. Freak Out [0:04:43.00]
10. December [0:04:27.03]
11. Valdez In The Country [0:03:45.08]
12. What's In Your Head (Single Edit) [0:03:32.56]
13. Let Me Show You (JHQ Drum 'n Bass Mix) [0:04:25.34]
14. Lost And Gone [0:06:03.15]

Exact Audio Copy V1.3 from 2. September 2016

EAC extraction logfile from 14. April 2019, 11:56

Candy Dulfer / Right In My Soul

Used drive : PLEXTOR DVDR PX-L890SA Adapter: 1 ID: 1

Read mode : Secure
Utilize accurate stream : Yes
Defeat audio cache : Yes
Make use of C2 pointers : No

Read offset correction : 6
Overread into Lead-In and Lead-Out : No
Fill up missing offset samples with silence : Yes
Delete leading and trailing silent blocks : No
Null samples used in CRC calculations : Yes
Used interface : Native Win32 interface for Win NT & 2000

Used output format : User Defined Encoder
Selected bitrate : 1024 kBit/s
Quality : High
Add ID3 tag : No
Command line compressor : C:\Program Files (x86)\Exact Audio Copy\Flac\flac.exe
Additional command line options : -V -8 -T "Date=%year%" -T "Genre=%genre%" %source%


TOC of the extracted CD

Track | Start | Length | Start sector | End sector
––––––––––––––––––––––––––––-
1 | 0:00.00 | 4:04.44 | 0 | 18343
2 | 4:04.44 | 3:18.08 | 18344 | 33201
3 | 7:22.52 | 5:21.05 | 33202 | 57281
4 | 12:43.57 | 6:02.09 | 57282 | 84440
5 | 18:45.66 | 5:42.52 | 84441 | 110142
6 | 24:28.43 | 5:31.15 | 110143 | 134982
7 | 29:59.58 | 3:21.09 | 134983 | 150066
8 | 33:20.67 | 4:43.22 | 150067 | 171313
9 | 38:04.14 | 4:43.00 | 171314 | 192538
10 | 42:47.14 | 4:27.03 | 192539 | 212566
11 | 47:14.17 | 3:45.08 | 212567 | 229449
12 | 50:59.25 | 3:32.56 | 229450 | 245405
13 | 54:32.06 | 4:25.34 | 245406 | 265314
14 | 58:57.40 | 6:03.15 | 265315 | 292554


Range status and errors

Selected range

Filename H:\AUDIO\MUSIC\Candy Dulfer\2003. Candy Dulfer - Right In My Soul (Eagles EAGCD208, EU)\Candy Dulfer - Right In My Soul.wav

Peak level 100.0 %
Extraction speed 6.1 X
Range quality 100.0 %
Test CRC 02AF35F6
Copy CRC 02AF35F6
Copy OK

No errors occurred


AccurateRip summary

Track 1 accurately ripped (confidence 32) [A8552104] (AR v2)
Track 2 accurately ripped (confidence 32) [86AB82AD] (AR v2)
Track 3 accurately ripped (confidence 32) [899C581C] (AR v2)
Track 4 accurately ripped (confidence 32) [9AC9043D] (AR v2)
Track 5 accurately ripped (confidence 32) [74B3AEEE] (AR v2)
Track 6 accurately ripped (confidence 32) [A95BECCF] (AR v2)
Track 7 accurately ripped (confidence 32) [C81030F0] (AR v2)
Track 8 accurately ripped (confidence 32) [53E69E9B] (AR v2)
Track 9 accurately ripped (confidence 32) [2E1379A9] (AR v2)
Track 10 accurately ripped (confidence 32) [E53220EB] (AR v2)
Track 11 accurately ripped (confidence 32) [0BCDCA8A] (AR v2)
Track 12 accurately ripped (confidence 32) [8FAA56FB] (AR v2)
Track 13 accurately ripped (confidence 32) [184576BE] (AR v2)
Track 14 accurately ripped (confidence 32) [E65D70D2] (AR v2)

All tracks accurately ripped

End of status report

==== Log checksum 7A744F38D57B7F28483D9E2756738EEF3EA334D623ECA0AD815BAB8B9A35A951 ====


[CUETools log; Date: 14.02.2021 14:31:55; Version: 2.1.4]
[CTDB TOCID: zzNS6n4zt_EmCCrYzflNuFPGzFs-] found.
Track | CTDB Status
1 | (73/73) Accurately ripped
2 | (73/73) Accurately ripped
3 | (73/73) Accurately ripped
4 | (72/73) Accurately ripped
5 | (72/73) Accurately ripped
6 | (73/73) Accurately ripped
7 | (73/73) Accurately ripped
8 | (73/73) Accurately ripped
9 | (73/73) Accurately ripped
10 | (73/73) Accurately ripped
11 | (73/73) Accurately ripped
12 | (72/73) Accurately ripped
13 | (72/73) Accurately ripped
14 | (72/73) Accurately ripped
[AccurateRip ID: 00218868-0165c109-ba0f3c0e] found.
Track [ CRC | V2 ] Status
01 [7edb3686|a8552104] (22+37/61) Accurately ripped
02 [2c6a7bd2|86ab82ad] (24+36/62) Accurately ripped
03 [cebfd7fa|899c581c] (24+37/63) Accurately ripped
04 [e50d1aa9|9ac9043d] (24+36/62) Accurately ripped
05 [72c4e6fd|74b3aeee] (24+36/62) Accurately ripped
06 [f99be7f9|a95beccf] (24+36/62) Accurately ripped
07 [60b33947|c81030f0] (24+37/63) Accurately ripped
08 [25c9cdc7|53e69e9b] (24+36/62) Accurately ripped
09 [66e4dae7|2e1379a9] (24+37/63) Accurately ripped
10 [874d2185|e53220eb] (24+37/63) Accurately ripped
11 [6dd765a7|0bcdca8a] (24+36/62) Accurately ripped
12 [b8152477|8faa56fb] (25+36/63) Accurately ripped
13 [748a6b94|184576be] (25+36/61) Accurately ripped
14 [31a85a69|e65d70d2] (25+36/63) Accurately ripped
Offsetted by -676:
01 [d5a719a2] (02/61) Accurately ripped
02 [08814aaa] (02/62) Accurately ripped
03 [cd21a496] (02/63) Accurately ripped
04 [2205cd5f] (02/62) Accurately ripped
05 [825ee897] (02/62) Accurately ripped
06 [024517b5] (02/62) Accurately ripped
07 [5eed366b] (02/63) Accurately ripped
08 [9bb6268f] (02/62) Accurately ripped
09 [88d1b0cf] (02/63) Accurately ripped
10 [2a281579] (02/63) Accurately ripped
11 [01b7b69f] (02/62) Accurately ripped
12 [053df5bb] (02/63) Accurately ripped
13 [c6ec11b4] (00/61) No match (V2 was not tested)
14 [3e751b89] (02/63) Accurately ripped

Track Peak [ CRC32 ] [W/O NULL] [ LOG ]
– 100,0 [02AF35F6] [2E390928] CRC32
01 98,8 [711E956B] [8DE1A20E]
02 83,1 [B3BDF193] [0A7EE10E]
03 98,8 [FFB11126] [723B0F2F]
04 100,0 [FA0B55FE] [216E6B1A]
05 88,1 [B3F681BA] [D027389F]
06 98,8 [5321B3C2] [164EA589]
07 98,8 [D17F0F7E] [3A7F523D]
08 98,8 [F59BF2E4] [12DC891B]
09 98,9 [9E89E9A6] [9C073DE5]
10 98,8 [5919216D] [926C579A]
11 98,9 [6C94EAAA] [6F7C68BF]
12 84,0 [B4D9EB45] [1517BF03]
13 98,8 [0569F5F9] [46B739D6]
14 98,8 [E8910509] [8F7D04A5]


Candy Dulfer: Collection (1997 - 2015) [7CD, 2DVD, 2HDTV]

Tracklist CD06. 2005 - Live At Montreux (Eagle ER 20076-2, USA):

Montreux 2002
01. Dance [0:04:28.63]
02. Omara's Dance [0:07:09.56]
03. Longin' For The Funk [0:04:49.72]
04. I'll Be Released [0:06:18.33]
05. Do Watchu Like [0:04:45.73]
06. Sax-A-Go-Go pts 1 & 2 [0:09:03.50]
07. Ooh Let's Go [0:07:58.64]
Montreux 1998
08. Lily Was Here [0:03:55.24]
09. 2 Miles [0:08:13.09]
10. Pick Up The Pieces [0:09:34.51]
11. Gimme Some More [0:04:56.17]
12. Pass The Peas [0:06:32.01]

Exact Audio Copy V1.3 from 2. September 2016

EAC extraction logfile from 14. December 2019, 18:43

Candy Dulfer / Live At Montreux 2002

Used drive : PLEXTOR DVDR PX-L890SA Adapter: 1 ID: 1

Read mode : Secure
Utilize accurate stream : Yes
Defeat audio cache : Yes
Make use of C2 pointers : No

Read offset correction : 6
Overread into Lead-In and Lead-Out : No
Fill up missing offset samples with silence : Yes
Delete leading and trailing silent blocks : No
Null samples used in CRC calculations : Yes
Used interface : Native Win32 interface for Win NT & 2000

Used output format : User Defined Encoder
Selected bitrate : 1024 kBit/s
Quality : High
Add ID3 tag : No
Command line compressor : C:\Program Files (x86)\Exact Audio Copy\Flac\flac.exe
Additional command line options : -V -8 -T "Date=%year%" -T "Genre=%genre%" %source%


TOC of the extracted CD

Track | Start | Length | Start sector | End sector
––––––––––––––––––––––––––––-
1 | 0:00.00 | 4:28.63 | 0 | 20162
2 | 4:28.63 | 7:09.56 | 20163 | 52393
3 | 11:38.44 | 4:49.72 | 52394 | 74140
4 | 16:28.41 | 6:18.33 | 74141 | 102523
5 | 22:46.74 | 4:45.73 | 102524 | 123971
6 | 27:32.72 | 9:03.50 | 123972 | 164746
7 | 36:36.47 | 7:58.64 | 164747 | 200660
8 | 44:35.36 | 3:55.24 | 200661 | 218309
9 | 48:30.60 | 8:13.09 | 218310 | 255293
10 | 56:43.69 | 9:34.51 | 255294 | 298394
11 | 66:18.45 | 4:56.17 | 298395 | 320611
12 | 71:14.62 | 6:32.01 | 320612 | 350012


Range status and errors

Selected range

Filename H:\AUDIO\MUSIC\2005. Candy Dulfer - Live At Montreux (Eagle ER 20076-2, USA)\Candy Dulfer - Live At Montreux 2002.wav

Peak level 98.8 %
Extraction speed 6.9 X
Range quality 100.0 %
Test CRC 5ECFC545
Copy CRC 5ECFC545
Copy OK

No errors occurred


AccurateRip summary

Track 1 accurately ripped (confidence 7) [D56BD2E4] (AR v2)
Track 2 accurately ripped (confidence 7) [EFE0CD6C] (AR v2)
Track 3 accurately ripped (confidence 7) [41D2A35C] (AR v2)
Track 4 accurately ripped (confidence 7) [54A0F852] (AR v2)
Track 5 accurately ripped (confidence 7) [AF22A3B3] (AR v2)
Track 6 accurately ripped (confidence 7) [3B79C0A1] (AR v2)
Track 7 accurately ripped (confidence 7) [F9D1A3E9] (AR v2)
Track 8 accurately ripped (confidence 7) [77BF2947] (AR v2)
Track 9 accurately ripped (confidence 7) [05B72712] (AR v2)
Track 10 accurately ripped (confidence 6) [9EE8234B] (AR v2)
Track 11 accurately ripped (confidence 7) [357B03D8] (AR v2)
Track 12 accurately ripped (confidence 7) [42C38459] (AR v2)

All tracks accurately ripped

End of status report

==== Log checksum 89B193AE495E8CD632B52E1E652A7C852A8D3DADD698FA4FBA0FD11DA74126BD ====


[CUETools log; Date: 14.02.2021 14:32:06; Version: 2.1.4]
[CTDB TOCID: cXPaoRt.gGb8CcCs2RXTXidmXpw-] found.
Track | CTDB Status
1 | (12/86) Accurately ripped
2 | (12/86) Accurately ripped
3 | (12/86) Accurately ripped
4 | (12/86) Accurately ripped
5 | (12/86) Accurately ripped
6 | (12/86) Accurately ripped
7 | (12/86) Accurately ripped
8 | (12/86) Accurately ripped
9 | (12/86) Accurately ripped
10 | (12/86) Accurately ripped
11 | (12/86) Accurately ripped
12 | (12/86) Accurately ripped
[AccurateRip ID: 0021486a-013bf546-b1123a0c] found.
Track [ CRC | V2 ] Status
01 [b03db3e4|d56bd2e4] (06+08/58) Accurately ripped
02 [c1bb87f6|efe0cd6c] (06+08/59) Accurately ripped
03 [73832e6d|41d2a35c] (06+08/59) Accurately ripped
04 [a62f6d0b|54a0f852] (06+08/58) Accurately ripped
05 [8dd016c5|af22a3b3] (06+08/59) Accurately ripped
06 [7939a815|3b79c0a1] (05+08/58) Accurately ripped
07 [77d61f6d|f9d1a3e9] (05+08/57) Accurately ripped
08 [4e343ee4|77bf2947] (06+08/59) Accurately ripped
09 [44d6b7ba|05b72712] (06+08/59) Accurately ripped
10 [4abc0985|9ee8234b] (06+07/58) Accurately ripped
11 [52aef47c|357b03d8] (06+08/59) Accurately ripped
12 [6a129bf7|42c38459] (06+08/59) Accurately ripped
Offsetted by 50:
01 [6783fae7] (00/58) No match (V2 was not tested)
02 [9079e0c3] (00/59) No match (V2 was not tested)
03 [48fca916] (00/59) No match (V2 was not tested)
04 [e0dab060] (00/58) No match (V2 was not tested)
05 [04ae70a5] (00/59) No match (V2 was not tested)
06 [87ba140b] (00/58) No match (V2 was not tested)
07 [98fbe1a4] (00/57) No match (V2 was not tested)
08 [09d43eba] (00/59) No match (V2 was not tested)
09 [8387f5ac] (00/59) No match (V2 was not tested)
10 [6c2bd786] (00/58) No match (V2 was not tested)
11 [6ab76082] (00/59) No match (V2 was not tested)
12 [518a27d2] (00/59) No match (V2 was not tested)

Track Peak [ CRC32 ] [W/O NULL] [ LOG ]
– 98,8 [5ECFC545] [1322C6C7] CRC32
01 98,8 [7AF676BB] [6F2C092C]
02 98,8 [1589F3B4] [425D01BE]
03 98,8 [10753D5A] [F298C3B4]
04 98,8 [0B941D3B] [E86AA8CD]
05 98,8 [DBEFD6B9] [6C63C82B]
06 98,8 [F2552897] [07048186]
07 98,8 [E2886031] [ADCCC07E]
08 98,8 [0AC8C4EC] [DEA14F57]
09 98,8 [09F5D608] [D2B6F787]
10 98,8 [0D9037D0] [4F6C4D35]
11 98,8 [7041B245] [426B7E68]
12 98,8 [34ED573A] [61B56989]


Candy Dulfer: Collection (1997 - 2015) [7CD, 2DVD, 2HDTV]

Tracklist CD07. 2008 - The Essential Candy Dulfer:

01. Lily Was Here (04:21)
02. Dance'Till You Bop (05:11)
03. Sax-A-Go-Go (03:59)
04. Pick Up The Pieces (04:03)
05. Funkyness (05:15)
06. Girls Should Stick Together (05:09)
07. So What (04:56)
08. Bob's Jazz (04:56)
09. 2 Funky (04:49)
10. Wake Me Up When It's Over (03:41)
11. Girls Night Out (03:26)
12. What Does It Take (To Win Your Love For Me) (04:18)
13. I Can't Make You Love Me (Live) (10:12)
14. For The Love Of You (Live) (08:35)

Exact Audio Copy V0.99 prebeta 5 from 4. May 2009

Отчёт EAC об извлечении, выполненном 30. апреля 2010, 21:13

Candy Dulfer / The Essential Candy Dulfer

Дисковод: MATSHITADVD-RAM UJ-832S Adapter: 0 ID: 1

Режим чтения : Достоверность
Использование точного потока : Да
Отключение кэша аудио : Да
Использование указателей C2 : Нет

Коррекция смещения при чтении : 102
Способность читать области Lead-in и Lead-out : Нет
Заполнение пропущенных сэмплов тишиной : Да
Удаление блоков с тишиной в начале и конце : Нет
При вычислениях CRC использовались нулевые сэмплы : Да
Интерфейс : Встроенный Win32-интерфейс для Win NT/2000
Обработка зазоров : Добавлено к предыдущему треку

Выходной формат : Внутренние WAV-операции
Формат сэмплов : 44.100 Гц; 16 бит; стерео


TOC извлечённого CD

Трек | Старт | Длительность | Начальный сектор | Конечный сектор
––––––––––––––––––––––––––––––––––-
1 | 0:00.00 | 4:20.61 | 0 | 19560
2 | 4:20.61 | 5:10.41 | 19561 | 42851
3 | 9:31.27 | 3:58.65 | 42852 | 60766
4 | 13:30.17 | 4:02.42 | 60767 | 78958
5 | 17:32.59 | 5:15.05 | 78959 | 102588
6 | 22:47.64 | 5:09.26 | 102589 | 125789
7 | 27:57.15 | 4:55.63 | 125790 | 147977
8 | 32:53.03 | 4:55.65 | 147978 | 170167
9 | 37:48.68 | 4:49.08 | 170168 | 191850
10 | 42:38.01 | 3:40.56 | 191851 | 208406
11 | 46:18.57 | 3:26.02 | 208407 | 223858
12 | 49:44.59 | 4:17.62 | 223859 | 243195
13 | 54:02.46 | 10:11.51 | 243196 | 289071
14 | 64:14.22 | 8:34.59 | 289072 | 327680


Трек 1

Имя файла F:\The Essential Candy Dulfer\01 - Lily Was Here.wav

Длина предзазора 0:00:02.00

Пиковый уровень 96.6 %
Качество трека 100.0 %
CRC теста E7E3B0F3
CRC копии E7E3B0F3
Точное извлечение (достоверность 3) [5A965F1C]
Копирование… OK

Трек 2

Имя файла F:\The Essential Candy Dulfer\02 - Dance'Till You Bop.wav

Длина предзазора 0:00:02.00

Пиковый уровень 76.2 %
Качество трека 100.0 %
CRC теста 70834785
CRC копии 70834785
Точное извлечение (достоверность 3) [C16E6ADE]
Копирование… OK

Трек 3

Имя файла F:\The Essential Candy Dulfer\03 - Sax-A-Go-Go.wav

Длина предзазора 0:00:02.00

Пиковый уровень 96.6 %
Качество трека 100.0 %
CRC теста C16DF41E
CRC копии C16DF41E
Точное извлечение (достоверность 4) [DAC7D534]
Копирование… OK

Трек 4

Имя файла F:\The Essential Candy Dulfer\04 - Pick Up The Pieces.wav

Длина предзазора 0:00:02.00

Пиковый уровень 96.6 %
Качество трека 100.0 %
CRC теста DF7994C2
CRC копии DF7994C2
Точное извлечение (достоверность 4) [D2C326B1]
Копирование… OK

Трек 5

Имя файла F:\The Essential Candy Dulfer\05 - Funkyness.wav

Длина предзазора 0:00:02.00

Пиковый уровень 95.5 %
Качество трека 100.0 %
CRC теста 6294ACEF
CRC копии 6294ACEF
Точное извлечение (достоверность 4) [4305423D]
Копирование… OK

Трек 6

Имя файла F:\The Essential Candy Dulfer\06 - Girls Should Stick Together.wav

Длина предзазора 0:00:02.00

Пиковый уровень 96.6 %
Качество трека 100.0 %
CRC теста B20052EC
CRC копии B20052EC
Точное извлечение (достоверность 4) [0C7BF8BB]
Копирование… OK

Трек 7

Имя файла F:\The Essential Candy Dulfer\07 - So What.wav

Длина предзазора 0:00:02.00

Пиковый уровень 96.6 %
Качество трека 99.9 %
CRC теста 468AECE9
CRC копии 468AECE9
Точное извлечение (достоверность 4) [ED66ACE6]
Копирование… OK

Трек 8

Имя файла F:\The Essential Candy Dulfer\08 - Bob's Jazz.wav

Длина предзазора 0:00:02.00

Пиковый уровень 96.6 %
Качество трека 99.9 %
CRC теста 6576758C
CRC копии 6576758C
Точное извлечение (достоверность 4) [3F731DE0]
Копирование… OK

Трек 9

Имя файла F:\The Essential Candy Dulfer\09 - 2 Funky.wav

Длина предзазора 0:00:02.00

Пиковый уровень 96.6 %
Качество трека 100.0 %
CRC теста 0D3F5ADC
CRC копии 0D3F5ADC
Точное извлечение (достоверность 4) [4091C627]
Копирование… OK

Трек 10

Имя файла F:\The Essential Candy Dulfer\10 - Wake Me Up When It's Over.wav

Длина предзазора 0:00:02.00

Пиковый уровень 95.5 %
Качество трека 100.0 %
CRC теста A0E5CBFD
CRC копии A0E5CBFD
Точное извлечение (достоверность 4) [362B9741]
Копирование… OK

Трек 11

Имя файла F:\The Essential Candy Dulfer\11 - Girls Night Out.wav

Длина предзазора 0:00:02.00

Пиковый уровень 95.9 %
Качество трека 100.0 %
CRC теста 6D8D1AAF
CRC копии 6D8D1AAF
Точное извлечение (достоверность 4) [25BD805E]
Копирование… OK

Трек 12

Имя файла F:\The Essential Candy Dulfer\12 - What Does It Take (To Win Your Love For Me).wav

Длина предзазора 0:00:02.00

Пиковый уровень 96.3 %
Качество трека 100.0 %
CRC теста E2AFED12
CRC копии E2AFED12
Точное извлечение (достоверность 4) [1603C374]
Копирование… OK

Трек 13

Имя файла F:\The Essential Candy Dulfer\13 - I Can't Make You Love Me (Live).wav

Длина предзазора 0:00:02.00

Пиковый уровень 96.6 %
Качество трека 99.9 %
CRC теста 653E2201
CRC копии 653E2201
Точное извлечение (достоверность 2) [0F4D5CA2]
Копирование… OK

Трек 14

Имя файла F:\The Essential Candy Dulfer\14 - For The Love Of You (Live).wav

Длина предзазора 0:00:02.00

Пиковый уровень 85.0 %
Качество трека 100.0 %
CRC теста F518E0C4
CRC копии F518E0C4
Точное извлечение (достоверность 4) [BE5E9B15]
Копирование… OK


Все треки извлечены точно

Ошибок не произошло

Конец отчёта


[CUETools log; Date: 04.04.2021 16:28:29; Version: 2.1.4]
[AccurateRip ID: 0022119a-016eca78-d511110e] found.
Track [ CRC | V2 ] Status
01 [5a965f1c|001960ac] (06+06/12) Accurately ripped
02 [c16e6ade|46a9d09c] (06+06/12) Accurately ripped
03 [dac7d534|409d188f] (07+06/13) Accurately ripped
04 [d2c326b1|8a377e16] (07+06/13) Accurately ripped
05 [4305423d|c216d2d3] (07+06/13) Accurately ripped
06 [0c7bf8bb|3fc9b4c3] (07+06/13) Accurately ripped
07 [ed66ace6|37fea432] (07+06/13) Accurately ripped
08 [3f731de0|a0e4df3e] (07+06/13) Accurately ripped
09 [4091c627|45ceee4e] (07+06/13) Accurately ripped
10 [362b9741|2819ae3e] (07+06/13) Accurately ripped
11 [25bd805e|b7a8d800] (08+06/14) Accurately ripped
12 [1603c374|81abdbb9] (07+05/12) Accurately ripped
13 [0f4d5ca2|b2733396] (05+06/11) Accurately ripped
14 [be5e9b15|a73da158] (07+06/13) Accurately ripped
Offsetted by -18:
01 [50c9a698] (00/12) No match
02 [6486a7d0] (00/12) No match
03 [3254d5ce] (00/13) No match
04 [0156e3e9] (00/13) No match
05 [3d37a18b] (00/13) No match
06 [cff84931] (00/13) No match
07 [dab7848c] (00/13) No match
08 [26bfdb3e] (00/13) No match
09 [c8ba65c5] (00/13) No match
10 [a8bdf4cf] (00/13) No match
11 [e18c32fe] (00/14) No match
12 [0a8c00b6] (00/12) No match (V2 was not tested)
13 [25b79430] (00/11) No match
14 [905b444c] (00/13) No match
Offsetted by 6:
01 [5584179d] (00/12) No match (V2 was not tested)
02 [9a0d0133] (00/12) No match (V2 was not tested)
03 [124a6dd4] (00/13) No match (V2 was not tested)
04 [c33c9247] (00/13) No match (V2 was not tested)
05 [9a49cd23] (00/13) No match (V2 was not tested)
06 [20a7dde9] (00/13) No match (V2 was not tested)
07 [5a763ee8] (00/13) No match (V2 was not tested)
08 [b3e31c6e] (00/13) No match (V2 was not tested)
09 [dd673b99] (00/13) No match (V2 was not tested)
10 [0f664259] (00/13) No match (V2 was not tested)
11 [348b4c31] (00/14) No match (V2 was not tested)
12 [c07e0706] (00/12) No match (V2 was not tested)
13 [5d2ef4c3] (00/11) No match (V2 was not tested)
14 [29866a30] (00/13) No match

Track Peak [ CRC32 ] [W/O NULL] [ LOG ]
– 96,6 [BEE55370] [689824A1]
01 96,6 [E7E3B0F3] [96224AE7] CRC32
02 76,2 [70834785] [C205A641] CRC32
03 96,6 [C16DF41E] [5D078438] CRC32
04 96,6 [DF7994C2] [BA908C17] CRC32
05 95,5 [6294ACEF] [F1BB83F9] CRC32
06 96,6 [B20052EC] [715BE055] CRC32
07 96,6 [468AECE9] [09D6B473] CRC32
08 96,6 [6576758C] [64D1CB26] CRC32
09 96,6 [0D3F5ADC] [D3348148] CRC32
10 95,5 [A0E5CBFD] [2B0EE002] CRC32
11 95,9 [6D8D1AAF] [A10D7ADA] CRC32
12 96,3 [E2AFED12] [C1FFBE29] CRC32
13 96,6 [653E2201] [F86AF52E] CRC32
14 85,0 [F518E0C4] [BDAAF991] CRC32


Candy Dulfer: Collection (1997 - 2015) [7CD, 2DVD, 2HDTV]

Tracklist DVD1. 2001 - Live in Amsterdam:

1. Introvert
2. Bob's Jazz
3. Omara's Dance
4. For The Love Of You
5. Sax-A-Go-Go
6. Lily Was Here
7. Synchrodestiny
8. Nikki's Dream
9. Pick Up The Pieces
10. Dance 'Till You Bop Revisited

Original Video Clips:
1. Lily Was Here
2. Sexuality
3. Sax-A-Go-Go
4. For The Love Of You
5. Cookie's Fortune

Title: DVD1. 2001 - Live in Amsterdam
Size: 4.20 Gb ( 4 403 152,00 KBytes ) - DVD-5
Enabled regions: 1, 2, 3, 4, 5, 6, 7, 8

VTS_01 :
Play Length: 00:00:13
Video: PAL 4:3 (720x576) VBR
Audio:
Nederlands (Dolby AC3, 6 ch)

VTS_02 :
Play Length: 00:01:00+00:01:00+00:01:00+00:01:00+00:01:00+00:01:00+00:01:00+00:01:00+00:01:00+00:01:00+00:01:00+00:01:00
Video: PAL 4:3 (720x576) VBR
Audio:
Nederlands (Dolby AC3, 2 ch)
Subtitles:
Nederlands

VTS_03 :
Play Length: 00:04:23+00:03:49+00:04:00+00:04:04+00:04:04
Video: PAL 4:3 (720x576) VBR
Audio:
Nederlands (Dolby AC3, 2 ch)

VTS_04 :
Play Length: 00:10:21
Video: PAL 4:3 (720x576) VBR
Audio:
Nederlands (Dolby AC3, 2 ch)

VTS_05 :
Play Length: 01:05:07+00:00:00
Video: PAL 4:3 (720x576) VBR
Audio:
Nederlands (Dolby AC3, 2 ch)
Nederlands (Dolby AC3, 6 ch)
Subtitles:
Nederlands


Candy Dulfer: Collection (1997 - 2015) [7CD, 2DVD, 2HDTV]

Candy Dulfer: Collection (1997 - 2015) [7CD, 2DVD, 2HDTV]

Candy Dulfer: Collection (1997 - 2015) [7CD, 2DVD, 2HDTV]

* * * * *

Candy Dulfer: Collection (1997 - 2015) [7CD, 2DVD, 2HDTV]

Tracklist DVD2. 2011 - Crazy:

Crazy - Candy Meets Maceo Parker

Title: DVD2. 2011 - Crazy
Size: 1.47 Gb ( 1 543 876,00 KBytes ) - DVD-5
Enabled regions: 1, 2, 3, 4, 5, 6, 7, 8

VTS_01 :
Play Length: 00:25:06
Video: PAL 16:9 (720x576) VBR, Auto Pan&Scan, Auto Letterboxed
Audio:
Not specified (Dolby AC3, 2 ch)


Candy Dulfer: Collection (1997 - 2015) [7CD, 2DVD, 2HDTV]

Candy Dulfer: Collection (1997 - 2015) [7CD, 2DVD, 2HDTV]

Candy Dulfer: Collection (1997 - 2015) [7CD, 2DVD, 2HDTV]

* * * * *

Candy Dulfer: Collection (1997 - 2015) [7CD, 2DVD, 2HDTV]

Tracklist HDTV1. 2015 - Baloise Session:

After Tonight
Hey Now
Crazy
What Do You Do When The Music Hits
Lily Was Here
History
Pick Up the Pieces

General
ID : 1700 (0x6A4)
Complete name : F:\Mix\Candy Dulfer - Collection\HDTV1. 2015 - Baloise Session\Candy Dulfer. Baloise Session 2015.ts
Format : MPEG-TS
File size : 4.88 GiB
Duration : 59mn 55s
Overall bit rate mode : Variable
Overall bit rate : 11.7 Mbps

Video
ID : 562 (0x232)
Menu ID : 14052 (0x36E4)
Format : AVC
Format/Info : Advanced Video Codec
Format profile : High@L4.0
Format settings, CABAC : Yes
Format settings, ReFrames : 3 frames
Format settings, GOP : M=2, N=24
Codec ID : 27
Duration : 59mn 54s
Bit rate : 10.2 Mbps
Width : 1 280 pixels
Height : 720 pixels
Display aspect ratio : 16:9
Frame rate : 50.000 fps
Standard : Component
Color space : YUV
Chroma subsampling : 4:2:0
Bit depth : 8 bits
Scan type : Progressive
Bits/(Pixel*Frame) : 0.222
Stream size : 4.29 GiB (88%)
Encryption : TPS-Crypt or Viaccess
Color primaries : BT.709
Transfer characteristics : BT.709
Matrix coefficients : BT.709

Audio #1
ID : 563 (0x233)
Menu ID : 14052 (0x36E4)
Format : MPEG Audio
Format version : Version 1
Format profile : Layer 2
Codec ID : 3
Duration : 59mn 54s
Bit rate mode : Constant
Bit rate : 192 Kbps
Channel(s) : 2 channels
Sampling rate : 48.0 KHz
Compression mode : Lossy
Delay relative to video : -25ms
Stream size : 82.3 MiB (2%)
Language : Italian
Language, more info : Clean effects
Encryption : TPS-Crypt or Viaccess

Audio #2
ID : 564 (0x234)
Menu ID : 14052 (0x36E4)
Format : MPEG Audio
Format version : Version 1
Format profile : Layer 2
Codec ID : 3
Duration : 59mn 54s
Bit rate mode : Constant
Bit rate : 192 Kbps
Channel(s) : 2 channels
Sampling rate : 48.0 KHz
Compression mode : Lossy
Delay relative to video : -25ms
Stream size : 82.3 MiB (2%)
Language : English
Language, more info : Clean effects
Encryption : TPS-Crypt or Viaccess

Audio #3
ID : 565 (0x235)
Menu ID : 14052 (0x36E4)
Format : AC-3
Format/Info : Audio Coding 3
Mode extension : CM (complete main)
Format settings, Endianness : Big
Codec ID : 6
Duration : 59mn 54s
Bit rate mode : Constant
Bit rate : 448 Kbps
Channel(s) : 6 channels
Channel positions : Front: L C R, Side: L R, LFE
Sampling rate : 48.0 KHz
Bit depth : 16 bits
Compression mode : Lossy
Delay relative to video : -36ms
Stream size : 192 MiB (4%)
Language : Italian
Language, more info : Clean effects
Encryption : TPS-Crypt or Viaccess

Text #1
ID : 567 (0x237)-100
Menu ID : 14052 (0x36E4)
Format : Teletext
Language : Italian

Text #2
ID : 567 (0x237)-777
Menu ID : 14052 (0x36E4)
Format : Teletext Subtitle
Language : Italian

Menu
ID : 561 (0x231)
Menu ID : 14052 (0x36E4)
Duration : 59mn 55s
List : 562 (0x232) (AVC) / 563 (0x233) (MPEG Audio, Italian) / 564 (0x234) (MPEG Audio, English) / 565 (0x235) (AC-3, Italian) / 567 (0x237) () / 568 (0x238) () / 5680 (0x1630) ()
Language : / Italian / English / Italian



Candy Dulfer: Collection (1997 - 2015) [7CD, 2DVD, 2HDTV]

Candy Dulfer: Collection (1997 - 2015) [7CD, 2DVD, 2HDTV]

Candy Dulfer: Collection (1997 - 2015) [7CD, 2DVD, 2HDTV]

* * * * *

Candy Dulfer: Collection (1997 - 2015) [7CD, 2DVD, 2HDTV]

Tracklist HDTV2. 2015 - Estival Jazz Lugano:

After Tonight
Hold Up
Hey Now
Crazy
What Do You Do When The Music Hits
Lily Was Here
Daylight
History
Bass In Your Face
Drumsolo
Pick Up the Pieces
Medley
Bad Mama Jama
Good Music

General
ID : 8500 (0x2134)
Complete name : F:\Mix\Candy Dulfer - Collection\HDTV2. 2015 - Estival Jazz Lugano\Candy Dulfer - Estival Jazz Lugano 2015.ts
Format : MPEG-TS
File size : 8.52 GiB
Duration : 1h 51mn
Overall bit rate mode : Variable
Overall bit rate : 10.9 Mbps

Video
ID : 562 (0x232)
Menu ID : 951 (0x3B7)
Format : AVC
Format/Info : Advanced Video Codec
Format profile : High@L4.0
Format settings, CABAC : Yes
Format settings, ReFrames : 3 frames
Format settings, GOP : M=2, N=24
Codec ID : 27
Duration : 1h 51mn
Bit rate : 9 955 Kbps
Width : 1 280 pixels
Height : 720 pixels
Display aspect ratio : 16:9
Frame rate : 50.000 fps
Standard : Component
Color space : YUV
Chroma subsampling : 4:2:0
Bit depth : 8 bits
Scan type : Progressive
Bits/(Pixel*Frame) : 0.216
Stream size : 7.75 GiB (91%)
Encryption : TPS-Crypt or Viaccess
Color primaries : BT.709
Transfer characteristics : BT.709
Matrix coefficients : BT.709

Audio
ID : 565 (0x235)
Menu ID : 951 (0x3B7)
Format : AC-3
Format/Info : Audio Coding 3
Mode extension : CM (complete main)
Format settings, Endianness : Big
Codec ID : 6
Duration : 1h 51mn
Bit rate mode : Constant
Bit rate : 448 Kbps
Channel(s) : 6 channels
Channel positions : Front: L C R, Side: L R, LFE
Sampling rate : 48.0 KHz
Bit depth : 16 bits
Compression mode : Lossy
Delay relative to video : 118ms
Stream size : 357 MiB (4%)
Language : Italian
Language, more info : Clean effects
Encryption : TPS-Crypt or Viaccess



Candy Dulfer: Collection (1997 - 2015) [7CD, 2DVD, 2HDTV]

Candy Dulfer: Collection (1997 - 2015) [7CD, 2DVD, 2HDTV]

Candy Dulfer: Collection (1997 - 2015) [7CD, 2DVD, 2HDTV]

All thanks go to the original releasers

Candy Dulfer in my Blog

Download Candy Dulfer: Collection (1997 - 2015):