Subcategories
Tags
Language
Tags

Cheap Trick - Sex, America, Cheap Trick (1996) 4CD Box Set

Posted By: Designol
Cheap Trick - Sex, America, Cheap Trick (1996) 4CD Box Set

Cheap Trick - Sex, America, Cheap Trick (1996) 4CD Box Set
EAC | FLAC | Image (Cue&Log) ~ 1.71 Gb | Mp3 (CBR320) ~ 612 Mb
Label: Epic, Legacy | # E4K 64938 | Time: 04:28:15 | Scans ~ 220 Mb
Classic Rock, Hard Rock, Arena Rock, Pop Rock, Power Pop

Cheap Trick may no longer be playing the stadiums that the group's monumental talent surely warrants, but they do have one of the most loyal cult followings in all rock & roll. Thus, when Epic Records decided to release a four-disc box set celebrating the quartet's 20th anniversary with the label, someone there was smart enough to let the band put together a collection for the collectors. Which means 32 of the 64 tracks here are previously unreleased, including many live cover tunes (Beatles, Velvet Underground), demo takes, and a few things only a fan would want. Some hits are here (including "Surrender"), but, as a good example, there's no "He's a Whore," which Cheap Trick probably figured their fans should already own.

Review by Bill Holdship, Amazon.com Editorial Review

Sex, America, Cheap Trick is a classic example of a botched box set. Spanning four discs and 64 songs, the box contains nearly all of the group's hit singles and an amazing amount of rarities – a grand total of 30 outtakes, live tracks, demos, single versions, soundtrack songs, and B-sides. Despite all of the abundance of material, there are still a lot of essential items missing, as well as several odd inclusions. Many of the group's biggest hits and concert staples are present, but Cheap Trick classics like "He's a Whore," "Downed," "Come On, Come On," "Taxman, Mr. Thief," "California Man," and several others are inexplicably absent. Furthermore, the final two discs bog down with slick radio-ready pop, even though they rescue all the highlights from the band's decidedly uneven '80s recordings. Still, the rarities – particularly single versions of early tracks like "Oh, Candy" and "Southern Girls," demos like "Fan Club," and a ripping live set – are usually worthy, even if they might have been better showcased on a double-disc rarities set.

Review by Stephen Thomas Erlewine, Allmusic.com

Cheap Trick - Sex, America, Cheap Trick (1996) 4CD Box Set



Tracklist:

CD1:

01. Hello There (01:41)
02. Elo Kiddies (Single version) (03:42)
03. Hot Love (02:32)
04. Oh, Candy (Single version) (03:07)
05. Mandocello (04:48)
06. Lovin' Money (04:09)
07. I Want You To Want Me (Alternate version) (03:01)
08. Southern Girls (Single version) (03:36)
09. So Good To See You (03:37)
10. Down On The Bay (Live version) (03:33)
11. Mrs. Henry (Live version) (09:36)
12. Violins (Live version) (06:12)
13. Ballad Of TV Violence (I'm Not The Only Boy) (Live Alternate version) (04:52)
14. You're All Talk (Live Alternate version) (03:56)
15. Fan Club (Demo version) (07:11)

CD2:

01. Surrender (04:15)
02. High Roller (Alternate version) (03:59)
03. On Top Of The World (04:06)
04. Auf Wiedersehen (03:42)
05. I Want You To Want Me (Live) (03:43)
06. Clock Strikes Ten (Live) (03:56)
07. Dream Police (03:54)
08. Way Of The World (03:39)
09. Gonna Raise Hell (09:20)
10. Voices (04:22)
11. Stop This Game (03:57)
12. Just Got Back (02:05)
13. Baby Loves To Rock (03:17)
14. Everything Works If You Let It (Alternate version) (03:56)
15. World's Greatest Lover (Demo - Rick vocal) (04:57)
16. Waitin' For The Man / Heroin (Live - Tom vocal) (07:47)

CD3:

01. Daytripper (Live) (Unedited, alternate version) (04:18)
02. World's Greatest Lover (04:51)
03. I Need Love (Demo) (03:57)
04. I'm The Man (02:11)
05. Born To Raise Hell (02:46)
06. Ohm Sweet Ohm (02:50)
07. She's Tight (02:59)
08. Love's Got A Hold On Me (02:37)
09. If You Want My Love (Alternate, Extra Bridge version) (04:26)
10. Lookin' Out For Number One (03:43)
11. Don't Make Our Love A Crime (Demo) (03:34)
12. All I Really Want (Non-LP b-side) (02:30)
13. I Can't Take It (03:28)
14. Twisted Heart (04:17)
15. Invaders Of The Heart (04:00)
16. Y.O.Y.O.Y. (07:29)

CD4:

01. Tonight It's You (04:48)
02. Cover Girl (03:42)
03. This Time Around (04:34)
04. A Place In France (03:52)
05. Funk #9 (The Doctor demo) (3:360)
06. Take Me To The Top (04:00)
07. Money Is The Route Of All Fun (02:48)
08. Fortune Cookie (Demo) (03:41)
09. You Want It (03:41)
10. The Flame (05:38)
11. Through The Night (Non LP b-side) (04:19)
12. Stop That Thief (03:55)
13. I Know What I Want (Live) (Non-LP b-side) (04:45)
14. Had To Make You Mine (03:16)
15. I Can't Understand It (03:29)
16. Can't Stop Falling Into Love (03:50)
17. Come On Christmas (07:30)


Exact Audio Copy V1.0 beta 3 from 29. August 2011

EAC extraction logfile from 29. August 2012, 21:44

Cheap Trick / Sex, America, Cheap Trick

Used drive : Optiarc DVD-ROM DDU1675S Adapter: 3 ID: 0

Read mode : Secure
Utilize accurate stream : Yes
Defeat audio cache : Yes
Make use of C2 pointers : No

Read offset correction : 6
Overread into Lead-In and Lead-Out : No
Fill up missing offset samples with silence : Yes
Delete leading and trailing silent blocks : No
Null samples used in CRC calculations : Yes
Used interface : Native Win32 interface for Win NT & 2000

Used output format : User Defined Encoder
Selected bitrate : 1024 kBit/s
Quality : High
Add ID3 tag : No
Command line compressor : C:\Program Files (x86)\Exact Audio Copy\Flac\flac.exe
Additional command line options : -V -8 -T "Date=%year%" -T "Genre=%genre%" %source%

TOC of the extracted CD

Track | Start | Length | Start sector | End sector
––––––––––––––––––––––––––––-
1 | 0:00.00 | 1:41.02 | 0 | 7576
2 | 1:41.02 | 3:42.08 | 7577 | 24234
3 | 5:23.10 | 2:32.07 | 24235 | 35641
4 | 7:55.17 | 3:07.28 | 35642 | 49694
5 | 11:02.45 | 4:48.12 | 49695 | 71306
6 | 15:50.57 | 4:09.55 | 71307 | 90036
7 | 20:00.37 | 3:01.35 | 90037 | 103646
8 | 23:01.72 | 3:36.45 | 103647 | 119891
9 | 26:38.42 | 3:37.20 | 119892 | 136186
10 | 30:15.62 | 3:33.13 | 136187 | 152174
11 | 33:49.00 | 9:36.65 | 152175 | 195439
12 | 43:25.65 | 6:12.55 | 195440 | 223394
13 | 49:38.45 | 4:52.05 | 223395 | 245299
14 | 54:30.50 | 3:56.42 | 245300 | 263041
15 | 58:27.17 | 7:11.05 | 263042 | 295371

Range status and errors

Selected range

Filename F:\Torrent\# MY\Cheap Trick - Discography (1977-2009)\1996 - Sex, America, Cheap Trick (Epic, E4K 64938, U.S.A.)\CD-1\Cheap Trick - Sex, America, Cheap Trick (CD-1).wav

Peak level 98.8 %
Extraction speed 9.2 X
Range quality 100.0 %
Test CRC BC93458C
Copy CRC BC93458C
Copy OK

No errors occurred

AccurateRip summary

Track 1 accurately ripped (confidence 17) [A78589B7] (AR v1)
Track 2 accurately ripped (confidence 17) [DBC37D68] (AR v1)
Track 3 accurately ripped (confidence 16) [153D0FF0] (AR v1)
Track 4 accurately ripped (confidence 17) [82BE9ECA] (AR v1)
Track 5 accurately ripped (confidence 16) [E029E5B7] (AR v1)
Track 6 accurately ripped (confidence 16) [8F1732CF] (AR v1)
Track 7 accurately ripped (confidence 16) [F2CAED90] (AR v1)
Track 8 accurately ripped (confidence 17) [9CA63E4A] (AR v1)
Track 9 accurately ripped (confidence 16) [6E42AF68] (AR v1)
Track 10 accurately ripped (confidence 16) [3CA088C8] (AR v1)
Track 11 accurately ripped (confidence 15) [0D8FF85C] (AR v1)
Track 12 accurately ripped (confidence 16) [2635DD02] (AR v1)
Track 13 accurately ripped (confidence 16) [F8A858CD] (AR v1)
Track 14 accurately ripped (confidence 16) [8F042601] (AR v1)
Track 15 accurately ripped (confidence 17) [327A2027] (AR v1)

All tracks accurately ripped

End of status report

==== Log checksum 77759DB598DFC7CA4C9541ACD9FAF26CFD847FA3A8F0E9B5B1201E3C9CAAC9E6 ====

Exact Audio Copy V1.0 beta 3 from 29. August 2011

EAC extraction logfile from 29. August 2012, 22:32

Cheap Trick / Sex, America, Cheap Trick

Used drive : Optiarc DVD-ROM DDU1675S Adapter: 3 ID: 0

Read mode : Secure
Utilize accurate stream : Yes
Defeat audio cache : Yes
Make use of C2 pointers : No

Read offset correction : 6
Overread into Lead-In and Lead-Out : No
Fill up missing offset samples with silence : Yes
Delete leading and trailing silent blocks : No
Null samples used in CRC calculations : Yes
Used interface : Native Win32 interface for Win NT & 2000

Used output format : User Defined Encoder
Selected bitrate : 1024 kBit/s
Quality : High
Add ID3 tag : No
Command line compressor : C:\Program Files (x86)\Exact Audio Copy\Flac\flac.exe
Additional command line options : -V -8 -T "Date=%year%" -T "Genre=%genre%" %source%

TOC of the extracted CD

Track | Start | Length | Start sector | End sector
––––––––––––––––––––––––––––-
1 | 0:00.00 | 4:15.55 | 0 | 19179
2 | 4:15.55 | 3:59.47 | 19180 | 37151
3 | 8:15.27 | 4:06.35 | 37152 | 55636
4 | 12:21.62 | 3:42.35 | 55637 | 72321
5 | 16:04.22 | 3:43.63 | 72322 | 89109
6 | 19:48.10 | 3:56.30 | 89110 | 106839
7 | 23:44.40 | 3:54.20 | 106840 | 124409
8 | 27:38.60 | 3:39.27 | 124410 | 140861
9 | 31:18.12 | 9:20.20 | 140862 | 182881
10 | 40:38.32 | 4:22.33 | 182882 | 202564
11 | 45:00.65 | 3:57.05 | 202565 | 220344
12 | 48:57.70 | 2:05.72 | 220345 | 229791
13 | 51:03.67 | 3:17.68 | 229792 | 244634
14 | 54:21.60 | 3:56.72 | 244635 | 262406
15 | 58:18.57 | 4:57.68 | 262407 | 284749
16 | 63:16.50 | 7:47.10 | 284750 | 319784

Range status and errors

Selected range

Filename F:\Torrent\# MY\Cheap Trick - Discography (1977-2009)\1996 - Sex, America, Cheap Trick (Epic, E4K 64938, U.S.A.)\CD-2\Cheap Trick - Sex, America, Cheap Trick (CD-2).wav

Peak level 98.8 %
Extraction speed 5.1 X
Range quality 100.0 %
Test CRC 5E6F0DF1
Copy CRC 5E6F0DF1
Copy OK

No errors occurred

AccurateRip summary

Track 1 accurately ripped (confidence 2) [AF9925D8] (AR v2)
Track 2 accurately ripped (confidence 2) [718BFECD] (AR v2)
Track 3 accurately ripped (confidence 2) [9A18B49C] (AR v2)
Track 4 accurately ripped (confidence 2) [CED402C4] (AR v2)
Track 5 accurately ripped (confidence 2) [6B30FC5D] (AR v2)
Track 6 accurately ripped (confidence 2) [6531A498] (AR v2)
Track 7 accurately ripped (confidence 2) [8C4A569E] (AR v2)
Track 8 accurately ripped (confidence 2) [B01B34B0] (AR v2)
Track 9 accurately ripped (confidence 2) [6A4D9D4B] (AR v2)
Track 10 accurately ripped (confidence 2) [D508D6BA] (AR v2)
Track 11 accurately ripped (confidence 2) [7974D7E0] (AR v2)
Track 12 accurately ripped (confidence 2) [7E8C8C97] (AR v2)
Track 13 accurately ripped (confidence 2) [EA3355EC] (AR v2)
Track 14 accurately ripped (confidence 2) [160BE6AF] (AR v2)
Track 15 accurately ripped (confidence 2) [8686A680] (AR v2)
Track 16 accurately ripped (confidence 2) [5B08786A] (AR v2)

All tracks accurately ripped

End of status report

==== Log checksum 06847228106382E168BE3D452BB71E39E1A7BF3FE2A275315C50502A28CCDED3 ====

Exact Audio Copy V1.0 beta 3 from 29. August 2011

EAC extraction logfile from 29. August 2012, 22:54

Cheap Trick / Sex, America, Cheap Trick

Used drive : Optiarc DVD-ROM DDU1675S Adapter: 3 ID: 0

Read mode : Secure
Utilize accurate stream : Yes
Defeat audio cache : Yes
Make use of C2 pointers : No

Read offset correction : 6
Overread into Lead-In and Lead-Out : No
Fill up missing offset samples with silence : Yes
Delete leading and trailing silent blocks : No
Null samples used in CRC calculations : Yes
Used interface : Native Win32 interface for Win NT & 2000

Used output format : User Defined Encoder
Selected bitrate : 1024 kBit/s
Quality : High
Add ID3 tag : No
Command line compressor : C:\Program Files (x86)\Exact Audio Copy\Flac\flac.exe
Additional command line options : -V -8 -T "Date=%year%" -T "Genre=%genre%" %source%

TOC of the extracted CD

Track | Start | Length | Start sector | End sector
––––––––––––––––––––––––––––-
1 | 0:00.00 | 4:18.07 | 0 | 19356
2 | 4:18.07 | 4:51.53 | 19357 | 41234
3 | 9:09.60 | 3:57.45 | 41235 | 59054
4 | 13:07.30 | 2:11.35 | 59055 | 68914
5 | 15:18.65 | 2:46.10 | 68915 | 81374
6 | 18:05.00 | 2:50.02 | 81375 | 94126
7 | 20:55.02 | 2:59.08 | 94127 | 107559
8 | 23:54.10 | 2:37.47 | 107560 | 119381
9 | 26:31.57 | 4:26.70 | 119382 | 139401
10 | 30:58.52 | 3:43.03 | 139402 | 156129
11 | 34:41.55 | 3:34.35 | 156130 | 172214
12 | 38:16.15 | 2:30.17 | 172215 | 183481
13 | 40:46.32 | 3:28.08 | 183482 | 199089
14 | 44:14.40 | 4:17.60 | 199090 | 218424
15 | 48:32.25 | 4:00.22 | 218425 | 236446
16 | 52:32.47 | 7:29.40 | 236447 | 270161

Range status and errors

Selected range

Filename F:\Torrent\# MY\Cheap Trick - Discography (1977-2009)\1996 - Sex, America, Cheap Trick (Epic, E4K 64938, U.S.A.)\CD-3\Cheap Trick - Sex, America, Cheap Trick (CD-3).wav

Peak level 98.8 %
Extraction speed 8.9 X
Range quality 100.0 %
Test CRC 1E12D0F9
Copy CRC 1E12D0F9
Copy OK

No errors occurred

AccurateRip summary

Track 1 accurately ripped (confidence 2) [F977DA82] (AR v2)
Track 2 accurately ripped (confidence 2) [73668201] (AR v2)
Track 3 accurately ripped (confidence 2) [903B52CB] (AR v2)
Track 4 accurately ripped (confidence 2) [372789B2] (AR v2)
Track 5 accurately ripped (confidence 26) [1C9C7497] (AR v1)
Track 6 accurately ripped (confidence 2) [CCBC5964] (AR v2)
Track 7 accurately ripped (confidence 2) [3D728446] (AR v2)
Track 8 accurately ripped (confidence 2) [3D8EE913] (AR v2)
Track 9 accurately ripped (confidence 2) [BBCDBDD4] (AR v2)
Track 10 accurately ripped (confidence 2) [FDDF0B56] (AR v2)
Track 11 accurately ripped (confidence 2) [8D0D725F] (AR v2)
Track 12 accurately ripped (confidence 2) [2559251B] (AR v2)
Track 13 accurately ripped (confidence 2) [9CA7656A] (AR v2)
Track 14 accurately ripped (confidence 2) [9CB2D33D] (AR v2)
Track 15 accurately ripped (confidence 2) [A55706C5] (AR v2)
Track 16 accurately ripped (confidence 2) [C4AD5958] (AR v2)

All tracks accurately ripped

End of status report

==== Log checksum F6E7A3262E842EB7790DB1CFAA7DF175C480C71A6B278B05E27183FB0B48E444 ====

Exact Audio Copy V1.0 beta 3 from 29. August 2011

EAC extraction logfile from 29. August 2012, 23:20

Cheap Trick / Sex, America, Cheap Trick

Used drive : Optiarc DVD-ROM DDU1675S Adapter: 3 ID: 0

Read mode : Secure
Utilize accurate stream : Yes
Defeat audio cache : Yes
Make use of C2 pointers : No

Read offset correction : 6
Overread into Lead-In and Lead-Out : No
Fill up missing offset samples with silence : Yes
Delete leading and trailing silent blocks : No
Null samples used in CRC calculations : Yes
Used interface : Native Win32 interface for Win NT & 2000

Used output format : User Defined Encoder
Selected bitrate : 1024 kBit/s
Quality : High
Add ID3 tag : No
Command line compressor : C:\Program Files (x86)\Exact Audio Copy\Flac\flac.exe
Additional command line options : -V -8 -T "Date=%year%" -T "Genre=%genre%" %source%

TOC of the extracted CD

Track | Start | Length | Start sector | End sector
––––––––––––––––––––––––––––-
1 | 0:00.00 | 4:48.20 | 0 | 21619
2 | 4:48.20 | 3:42.47 | 21620 | 38316
3 | 8:30.67 | 4:34.10 | 38317 | 58876
4 | 13:05.02 | 3:52.03 | 58877 | 76279
5 | 16:57.05 | 3:36.17 | 76280 | 92496
6 | 20:33.22 | 4:00.40 | 92497 | 110536
7 | 24:33.62 | 2:48.35 | 110537 | 123171
8 | 27:22.22 | 3:41.03 | 123172 | 139749
9 | 31:03.25 | 3:41.15 | 139750 | 156339
10 | 34:44.40 | 5:38.72 | 156340 | 181761
11 | 40:23.37 | 4:19.10 | 181762 | 201196
12 | 44:42.47 | 3:55.60 | 201197 | 218881
13 | 48:38.32 | 4:45.18 | 218882 | 240274
14 | 53:23.50 | 3:16.32 | 240275 | 255006
15 | 56:40.07 | 3:29.70 | 255007 | 270751
16 | 60:10.02 | 3:50.20 | 270752 | 288021
17 | 64:00.22 | 7:30.60 | 288022 | 321831

Range status and errors

Selected range

Filename F:\Torrent\# MY\Cheap Trick - Discography (1977-2009)\1996 - Sex, America, Cheap Trick (Epic, E4K 64938, U.S.A.)\CD-4\Cheap Trick - Sex, America, Cheap Trick (CD-4).wav

Peak level 98.8 %
Extraction speed 9.4 X
Range quality 99.9 %
Test CRC 7883FEF8
Copy CRC 7883FEF8
Copy OK

No errors occurred

AccurateRip summary

Track 1 accurately ripped (confidence 2) [8C101B49] (AR v2)
Track 2 accurately ripped (confidence 2) [84A0D15E] (AR v2)
Track 3 accurately ripped (confidence 2) [F644261F] (AR v2)
Track 4 accurately ripped (confidence 2) [38D59B52] (AR v2)
Track 5 accurately ripped (confidence 2) [47B848F6] (AR v2)
Track 6 accurately ripped (confidence 2) [AEAA6E3A] (AR v2)
Track 7 accurately ripped (confidence 2) [93406FAE] (AR v2)
Track 8 accurately ripped (confidence 2) [F757A242] (AR v2)
Track 9 accurately ripped (confidence 2) [4C2C561C] (AR v2)
Track 10 accurately ripped (confidence 2) [A9C1561E] (AR v2)
Track 11 accurately ripped (confidence 2) [D97A73E7] (AR v2)
Track 12 accurately ripped (confidence 2) [443F1C93] (AR v2)
Track 13 accurately ripped (confidence 2) [01943DD8] (AR v2)
Track 14 accurately ripped (confidence 2) [D119833F] (AR v2)
Track 15 accurately ripped (confidence 2) [88035EDA] (AR v2)
Track 16 accurately ripped (confidence 2) [241CEFC7] (AR v2)
Track 17 accurately ripped (confidence 2) [498E6274] (AR v2)

All tracks accurately ripped

End of status report

==== Log checksum 2625348C24C2751BAE3C7E112BC8B407039001D286EC1D0F0BD727812626CDBB ====

Cheap Trick - Sex, America, Cheap Trick (1996) 4CD Box Set

Cheap Trick - Sex, America, Cheap Trick (1996) 4CD Box Set