Subcategories
Tags
Language
Tags

Chet Atkins & Les Paul - Masters Of The Guitar - Together (1989/1993)

Posted By: popsakov
Chet Atkins & Les Paul - Masters Of The Guitar - Together (1989/1993)

Chet Atkins & Les Paul - Masters Of The Guitar - Together (1989/1993)
EAC Rip | FLAC (Img) + Cue + Log ~ 268 Mb | MP3 CBR320 ~ 142 Mb
Full Scans | 00:50:43 | RAR 5% Recovery
Country, Country-Pop | Pair Records / RCA / BMG #PDC-2-1230

It seems that Les Paul had a relaxing effect on Atkins in the studio, because this disc, which compiles their two studio efforts, is charming. The production is modest and both pickers are in sharp form. The country twang added to standards like "It's Been a Long, Long Time" is irresistible.

~ Stephen Thomas Erlewine, All Music

***************

Track List:

01. Caravan [3:18]
02. It's Been a Long Time [3:31]
03. Deed I Do [2:30]
04. Limehouse Blues [2:49]
05. Lazy River [2:58]
06. Brazil [2:39]
07. Lover, Come Back to Me [2:43]
08. Medley: Moonglow/Picnic [4:43]
09. It Had to Be You [3:32]
10. It Don't Mean a Thing (If It Ain't Got That Swing) [2:57]
11. I Surrender Dear [4:03]
12. Birth of the Blues [3:05]
13. Out of Nowhere [3:13]
14. Meditation [2:30]
15. Over the Rainbow [2:40]
16. I Want to Be Happy [3:39]


[CUETools log; Date: 15.06.2021 11:00:55; Version: 2.1.6]
Pregap length 00:00:37.
[CTDB TOCID: sQEddm53JvmQ8OQ6AbjU3jzV7dc-] found.
Track | CTDB Status
1 | (29/30) Accurately ripped
2 | (29/30) Accurately ripped
3 | (29/30) Accurately ripped
4 | (29/30) Accurately ripped
5 | (29/30) Accurately ripped
6 | (29/30) Accurately ripped
7 | (29/30) Accurately ripped
8 | (29/30) Accurately ripped
9 | (29/30) Accurately ripped
10 | (29/30) Accurately ripped
11 | (29/30) Accurately ripped
12 | (29/30) Accurately ripped
13 | (29/30) Accurately ripped
14 | (29/30) Accurately ripped
15 | (29/30) Accurately ripped
16 | (29/30) Accurately ripped
[AccurateRip ID: 001d6f94-0162854c-ca0be210] found.
Track [ CRC | V2 ] Status
01 [953e6b2b|a697a8dd] (00+07/14) Accurately ripped
02 [fb66aa0b|f0be0d23] (02+07/16) Accurately ripped
03 [d3837d3e|11f1f740] (02+07/16) Accurately ripped
04 [b2a8baf8|4743b71a] (02+07/16) Accurately ripped
05 [d6a63ad8|14daa6d6] (02+07/16) Accurately ripped
06 [19bc04a8|0f20e4a3] (02+07/16) Accurately ripped
07 [91cb70f2|a58a32a9] (02+07/16) Accurately ripped
08 [db8259a5|c0f56ef2] (02+07/16) Accurately ripped
09 [25ca67e2|f0c424f4] (02+07/16) Accurately ripped
10 [a1dadae5|ad944ae5] (02+07/16) Accurately ripped
11 [2fd0d9c2|8aecbd90] (02+07/16) Accurately ripped
12 [ece8b5f1|38b4d89a] (02+07/16) Accurately ripped
13 [2e2759fe|23502322] (02+07/16) Accurately ripped
14 [156e8c27|a01d1ec5] (02+07/16) Accurately ripped
15 [6ecf829c|d9af1d70] (02+07/16) Accurately ripped
16 [8f7d4284|8c17d2e4] (02+07/16) Accurately ripped
Offsetted by -1844:
01 [6ebc1b06] (00/14) No match (V2 was not tested)
02 [cecf33c1] (00/16) No match (V2 was not tested)
03 [3e614f06] (00/16) No match (V2 was not tested)
04 [45663dfd] (00/16) No match (V2 was not tested)
05 [b6470475] (00/16) No match (V2 was not tested)
06 [77e9d114] (00/16) No match (V2 was not tested)
07 [aabc9f66] (00/16) No match (V2 was not tested)
08 [f390a8d1] (00/16) No match (V2 was not tested)
09 [001610c7] (00/16) No match (V2 was not tested)
10 [7dc98e32] (00/16) No match (V2 was not tested)
11 [08fa3a5c] (00/16) No match (V2 was not tested)
12 [39c24f7a] (00/16) No match (V2 was not tested)
13 [46eef0d0] (00/16) No match (V2 was not tested)
14 [237475c3] (00/16) No match (V2 was not tested)
15 [d395bfd2] (00/16) No match (V2 was not tested)
16 [5712fa7a] (00/16) No match (V2 was not tested)
Offsetted by -1428:
01 [e2e1a7d0] (00/14) No match (V2 was not tested)
02 [9ddde73a] (00/16) No match (V2 was not tested)
03 [df4bef70] (00/16) No match (V2 was not tested)
04 [8d58c43f] (00/16) No match (V2 was not tested)
05 [ea525de1] (00/16) No match (V2 was not tested)
06 [d75c92be] (00/16) No match (V2 was not tested)
07 [38ccca93] (00/16) No match (V2 was not tested)
08 [c9b7fbea] (00/16) No match (V2 was not tested)
09 [18042291] (00/16) No match (V2 was not tested)
10 [4585c1db] (00/16) No match (V2 was not tested)
11 [22857592] (00/16) No match (V2 was not tested)
12 [48de641e] (00/16) No match (V2 was not tested)
13 [fcdbd1fc] (00/16) No match (V2 was not tested)
14 [fe9cb7ea] (00/16) No match (V2 was not tested)
15 [1a7dcebf] (00/16) No match (V2 was not tested)
16 [0d8f9d70] (00/16) No match (V2 was not tested)

Track Peak [ CRC32 ] [W/O NULL] [ LOG ]
– 100,0 [1A8A0088] [98764371] CRC32
01 81,1 [B704ACA5] [10A36027]
02 81,6 [E2F000FB] [43D21CA5]
03 71,0 [967D2335] [5CA66468]
04 82,1 [B7DF8A3C] [CF92402E]
05 87,8 [2878915C] [06201375]
06 72,1 [94A0BE80] [329B6B58]
07 86,8 [F8D582CC] [928E62AF]
08 61,6 [A61CAD22] [E0083BF4]
09 83,0 [6F31FF45] [EB08F181]
10 100,0 [24C48FFF] [C9173CB9]
11 79,2 [FB5B9469] [39CA18CF]
12 76,4 [0533AF55] [0D6D293E]
13 92,4 [ACE999E4] [0F57BCD3]
14 92,8 [68E12335] [259DE1CD]
15 84,2 [267639F7] [4B2E5431]
16 100,0 [A66D6C40] [99C14B11]

Chet Atkins & Les Paul - Masters Of The Guitar - Together (1989/1993)


All thanks go to Leshi067

>>> Chet Atkins & Les Paul in my Blog <<<

DOWNLOAD: