Tags
Language
Tags

Claudio Arrau, Staatskapelle Dresden, Sir Colin Davis - Beethoven: Piano Concerto No. 5 (1986)

Posted By:
Claudio Arrau, Staatskapelle Dresden, Sir Colin Davis - Beethoven: Piano Concerto No. 5 (1986)

Claudio Arrau, Staatskapelle Dresden, Sir Colin Davis - Beethoven: Piano Concerto No. 5 (1986)
EAC | FLAC (image+.cue, log) | Covers Included | 40:37 | 176 MB
Genre: Classical | Label: Philips | Catalog: 416215

Arrau's "Emperor" reveals more angst in the first movement development than most other performances, giving the whole work an added depth of feeling. Some listeners may prefer greater general liveliness, especially in the finale, but I find the approach wholly convincing in scale and so beautifully executed as to silence criticism. Technically speaking, these performances always sounded marvelous, and they still do. Unforgettably grand. – David Hurwitz

Claudio Arrau, Staatskapelle Dresden, Sir Colin Davis - Beethoven: Piano Concerto No. 5 (1986)

Track List:

01. Klavierkonzert No 5 Es-dur op. 73 "Emperor": 1. Allegro [0:21:03.00]
02. Klavierkonzert No 5 Es-dur op. 73 "Emperor": 2. Adagio un poco mosso [0:08:27.46]
03. Klavierkonzert No 5 Es-dur op. 73 "Emperor": 3. Rondo (Allegro) [0:11:07.53]

Performers:
Claudio Arrau - piano
Staatskapelle Dresden
Sir Colin Davis - conductor

Exact Audio Copy V1.0 beta 3 from 29. August 2011

Journal d'extraction EAC depuis 27. Octobre 2012, 15:15

Claudio Arrau / Beethoven - Piano Concerto No.5

Lecteur utilisé : HL-DT-STDVD-RW_GSA-H11N Adapter: 0 ID: 0

Mode lecture : : Vérouiller
Utiliser flux précis : Oui
Vider le cache audio : Non
Utiliser les pointeurs C2 : Oui

Correction offset écriture : : 667
Lecture étendue en lead-in et lead-out : Non
Remplacer les samples manquants par du silence : Oui
Effacer les blocs silencieux situés en début et fin : Non
Échantillons null utilisés dans les calculs CRC : Oui
Interface utilisée : Interface native Win32 pour Win NT & 2000

Format de sortie utilisé : : Encodeur défini par l'utilisateur
Débit choisi : 768 kBit/s
Qualité : Haut
Ajouter ID3 tag : Non
Ligne de commande du compresseur : C:\Program Files\Exact Audio Copy\FLAC\FLAC.EXE
Options de commande additionnelle : : -6 -V -T "ARTIST=%artist%" -T "TITLE=%title%" -T "ALBUM=%albumtitle%" -T "DATE=%year%" -T "TRACKNUMBER=%tracknr%" -T "GENRE=%genre%" -T "COMMENT=%comment%" -T "BAND=%albuminterpret%" -T "ALBUMARTIST=%albuminterpret%" -T "COMPOSER=%composer%" %haslyrics%–tag-from-file=LYRICS="%lyricsfile%"%haslyrics% -T "DISCNUMBER=%cdnumber%" -T "TOTALDISCS=%totalcds%" -T "TOTALTRACKS=%numtracks%" %hascover%–picture="%coverfile%"%hascover% %source% -o %dest%


TOC du CD extrait

Track | Démarrer | Longueur | Secteur de début | Secteur de fin
––––––––––––––––––––––––––––––––-
1 | 0:00.33 | 21:03.00 | 33 | 94757
2 | 21:03.33 | 8:27.35 | 94758 | 132817
3 | 29:30.68 | 11:07.40 | 132818 | 182882


Propriétés États et Erreurs

Gammes sélectionnées

Nom fichier G:\MUSIQUE S 2\ZZZ-MES_RIPS\Claudio Arrau - Beethoven - Piano Concerto No.5.wav

Niveau max 98.1 %
Vitesse d'extraction 25.9 X
qualité intervalle 99.9 %
Copie CRC 718CBF27
Copie Ok

Pas d'erreur apparue


Résumé AccurateRip

Piste 1 extrait avec exactitude (confiance 8) [681283FD] (AR v2)
Piste 2 extrait avec exactitude (confiance 9) [EBD94BB9] (AR v2)
Piste 3 extrait avec exactitude (confiance 7) [0ED9C5A2] (AR v2)

Toutes pistes extraites exactement

Fin du rapport d'état

Thanks to the Original ripper (unknown)!

Welcome to my blog!

Download: