Subcategories

Count Basie - Live at the Sands 1966 (Before Frank) (1998) [MFSL Remastered 2013] Audio CD Layer

Posted By: Designol
Count Basie - Live at the Sands 1966 (Before Frank) (1998) [MFSL Remastered 2013] Audio CD Layer

Count Basie - Live at the Sands (Before Frank) (1998) [MFSL Remastered 2013]
EAC | FLAC | Tracks (Cue&Log) ~ 323 Mb | Mp3 (CBR320) ~ 135 Mb | Scans included
Jazz, Big Band, Swing | Label: Mobile Fidelity Sound Lab | # UDSACD 2113 | 00:53:03

Count Basie and Frank Sinatra had the perfect arrangement at the Sands. Before the Chairman hit the stage in Vegas, Count Basie and his big band warmed up the already enthusiastic crowd with a brief set of their own. A dynamite entertainer, the legendary leader causes hearts to race, hips to shake, and fingers to snap with high-energy readings of his trademark swing music, taken to feverish heights by both his first-rate orchestra and the incredibly swank setting. Fortunately, the finest of Basie and Co.’s introductory performances from the historic 1966 dates have been preserved here and serve as a seminal complement to Sinatra’s iconic Live at the Sands.

Mastered from the original master tapes, our hybrid SACD version of Live at the Sands (Before Frank) gives you a dead-center, eighth-row seat at the famed Sin City club. You’ll just need to supply your own table and cocktail. Renowned for its sonic clarity, transparency, crispness, and punch, the record is now tremendously enhanced, with improved tonality, a deeper soundstage, correct balances, and lifelike presence. Each horn occupies its own space, and Basie’s transfixing piano—a focal point throughout—resonates with gorgeous detail and impeccable pacing. The collective’s energy almost demands to be measured with an SPL meter.

Captured in late January and early February 1966, Live at the Sands (Before Frank) contains most of Basie’s signature pieces delivered with an enthusiasm, style, and brassiness that exceed that gracing nearly any of the Count’s studio efforts. His band is stacked to the nines, with tenor saxophonist Eddie “Lockjaw” Davis, saxophonist/flautist Eric Dixon, and drummer “Sonny” Payne among the prized cast. The Sands dates marked the first time in years that these players, as well as trombonist Al Grey, gathered onstage together.

Encouraged by Basie, the instrumentalists engage in a series of call-and-response passages and standout solos, not the least of which is Davis’ turn on a white-hot “Jumpin’ at the Woodside” and he and Dixon’s exchanges on “This Could Be the Start of Something Big.” No slouch, Basie approaches “Makin’ Whoopee” with graceful playfulness, and oversees the assortment of uptempo swing numbers and mellow ballads with astute melodicism. A sublime version of the Don Gibson country standard “I Can’t Stop Loving You,” arranged by Quincy Jones, can almost be considered a bonus.

No, it don’t mean a thing if it ain’t got that swing. And Basie and his mates have plenty of it on this superb outing. Big-band jazz seldom enjoyed such levels of rhythmic precision, expert charts, or unfettered joy. Unbelievably, this gem has been out of print for years, with original copies both on vinyl and CD commanding steep prices. our reissue restores not only the sonics but the record’s place in jazz history.

Frank Sinatra's collaborations with Count Basie were among the singer's better ventures back into jazz in the early 1960s, and led not only to a couple of great studio albums, and one superb live Sinatra album, but also to Basie's being signed to the Sinatra-founded Reprise label in the mid-'60s. The 53 minutes of music captured on Live at the Sands was recorded during the opening sets from three different shows in late January and early February of 1966, by Basie and his band during the engagement with Sinatra at the Sands Hotel that yielded that live Sinatra album. Maybe that raises the expectations, because this release is a slight disappointment – the band sounds OK, but except for Basie himself and drummer Sonny Payne, it seems like they're walking their way through some of this repertoire. There are a number of good moments here: "I Needs to Be Bee'd With," "Flight of the Foo Birds," "Satin Doll," "Blues for Home," and "This Could Be the Start of Something Big" (which is worth hearing for the ensemble work and Eric Dixon and Eddie "Lockjaw" Davis' solos); the band finally takes flight, but compared with some of the recordings of complete shows by Basie that are nothing less than great, a lot of this is secondary. Given the fact that it was Sinatra's set that was going to be taped for release for certain, the band may, indeed, have been holding back during its own set, for good reason. Even the audience response says it, positive and polite but not excessive – they were there for Sinatra, and nothing Basie and company did were likely to bowl them over, so why make the effort? It's not a bad set, and some of it – "Makin' Whoopee" (especially the call and response on the piano), "Corner Pocket," and "Jumpin' at the Woodside" – has great appeal. But this is overall a legendary band doing a somewhat less-than-legendary set, during some gigs that, in fairness, yielded up a great live album elsewhere. The quality is solid live sound, in crisp stereo from a nicely controlled mid-'60s venue, using state-of-the-art equipment.

Review by Bruce Eder, Allmusic.com

The mid-'60s are regarded as a creative low point for the Count Basie Orchestra, but this live recording proves that the Basie band was as stylish and swingin' as ever in 1966, though fewer folks were paying attention. Recorded during a week-long stint at the Las Vegas Sands Hotel, this release compiles material from the band's opening sets prior to their performances with the main attraction that week, Frank Sinatra.

Live at the Sands serves as an excellent Basie sampler, in part because it offers many of the band's best-known tunes, including "Splanky," "Corner Pocket," "Jumpin' at the Woodside," and a spare version of "One O'Clock Jump," Basie's signature song. There are also a few graceful ballads, making this a well-rounded collection.

By itself, Quincy Jones' arrangement of "I Can't Stop Loving You" makes this CD worth the price. It's simply the best instrumental version of Don Gibson's country classic I have heard, and it may be the best version period. When those killer horns top off the chorus with a breathy flourish, it's one of those sublime touches that separates great music from the ordinary.

The performances at the Sands are also notable because they marked the return of three of Basie's best-known sidemen: trombonist Al Grey, tenor saxman Eddie "Lockjaw" Davis, and drummer Sonny Payne. All three are featured prominently here, and they really deliver the goods. Grey's muted trombone leads the way on a mellow version of "Makin' Whoopee!," while Davis has several moments in the spotlight, including an extended solo on "Jumpin' at the Woodside," the CD's smoker.

Duke Ellington once credited Basie for having the best rhythm section in jazz. A great swing drummer has always sat at the heart of his orchestra, be he Philly Jo Jones, Rufus "Speedy" Jones, or Butch Miles, the band's current skins man. The flamboyant Sonny Payne rates with Basie's best, and on Live at the Sands he helps drive this music with his relentless swaying tempos.

William "Count" Basie had an unparalleled talent for stripping tunes down to their swinging essence. To this day, no big band swings with more riffing intensity and rhythmic precision. Young people who are into the Squirrel Nut Zippers, the Cherry Poppin' Daddies, or other pseudo jazz outfits simply must check out the swingingest music machine the world has yet seen, the Count Basie Orchestra. Live at the Sands serves an excellent introduction.

Review by Ed Kopp, AllAboutJazz.com

Count Basie - Live at the Sands 1966 (Before Frank) (1998) [MFSL Remastered 2013] Audio CD Layer




William "Count" Basie - piano
Al Aarons, George "Sonny" Cohn, Wallace Davenport, Phil Guilbeau - trumpets
Henderson Chambers, Al Grey, Grover Mitchell - trombones
Bill Hughes - bass trombone
Marshal Royal - clarinet, alto saxophone
Bobby Plater - flute, tenor saxophone
Eddie "Lockjaw" Davis - tenor saxophone
Charlie Fowlkes - flute, baritone saxophone
Freddie Green - guitar
Norman Keenan - bass
Percival "Sonny" Payne - drums
Quincy Jones - arranger, conductor

Recorded January 26-29 & February 1, 1966 in the Copa Room, Sands Hotel, Las Vegas
Original sessions produced by Sonny Burke and recorded by Lowell Frank.

Tracklist:

01. Introduction (0:49)
02. Splanky (3:53)
03. I Can't Stop Loving You (3:41)
04. I Needs to Be Bee'd With (3:52)
05. Flight of the Foo Birds (3:08)
06. Satin Doll (3:59)
07. Makin' Whoopee! (4:21)
08. Corner Pocket (5:33)
09. One O'Clock Jump (2:19)
10. Go Away Little Girl (3:30)
11. Whirly Bird (5:11)
12. Blues for Ilene (6:03)
13. This Could Be the Start of Something Big (3:10)
14. Jumpin' at the Woodside (3:35)


Exact Audio Copy V1.3 from 2. September 2016

EAC extraction logfile from 11. July 2017, 13:36

Count Basie / Live At The Sands (Before Frank) (2013 MFSL)

Used drive : PLEXTOR CD-R PREMIUM Adapter: 1 ID: 1

Read mode : Secure
Utilize accurate stream : Yes
Defeat audio cache : Yes
Make use of C2 pointers : No

Read offset correction : 30
Overread into Lead-In and Lead-Out : No
Fill up missing offset samples with silence : Yes
Delete leading and trailing silent blocks : No
Null samples used in CRC calculations : Yes
Used interface : Native Win32 interface for Win NT & 2000
Gap handling : Appended to previous track

Used output format : User Defined Encoder
Selected bitrate : 768 kBit/s
Quality : High
Add ID3 tag : No
Command line compressor : C:\Program Files (x86)\Exact Audio Copy\FLAC\FLAC.EXE
Additional command line options : -6 -e -p -V -T "ARTIST=%artist%" -T "TITLE=%title%" -T "ALBUM=%albumtitle%" -T "DATE=%year%" -T "TRACKNUMBER=%tracknr%" -T "GENRE=%genre%" -T "PERFORMER=%albuminterpret%" -T "COMPOSER=%composer%" %haslyrics%–tag-from-file=LYRICS="%lyricsfile%"%haslyrics% -T "ALBUMARTIST=%albumartist%" -T "DISCNUMBER=%cdnumber%" -T "TOTALDISCS=%totalcds%" -T "TOTALTRACKS=%numtracks%" -T "COMMENT=%comment%" %source% -o %dest%


TOC of the extracted CD

Track | Start | Length | Start sector | End sector
––––––––––––––––––––––––––––-
1 | 0:00.00 | 0:49.11 | 0 | 3685
2 | 0:49.11 | 3:52.40 | 3686 | 21125
3 | 4:41.51 | 3:40.73 | 21126 | 37698
4 | 8:22.49 | 3:51.40 | 37699 | 55063
5 | 12:14.14 | 3:08.08 | 55064 | 69171
6 | 15:22.22 | 3:59.27 | 69172 | 87123
7 | 19:21.49 | 4:21.09 | 87124 | 106707
8 | 23:42.58 | 5:33.22 | 106708 | 131704
9 | 29:16.05 | 2:18.62 | 131705 | 142116
10 | 31:34.67 | 3:29.66 | 142117 | 157857
11 | 35:04.58 | 5:10.57 | 157858 | 181164
12 | 40:15.40 | 6:03.05 | 181165 | 208394
13 | 46:18.45 | 3:09.57 | 208395 | 222626
14 | 49:28.27 | 3:35.03 | 222627 | 238754


Track 1

Filename C:\tmp\00_RIPS\01 - Introduction.wav

Pre-gap length 0:00:02.00

Peak level 50.9 %
Extraction speed 4.6 X
Track quality 99.7 %
Test CRC 5CD7701A
Copy CRC 5CD7701A
Accurately ripped (confidence 18) [73C8A643] (AR v2)
Copy OK

Track 2

Filename C:\tmp\00_RIPS\02 - Splanky.wav

Pre-gap length 0:00:01.16

Peak level 87.6 %
Extraction speed 8.8 X
Track quality 100.0 %
Test CRC 1A3811DE
Copy CRC 1A3811DE
Accurately ripped (confidence 19) [28612D36] (AR v2)
Copy OK

Track 3

Filename C:\tmp\00_RIPS\03 - I Can't Stop Loving You.wav

Pre-gap length 0:00:04.17

Peak level 91.2 %
Extraction speed 9.6 X
Track quality 100.0 %
Test CRC EDF7D21F
Copy CRC EDF7D21F
Accurately ripped (confidence 19) [C3D6A4BD] (AR v2)
Copy OK

Track 4

Filename C:\tmp\00_RIPS\04 - I Needs To Be Bee'd With.wav

Pre-gap length 0:00:07.52

Peak level 93.7 %
Extraction speed 10.3 X
Track quality 100.0 %
Test CRC 09119798
Copy CRC 09119798
Accurately ripped (confidence 19) [B0CE23BE] (AR v2)
Copy OK

Track 5

Filename C:\tmp\00_RIPS\05 - Flight Of The Foo Birds.wav

Pre-gap length 0:00:04.92

Peak level 94.8 %
Extraction speed 10.8 X
Track quality 100.0 %
Test CRC 93BC824A
Copy CRC 93BC824A
Accurately ripped (confidence 19) [AE00BE75] (AR v2)
Copy OK

Track 6

Filename C:\tmp\00_RIPS\06 - Satin Doll.wav

Pre-gap length 0:00:03.88

Peak level 92.6 %
Extraction speed 9.9 X
Track quality 99.9 %
Test CRC B432D62B
Copy CRC B432D62B
Accurately ripped (confidence 19) [056F23E9] (AR v2)
Copy OK

Track 7

Filename C:\tmp\00_RIPS\07 - Makin' Whoopee.wav

Peak level 93.3 %
Extraction speed 12.2 X
Track quality 100.0 %
Test CRC 1210F502
Copy CRC 1210F502
Accurately ripped (confidence 19) [C9718437] (AR v2)
Copy OK

Track 8

Filename C:\tmp\00_RIPS\08 - Corner Pocket.wav

Pre-gap length 0:00:01.74

Peak level 94.5 %
Extraction speed 11.5 X
Track quality 99.9 %
Test CRC C3CFEB4B
Copy CRC C3CFEB4B
Accurately ripped (confidence 19) [0C74C55A] (AR v2)
Copy OK

Track 9

Filename C:\tmp\00_RIPS\09 - One O'Clock Jump.wav

Pre-gap length 0:00:08.09

Peak level 88.2 %
Extraction speed 12.8 X
Track quality 100.0 %
Test CRC E28F9681
Copy CRC E28F9681
Accurately ripped (confidence 19) [224EF677] (AR v2)
Copy OK

Track 10

Filename C:\tmp\00_RIPS\10 - Hello Little Girl.wav

Pre-gap length 0:00:08.16

Peak level 85.9 %
Extraction speed 13.5 X
Track quality 100.0 %
Test CRC 170A5761
Copy CRC 170A5761
Accurately ripped (confidence 19) [3A2D8B3B] (AR v2)
Copy OK

Track 11

Filename C:\tmp\00_RIPS\11 - Whirlybird.wav

Pre-gap length 0:00:07.18

Peak level 99.2 %
Extraction speed 12.6 X
Track quality 99.9 %
Test CRC A0F69758
Copy CRC A0F69758
Accurately ripped (confidence 19) [AFAF07A3] (AR v2)
Copy OK

Track 12

Filename C:\tmp\00_RIPS\12 - Blues For Ilene.wav

Pre-gap length 0:00:09.33

Peak level 91.6 %
Extraction speed 15.2 X
Track quality 100.0 %
Test CRC B5DFA586
Copy CRC B5DFA586
Accurately ripped (confidence 19) [3709552B] (AR v2)
Copy OK

Track 13

Filename C:\tmp\00_RIPS\13 - This Could Be The Start Of Something Big.wav

Pre-gap length 0:00:08.25

Peak level 98.7 %
Extraction speed 15.1 X
Track quality 100.0 %
Test CRC 7FF99C03
Copy CRC 7FF99C03
Accurately ripped (confidence 19) [129C2D2C] (AR v2)
Copy OK

Track 14

Filename C:\tmp\00_RIPS\14 - Jumpin' At The Woodside.wav

Pre-gap length 0:00:08.50

Peak level 99.1 %
Extraction speed 13.2 X
Track quality 100.0 %
Test CRC A28FCF4A
Copy CRC A28FCF4A
Accurately ripped (confidence 19) [C1C05604] (AR v2)
Copy OK


All tracks accurately ripped

No errors occurred

End of status report

–– CUETools DB Plugin V2.1.6

[CTDB TOCID: hwBMsIo1D0qjaI8tv8tA0u5zYms-] found
Submit result: hwBMsIo1D0qjaI8tv8tA0u5zYms- has been confirmed
Track | CTDB Status
1 | (18/18) Accurately ripped
2 | (18/18) Accurately ripped
3 | (18/18) Accurately ripped
4 | (18/18) Accurately ripped
5 | (18/18) Accurately ripped
6 | (18/18) Accurately ripped
7 | (18/18) Accurately ripped
8 | (18/18) Accurately ripped
9 | (18/18) Accurately ripped
10 | (18/18) Accurately ripped
11 | (18/18) Accurately ripped
12 | (18/18) Accurately ripped
13 | (18/18) Accurately ripped
14 | (18/18) Accurately ripped


==== Log checksum D0ED503EA920D9EB76C32A4C99BBA033DF9A929241A5DC1B6101FE4B06F6406E ====

foobar2000 1.2 / Dynamic Range Meter 1.1.1
log date: 2017-07-26 20:42:35

––––––––––––––––––––––––––––––––––––––––
Analyzed: Count Basie / Live at the Sands (Before Frank)
––––––––––––––––––––––––––––––––––––––––

DR Peak RMS Duration Track
––––––––––––––––––––––––––––––––––––––––
DR15 -5.87 dB -24.29 dB 0:49 01-Introduction
DR12 -1.15 dB -16.47 dB 3:53 02-Splanky
DR11 -0.79 dB -13.99 dB 3:41 03-I Can't Stop Loving You
DR11 -0.56 dB -14.59 dB 3:52 04-I Needs to Be Bee'd With
DR12 -0.46 dB -15.22 dB 3:08 05-Flight of the Foo Birds
DR12 -0.66 dB -15.87 dB 3:59 06-Satin Doll
DR13 -0.60 dB -16.87 dB 4:21 07-Makin' Whoopee!
DR11 -0.48 dB -13.91 dB 5:33 08-Corner Pocket
DR12 -1.09 dB -16.86 dB 2:19 09-One O'Clock Jump
DR13 -1.31 dB -18.01 dB 3:30 10-Go Away Little Girl
DR10 -0.06 dB -12.94 dB 5:11 11-Whirly Bird
DR12 -0.76 dB -15.88 dB 6:03 12-Blues for Ilene
DR12 -0.11 dB -14.46 dB 3:10 13-This Could Be the Start of Something Big
DR8 -0.08 dB -11.43 dB 3:35 14-Jumpin' at the Woodside
––––––––––––––––––––––––––––––––––––––––

Number of tracks: 14
Official DR value: DR12

Samplerate: 44100 Hz
Channels: 2
Bits per sample: 16
Bitrate: 884 kbps
Codec: FLAC
================================================================================

Count Basie - Live at the Sands 1966 (Before Frank) (1998) [MFSL Remastered 2013] Audio CD Layer

Count Basie - Live at the Sands 1966 (Before Frank) (1998) [MFSL Remastered 2013] Audio CD Layer


All thanks to original releaser - mclarenspy

More interesting music in My Blog