Subcategories
Tags
Language
Tags

Counting Crows - August And Everything After: Live At Town Hall (2011) [Blu-ray & DVD-9]

Posted By: v3122
Counting Crows - August And Everything After: Live At Town Hall (2011) [Blu-ray & DVD-9]

Counting Crows - August And Everything After: Live At Town Hall (2011)
Blu-ray: MPEG-4 AVC 1080i, 29,970 fps, 16:9, High Profile 4.1
LPCM 2.0, 48 kHz / DD 5.1, 640 kbps / DTS-HD MA 5.1, 48 kHz, 24-bit
DVD-9: NTSC 16:9 (720x480) VBR | Dolby AC3, 2 & 6 ch / DTS, 6 ch
Alternative Rock, Indie Rock | 01:17:33+00:40:48 | ~ 23.88 or 7.12 Gb

~ The live concert was recorded at Town Hall in New York City on September 18, 2007 ~

Counting Crows - August And Everything After: Live At Town Hall (2011):

Tracklist:

01. Round Here / Raining In Baltimore
02. Omaha
03. Mr. Jones
04. Introduction To Perfect Blue Buildings
05. Perfect Blue Buildings
06. Anna Begins
07. Time And Time Again
08. Rain King
09. Introduction To Sullivan Street
10. Sullivan Street
11. Ghost Train
12. A Murder Of One

Bonus feature:
- Interview: “In Depth With Adam Gurvitz & Charlie Gillingham”

Disc Label: Counting Crows 2011 - August And Everything After BD
Disc Size: 24,949,247,276 bytes
Protection: AACS
BDInfo: 0.7.5.5

Notes:

BDINFO HOME:
Cinema Squid (old)
http://www.cinemasquid.com/blu-ray/tools/bdinfo
UniqProject GitHub (new)
https://github.com/UniqProject/BDInfo

INCLUDES FORUMS REPORT FOR:
AVS Forum Blu-ray Audio and Video Specifications Thread
http://www.avsforum.com/avs-vb/showthread.php?t=1155731

WARNING: Report is incomplete because: Scan has not been run.

********************
PLAYLIST: 00002.MPLS
********************

<–- BEGIN FORUMS PASTE –->
                                                                                                                Total   Video                                             
Title                                                           Codec   Length  Movie Size      Disc Size       Bitrate Bitrate Main Audio Track                          Secondary Audio Track
-----                                                           ------  ------- --------------  --------------  ------- ------- ------------------                        ---------------------
00002.MPLS                                                      AVC     1:17:33 0               24,949,247,276  0.00    0.00    LPCM 2.0 2304Kbps (48kHz/24-bit)          DD AC3 5.1 640Kbps


DISC INFO:

Disc Label:     Counting Crows 2011 - August And Everything After BD
Disc Size:      24,949,247,276 bytes
Protection:     AACS
BDInfo:         0.7.5.5

PLAYLIST REPORT:

Name:                   00002.MPLS
Length:                 1:17:33.081 (h:m:s.ms)
Size:                   0 bytes
Total Bitrate:          0.00 Mbps

VIDEO:

Codec                   Bitrate             Description     
-----                   -------             -----------     
MPEG-4 AVC Video        0 kbps              1080i / 29.970 fps / 16:9 / High Profile 4.1

AUDIO:

Codec                           Language        Bitrate         Description     
-----                           --------        -------         -----------     
LPCM Audio                      English         2304 kbps       2.0 / 48 kHz /  2304 kbps / 24-bit
Dolby Digital Audio             English         640 kbps        5.1 / 48 kHz /   640 kbps / DN -31dB
DTS-HD Master Audio             English         0 kbps          5.1 / 48 kHz / 24-bit (DTS Core: 5.1 / 48 kHz /  1509 kbps / 24-bit)

FILES:

Name            Time In         Length          Size            Total Bitrate   
----            -------         ------          ----            -------------   
00003.M2TS      0:00:00.000     1:17:33.081     0               0               

CHAPTERS:

Number          Time In         Length          Avg Video Rate  Max 1-Sec Rate  Max 1-Sec Time  Max 5-Sec Rate  Max 5-Sec Time  Max 10Sec Rate  Max 10Sec Time  Avg Frame Size  Max Frame Size  Max Frame Time  
------          -------         ------          --------------  --------------  --------------  --------------  --------------  --------------  --------------  --------------  --------------  --------------  
1               0:00:00.000     0:11:42.568     0 kbps          0 kbps          00:00:00.000    0 kbps          00:00:00.000    0 kbps          00:00:00.000    0 bytes         0 bytes         00:00:00.000    
2               0:11:42.568     0:03:43.423     0 kbps          0 kbps          00:00:00.000    0 kbps          00:00:00.000    0 kbps          00:00:00.000    0 bytes         0 bytes         00:00:00.000    
3               0:15:25.991     0:07:35.421     0 kbps          0 kbps          00:00:00.000    0 kbps          00:00:00.000    0 kbps          00:00:00.000    0 bytes         0 bytes         00:00:00.000    
4               0:23:01.413     0:05:01.534     0 kbps          0 kbps          00:00:00.000    0 kbps          00:00:00.000    0 kbps          00:00:00.000    0 bytes         0 bytes         00:00:00.000    
5               0:28:02.947     0:05:33.900     0 kbps          0 kbps          00:00:00.000    0 kbps          00:00:00.000    0 kbps          00:00:00.000    0 bytes         0 bytes         00:00:00.000    
6               0:33:36.848     0:05:51.117     0 kbps          0 kbps          00:00:00.000    0 kbps          00:00:00.000    0 kbps          00:00:00.000    0 bytes         0 bytes         00:00:00.000    
7               0:39:27.965     0:08:30.309     0 kbps          0 kbps          00:00:00.000    0 kbps          00:00:00.000    0 kbps          00:00:00.000    0 bytes         0 bytes         00:00:00.000    
8               0:47:58.275     0:11:34.060     0 kbps          0 kbps          00:00:00.000    0 kbps          00:00:00.000    0 kbps          00:00:00.000    0 bytes         0 bytes         00:00:00.000    
9               0:59:32.335     0:05:56.656     0 kbps          0 kbps          00:00:00.000    0 kbps          00:00:00.000    0 kbps          00:00:00.000    0 bytes         0 bytes         00:00:00.000    
10              1:05:28.991     0:12:04.090     0 kbps          0 kbps          00:00:00.000    0 kbps          00:00:00.000    0 kbps          00:00:00.000    0 bytes         0 bytes         00:00:00.000    

STREAM DIAGNOSTICS:

File            PID             Type            Codec           Language                Seconds                 Bitrate                 Bytes           Packets         
----            ---             ----            -----           --------                --------------          --------------          -------------   -----           
00003.M2TS      4113 (0x1011)   0x1B            AVC                                     0                       0                       0               0               
00003.M2TS      4352 (0x1100)   0x80            LPCM            eng (English)           0                       0                       0               0               
00003.M2TS      4353 (0x1101)   0x81            AC3             eng (English)           0                       0                       0               0               
00003.M2TS      4354 (0x1102)   0x86            DTS-HD MA       eng (English)           0                       0                       0               0               

<–– END FORUMS PASTE ––>

QUICK SUMMARY:

Disc Label: Counting Crows 2011 - August And Everything After BD
Disc Size: 24,949,247,276 bytes
Protection: AACS
Playlist: 00002.MPLS
Size: 0 bytes
Length: 1:17:33.081
Total Bitrate: 0.00 Mbps
Video: MPEG-4 AVC Video / 0 kbps / 1080i / 29.970 fps / 16:9 / High Profile 4.1
Audio: English / LPCM Audio / 2.0 / 48 kHz / 2304 kbps / 24-bit
Audio: English / Dolby Digital Audio / 5.1 / 48 kHz / 640 kbps / DN -31dB
Audio: English / DTS-HD Master Audio / 5.1 / 48 kHz / 24-bit (DTS Core: 5.1 / 48 kHz / 1509 kbps / 24-bit)


********************
PLAYLIST: 00003.MPLS
********************

<–- BEGIN FORUMS PASTE –->
                                                                                                                Total   Video                                             
Title                                                           Codec   Length  Movie Size      Disc Size       Bitrate Bitrate Main Audio Track                          Secondary Audio Track
-----                                                           ------  ------- --------------  --------------  ------- ------- ------------------                        ---------------------
00003.MPLS                                                      AVC     0:40:48 0               24,949,247,276  0.00    0.00    LPCM 2.0 2304Kbps (48kHz/24-bit)          


DISC INFO:

Disc Label:     Counting Crows 2011 - August And Everything After BD
Disc Size:      24,949,247,276 bytes
Protection:     AACS
BDInfo:         0.7.5.5

PLAYLIST REPORT:

Name:                   00003.MPLS
Length:                 0:40:48.212 (h:m:s.ms)
Size:                   0 bytes
Total Bitrate:          0.00 Mbps

VIDEO:

Codec                   Bitrate             Description     
-----                   -------             -----------     
MPEG-4 AVC Video        0 kbps              1080i / 29.970 fps / 16:9 / High Profile 4.1

AUDIO:

Codec                           Language        Bitrate         Description     
-----                           --------        -------         -----------     
LPCM Audio                      English         2304 kbps       2.0 / 48 kHz /  2304 kbps / 24-bit

SUBTITLES:

Codec                           Language        Bitrate         Description     
-----                           --------        -------         -----------     
Presentation Graphics           English         0.000 kbps                      
Presentation Graphics           German          0.000 kbps                      
Presentation Graphics           Spanish         0.000 kbps                      
Presentation Graphics           French          0.000 kbps                      

FILES:

Name            Time In         Length          Size            Total Bitrate   
----            -------         ------          ----            -------------   
00004.M2TS      0:00:00.000     0:40:48.212     0               0               

CHAPTERS:

Number          Time In         Length          Avg Video Rate  Max 1-Sec Rate  Max 1-Sec Time  Max 5-Sec Rate  Max 5-Sec Time  Max 10Sec Rate  Max 10Sec Time  Avg Frame Size  Max Frame Size  Max Frame Time  
------          -------         ------          --------------  --------------  --------------  --------------  --------------  --------------  --------------  --------------  --------------  --------------  
1               0:00:00.000     0:04:25.298     0 kbps          0 kbps          00:00:00.000    0 kbps          00:00:00.000    0 kbps          00:00:00.000    0 bytes         0 bytes         00:00:00.000    
2               0:04:25.298     0:06:55.047     0 kbps          0 kbps          00:00:00.000    0 kbps          00:00:00.000    0 kbps          00:00:00.000    0 bytes         0 bytes         00:00:00.000    
3               0:11:20.346     0:01:11.604     0 kbps          0 kbps          00:00:00.000    0 kbps          00:00:00.000    0 kbps          00:00:00.000    0 bytes         0 bytes         00:00:00.000    
4               0:12:31.951     0:00:47.414     0 kbps          0 kbps          00:00:00.000    0 kbps          00:00:00.000    0 kbps          00:00:00.000    0 bytes         0 bytes         00:00:00.000    
5               0:13:19.365     0:03:42.589     0 kbps          0 kbps          00:00:00.000    0 kbps          00:00:00.000    0 kbps          00:00:00.000    0 bytes         0 bytes         00:00:00.000    
6               0:17:01.954     0:05:28.728     0 kbps          0 kbps          00:00:00.000    0 kbps          00:00:00.000    0 kbps          00:00:00.000    0 bytes         0 bytes         00:00:00.000    
7               0:22:30.682     0:12:59.111     0 kbps          0 kbps          00:00:00.000    0 kbps          00:00:00.000    0 kbps          00:00:00.000    0 bytes         0 bytes         00:00:00.000    
8               0:35:29.794     0:05:18.418     0 kbps          0 kbps          00:00:00.000    0 kbps          00:00:00.000    0 kbps          00:00:00.000    0 bytes         0 bytes         00:00:00.000    

STREAM DIAGNOSTICS:

File            PID             Type            Codec           Language                Seconds                 Bitrate                 Bytes           Packets         
----            ---             ----            -----           --------                --------------          --------------          -------------   -----           
00004.M2TS      4113 (0x1011)   0x1B            AVC                                     0                       0                       0               0               
00004.M2TS      4352 (0x1100)   0x80            LPCM            eng (English)           0                       0                       0               0               
00004.M2TS      4608 (0x1200)   0x90            PGS             eng (English)           0                       0                       0               0               
00004.M2TS      4609 (0x1201)   0x90            PGS             deu (German)            0                       0                       0               0               
00004.M2TS      4610 (0x1202)   0x90            PGS             spa (Spanish)           0                       0                       0               0               
00004.M2TS      4611 (0x1203)   0x90            PGS             fra (French)            0                       0                       0               0               

<–– END FORUMS PASTE ––>

QUICK SUMMARY:

Disc Label: Counting Crows 2011 - August And Everything After BD
Disc Size: 24,949,247,276 bytes
Protection: AACS
Playlist: 00003.MPLS
Size: 0 bytes
Length: 0:40:48.212
Total Bitrate: 0.00 Mbps
Video: MPEG-4 AVC Video / 0 kbps / 1080i / 29.970 fps / 16:9 / High Profile 4.1
Audio: English / LPCM Audio / 2.0 / 48 kHz / 2304 kbps / 24-bit
Subtitle: English / 0.000 kbps
Subtitle: German / 0.000 kbps
Subtitle: Spanish / 0.000 kbps
Subtitle: French / 0.000 kbps


********************
PLAYLIST: 00001.MPLS
********************

<–- BEGIN FORUMS PASTE –->
                                                                                                                Total   Video                                             
Title                                                           Codec   Length  Movie Size      Disc Size       Bitrate Bitrate Main Audio Track                          Secondary Audio Track
-----                                                           ------  ------- --------------  --------------  ------- ------- ------------------                        ---------------------
00001.MPLS                                                      AVC     0:00:20 0               24,949,247,276  0.00    0.00                                              


DISC INFO:

Disc Label:     Counting Crows 2011 - August And Everything After BD
Disc Size:      24,949,247,276 bytes
Protection:     AACS
BDInfo:         0.7.5.5

PLAYLIST REPORT:

Name:                   00001.MPLS
Length:                 0:00:20.019 (h:m:s.ms)
Size:                   0 bytes
Total Bitrate:       			  		  		  	 			   		  	   		  		  		 		   	 			   		 		   			     	 			   		   	  		   	  			   			    0.00 Mbps

VIDEO:

Codec                   Bitrate             Description     
-----                   -------             -----------     
MPEG-4 AVC Video        0 kbps              1080i / 29.970 fps / 16:9 / High Profile 4.1

FILES:

Name            Time In         Length          Size            Total Bitrate   
----            -------         ------          ----            -------------   
00001.M2TS      0:00:00.000     0:00:10.009     0               0               
00002.M2TS      0:00:10.009     0:00:10.009     0               0               

CHAPTERS:

Number          Time In         Length          Avg Video Rate  Max 1-Sec Rate  Max 1-Sec Time  Max 5-Sec Rate  Max 5-Sec Time  Max 10Sec Rate  Max 10Sec Time  Avg Frame Size  Max Frame Size  Max Frame Time  
------          -------         ------          --------------  --------------  --------------  --------------  --------------  --------------  --------------  --------------  --------------  --------------  
1               0:00:00.000     0:00:20.019     0 kbps          0 kbps          00:00:00.000    0 kbps          00:00:00.000    0 kbps          00:00:00.000    0 bytes         0 bytes         00:00:00.000    

STREAM DIAGNOSTICS:

File            PID             Type            Codec           Language                Seconds                 Bitrate                 Bytes           Packets         
----            ---             ----            -----           --------                --------------          --------------          -------------   -----           
00001.M2TS      4113 (0x1011)   0x1B            AVC                                     0                       0                       0               0               
00002.M2TS      4113 (0x1011)   0x1B            AVC                                     0                       0                       0               0               

<–– END FORUMS PASTE ––>

QUICK SUMMARY:

Disc Label: Counting Crows 2011 - August And Everything After BD
Disc Size: 24,949,247,276 bytes
Protection: AACS
Playlist: 00001.MPLS
Size: 0 bytes
Length: 0:00:20.019
Total Bitrate: 0.00 Mbps
Video: MPEG-4 AVC Video / 0 kbps / 1080i / 29.970 fps / 16:9 / High Profile 4.1



Title: Counting Crows 2011 - August And Everything After DVD
Size: 6.95 Gb ( 7 284 352,00 KBytes ) - DVD-9
Enabled regions: 1, 2, 3, 4, 5, 6, 7, 8

VTS_01 :
Play Length: 01:17:30+00:00:20
Video: NTSC 16:9 (720x480) VBR, Auto Letterboxed
Audio:
English (Dolby AC3, 2 ch)
English (Dolby AC3, 6 ch)
English (DTS, 6 ch)

VTS_02 :
Play Length: 00:40:48
Video: NTSC 16:9 (720x480) VBR, Auto Letterboxed
Audio:
English (Dolby AC3, 2 ch)
Subtitles:
English
Deutsch
Espanol
Francais


Counting Crows - August And Everything After: Live At Town Hall (2011) [Blu-ray & DVD-9]

Counting Crows - August And Everything After: Live At Town Hall (2011) [Blu-ray & DVD-9]

Counting Crows - August And Everything After: Live At Town Hall (2011) [Blu-ray & DVD-9]

Counting Crows - August And Everything After: Live At Town Hall (2011) [Blu-ray & DVD-9]

Counting Crows - August And Everything After: Live At Town Hall (2011) [Blu-ray & DVD-9]

All thanks go to the original releaser

Counting Crows in my Blog

Download Counting Crows - August And Everything After: Live At Town Hall (2011):