Tags
Language
Tags
June 2024
Su Mo Tu We Th Fr Sa
26 27 28 29 30 31 1
2 3 4 5 6 7 8
9 10 11 12 13 14 15
16 17 18 19 20 21 22
23 24 25 26 27 28 29
30 1 2 3 4 5 6

Daevid Allen - Bananamoon Obscura No. 5: Daevid Allen's University Of Errors - Live In Chicago (2004)

Posted By: popsakov
Daevid Allen - Bananamoon Obscura No. 5: Daevid Allen's University Of Errors - Live In Chicago (2004)

Daevid Allen - Bananamoon Obscura No. 5: Daevid Allen's University Of Errors - Live In Chicago (2004)
EAC Rip | FLAC (Img) + Cue + Log ~ 503 Mb | MP3 CBR320 ~ 193 Mb
Full Scans | 01:04:46 | RAR 5% Recovery
Progressive Rock / Psychedelic Rock / Alternative Rock / Canterbury Scene
Voiceprint #BMOVP005CD

Official release for one time live bootleg. Daevid and the Errors in full flow, wild and rather wonderful. Tracks 1-11, 13 were recorded at Schubas, Chicago on 12th August 2000, tracks 12, 14 and 15 at the Knitting Factory, New York on August 9th 2000. These CDs are in matt black card covers with silver and white printing. This is the fifth of a 20CD series, each release a limited pressing of 1000 copies only - no more will be pressed.

Daevid Allen was one of the founders of the British progressive rock band the Soft Machine in 1966. After recording just one album with the group, he became the founder/leader of Gong, which he left in 1973 to begin a solo career (though his first solo album, Banana Moon, was released in 1971 while he was still in the group). Allen explored his quirky, folky take on rock throughout the '70s and '80s on albums like 1976's Good Morning and 1983's Alien in New York. His solo work also included collaborations with underground rock impresario Kramer like 1993's Who's Afraid? and 1996's Hit Men, which was released on Kramer's Shimmy Disc label. Allen returned in 1999 with Money Doesn't Make It, followed a year later by Stroking the Tail of the Bird. Nectans Glen also followed in 2000. In 2003 Allen formed a new version of Gong with members of the Japanese collective known as Acid Mothers Temple, as well as playing and releasing material with his California-based band University of Errors. He continues to release numerous live sets and one-off collaborations in limited editions on various independent labels under his own and various group names. A best-of, Man From Gong, which only scratches the surface of his lengthy discography, appeared from Snapper Music in 2006. After a battle with cancer, Allen died in Australia in 13 March 2015 at the age of 77.

~ William Ruhlmann, All Music

Arguably Daevid Allen's most exciting and vital project since the late '70s (with the possible exception of the Acid Motherhood Gong lineup), University of Errors has seen Gong's guru shake down his old pixie props and turn to harsher and harder-rocking material. This live document, recorded during the group's American tour in 2000, following the release of their second album, shows how raw, powerful and (still) deranged this quartet can be. The studio trickeries are replaced by gusto, pummeling rhythms, and acidic guitar lines. Allen is supported by the wonderful guitarist Josh Pollock and the heavy rhythm section of Michael Clare and Jason Mills. The set list consists mostly of a careful selection of songs off the group's first two CDs – leaving aside the trippier numbers, with the exception of the heavy floating "Memories." "Money Doesn't Make It" and "Involve Me" are given menacing renditions, while "Stoned Innocent Frankenstein" and "Ocean in the Distance" transcend their original versions. "Mystico Fanatico," already a highlight of the group's set, would make its studio debut on Ugly.music.4.monica three years later. This concert also includes a good dose of on-stage antics, including a Zappaesque "Progrock Dance Contest" (which actually sounds more surf than prog) leading into a group demolition of King Crimson's anthemic "21st Century Schizoid Man" – itself only an introduction for the early Gong tune "Fohat Digs Holes in Space," which already served as an extended-jam feature in (the Allen/Hugh Hopper/Pip Pyle project) Brainville's set a few years earlier. Sound quality is thin, but quite acceptable. Start with University of Errors' studio recordings, and if you like what you hear, by all means proceed to this fine fan-targeted document.

~ François Couture, All Music

***************

Daevid Allen - Bananamoon Obscura No. 5: Daevid Allen's University Of Errors - Live In Chicago (2004)

Daevid Allen - Bananamoon Obscura No. 5: Daevid Allen's University Of Errors - Live In Chicago (2004)

Track List:

01. Introduction/Innesfree [06:11]
02. Money Doesn't Make It [06:08]
03. Go Forth Introduction [00:44]
04. Chainstore Chant/Pretty Miss Titty [05:02]
05. Involve Me [04:50]
06. Stoned Innocent Frankenstein [04:51]
07. Iced Tea Overture [03:43]
08. Ocean in the Distance [05:45]
09. Pinky's Introduction [01:10]
10. Pinky's Party Song [03:39]
11. Mystico Fanatico [04:33]
12. Memories [03:27]
13. Prog Rock Dance Contest [02:57]
14. 21st Century Prog Rock Man [01:39]
15. Fohat Digs Holes in Space [10:14]

Personnel:
Daevid Allen - Guitar, Vocals
Michael Clare - Bass
Josh Pollock - Guitar, Megaphone, Percussion
Jason Mills - Drums

Exact Audio Copy V1.0 beta 3 from 29. August 2011

EAC extraction logfile from 7. April 2014, 23:14

Daevid Allen's University of Errors / Live in Chicago (Obscura No.5)

Used drive : PIONEER DVD-RW DVR-220RS Adapter: 0 ID: 0

Read mode : Secure
Utilize accurate stream : Yes
Defeat audio cache : Yes
Make use of C2 pointers : No

Read offset correction : 6
Overread into Lead-In and Lead-Out : No
Fill up missing offset samples with silence : Yes
Delete leading and trailing silent blocks : No
Null samples used in CRC calculations : Yes
Used interface : Native Win32 interface for Win NT & 2000

Used output format : User Defined Encoder
Selected bitrate : 128 kBit/s
Quality : High
Add ID3 tag : No
Command line compressor : C:\Program Files (x86)\Exact Audio Copy\Wavpack\wavpack.exe
Additional command line options : -hlm %source% %dest%


TOC of the extracted CD

Track | Start | Length | Start sector | End sector
––––––––––––––––––––––––––––-
1 | 0:00.00 | 6:10.26 | 0 | 27775
2 | 6:10.26 | 6:07.21 | 27776 | 55321
3 | 12:17.47 | 0:43.07 | 55322 | 58553
4 | 13:00.54 | 5:01.13 | 58554 | 81141
5 | 18:01.67 | 4:49.13 | 81142 | 102829
6 | 22:51.05 | 4:50.46 | 102830 | 124625
7 | 27:41.51 | 3:42.66 | 124626 | 141341
8 | 31:24.42 | 5:44.02 | 141342 | 167143
9 | 37:08.44 | 1:09.72 | 167144 | 172390
10 | 38:18.41 | 3:38.71 | 172391 | 188811
11 | 41:57.37 | 4:32.54 | 188812 | 209265
12 | 46:30.16 | 3:26.41 | 209266 | 224756
13 | 49:56.57 | 2:56.68 | 224757 | 238024
14 | 52:53.50 | 1:38.15 | 238025 | 245389
15 | 54:31.65 | 10:13.63 | 245390 | 291427


Range status and errors

Selected range

Filename C:\NL+\CD34\Daevid Allen's University of Errors - Live in Chicago (Obscura No.5).wav

Peak level 92.6 %
Extraction speed 1.9 X
Range quality 99.9 %
Test CRC 97F298CA
Copy CRC 97F298CA
Copy OK

No errors occurred


AccurateRip summary

Track 1 accurately ripped (confidence 1) [3EF219FB] (AR v2)
Track 2 accurately ripped (confidence 1) [09F743CB] (AR v2)
Track 3 accurately ripped (confidence 1) [20964E40] (AR v2)
Track 4 accurately ripped (confidence 1) [838D0C5C] (AR v2)
Track 5 accurately ripped (confidence 1) [88DAC6F1] (AR v2)
Track 6 accurately ripped (confidence 1) [676EE5F9] (AR v2)
Track 7 accurately ripped (confidence 1) [D9387FCC] (AR v2)
Track 8 accurately ripped (confidence 1) [631EBFBA] (AR v2)
Track 9 accurately ripped (confidence 1) [4E9853AC] (AR v2)
Track 10 accurately ripped (confidence 1) [070DAE82] (AR v2)
Track 11 accurately ripped (confidence 1) [1B904D54] (AR v2)
Track 12 accurately ripped (confidence 1) [54870B3A] (AR v2)
Track 13 accurately ripped (confidence 1) [3BD64573] (AR v2)
Track 14 accurately ripped (confidence 1) [8140F471] (AR v2)
Track 15 accurately ripped (confidence 1) [5932D8D6] (AR v2)

All tracks accurately ripped

End of status report

–– CUETools DB Plugin V2.1.3

[CTDB TOCID: aWLQnGV9CAapH.JzeOgT4yr8Jjk-] disk not present in database, Submit result: aWLQnGV9CAapH.JzeOgT4yr8Jjk- has been uploaded


==== Log checksum 878B1CBDF603C4D01CD4C727DC806FDF06CDEFB7C9A681FA9D20A95DD2ED7F75 ====

[CUETools log; Date: 23.03.2015 17:55:41; Version: 2.1.5]
[CTDB TOCID: aWLQnGV9CAapH.JzeOgT4yr8Jjk-] found.
Track | CTDB Status
1 | (1/1) Accurately ripped
2 | (1/1) Accurately ripped
3 | (1/1) Accurately ripped
4 | (1/1) Accurately ripped
5 | (1/1) Accurately ripped
6 | (1/1) Accurately ripped
7 | (1/1) Accurately ripped
8 | (1/1) Accurately ripped
9 | (1/1) Accurately ripped
10 | (1/1) Accurately ripped
11 | (1/1) Accurately ripped
12 | (1/1) Accurately ripped
13 | (1/1) Accurately ripped
14 | (1/1) Accurately ripped
15 | (1/1) Accurately ripped
[AccurateRip ID: 002388e5-018b2352-df0f2d0f] found.
Track [ CRC | V2 ] Status
01 [a9e7199d|3ef219fb] (0+2/2) Accurately ripped
02 [d17a5970|09f743cb] (0+2/2) Accurately ripped
03 [31d56788|20964e40] (0+2/2) Accurately ripped
04 [2ea2cf5f|838d0c5c] (0+2/2) Accurately ripped
05 [adc2ce95|88dac6f1] (0+2/2) Accurately ripped
06 [c3a04be0|676ee5f9] (0+2/2) Accurately ripped
07 [aa5af11b|d9387fcc] (0+2/2) Accurately ripped
08 [0f77fc0a|631ebfba] (0+2/2) Accurately ripped
09 [5bf9624e|4e9853ac] (0+2/2) Accurately ripped
10 [9964acd7|070dae82] (0+2/2) Accurately ripped
11 [7189d984|1b904d54] (0+2/2) Accurately ripped
12 [4345d7fd|54870b3a] (0+2/2) Accurately ripped
13 [a9bc52b4|3bd64573] (0+2/2) Accurately ripped
14 [05353cba|8140f471] (0+2/2) Accurately ripped
15 [e5d7c777|5932d8d6] (0+2/2) Accurately ripped

Track Peak [ CRC32 ] [W/O NULL] [ LOG ]
– 92,6 [97F298CA] [65F0A5C5] CRC32
01 86,9 [49420FA7] [874D1A47]
02 92,6 [06C00A4F] [73D46608]
03 89,5 [234745E7] [9E546C95]
04 89,5 [D82918B8] [B7FABB09]
05 89,5 [C6264707] [24892092]
06 92,6 [C6E51C71] [B837E110]
07 89,5 [5BC502F6] [CA500AC4]
08 89,5 [7864EF28] [0ABD4368]
09 77,9 [683A62BC] [37B86C51]
10 88,6 [0FC8576B] [86D22F20]
11 90,9 [160B9B51] [90B966A9]
12 89,5 [56C64535] [28D36F25]
13 90,8 [3CA96896] [643B9933]
14 82,8 [A1F89604] [579BB734]
15 91,4 [861E42FA] [A094D3A0]

Daevid Allen - Bananamoon Obscura No. 5: Daevid Allen's University Of Errors - Live In Chicago (2004)


All thanks go to tatuk

>>> Daevid Allen in my Blog <<<

DOWNLOAD: