Subcategories

Danny Elfman - Frankenweenie: Soundtrack (2012) [Re-Up]

Posted By: Efgrapha
Danny Elfman - Frankenweenie: Soundtrack (2012) [Re-Up]

Danny Elfman - Frankenweenie: Soundtrack (2012)
EAC | FLAC (Tracks) + cue.+log ~ 285 Mb | Mp3, CBR320 kbps ~ 129 Mb | Scans ~ 84 Mb
Soundtrack, Score | Label: Walt Disney Records | # D001766302 | Time: 00:56:11

Composer Danny Elfman's score for director Tim Burton's black-and-white stop-motion tale of a boy and his newly reanimated dog is steeped in the kind of rich, choir-driven, harmlessly macabre innocence that supplied 1990's Edward Scissorhands with the heart it needed to break free of its overly quirky trappings. With nods to the frantic, pinball-like precision of Pee Wee's Big Adventure ("Electricity") and the good-natured malevolence of The Nightmare Before Christmas ("Invisible Fish/Search for Sparky"), Frankenweenie is fun, breathlessly atmospheric, and surprisingly affecting. Employing an effortless mix of menace, heartache, and joy, Elfman has crafted his most sentimental and nuanced score since 2003's Big Fish, and while it may borrow liberally from some of his previous works, it's still a joy to listen to from start to finish.

Review by James Christopher Monger, Allmusic.com

Danny Elfman - Frankenweenie: Soundtrack (2012) [Re-Up]



Tracklist:

01. Frankenweenie Disney Logo (00:37)
02. Main Titles (02:19)
03. Mr. Burgermeister/Noses Mee (02:16)
04. Game of Death (02:20)
05. The Funeral (02:38)
06. Electricity (03:27)
07. Re-Animation (05:16)
08. Sparky's Day Out (01:53)
09. Dad's Talk (00:49)
10. The Bride/Edgar Knows (02:19)
11. Invisible Fish/Search for Sparky (04:41)
12. A Premonition (01:25)
13. The Speech (01:20)
14. Mom's Discovery/Farewell (01:28)
15. Getting Ready (02:39)
16. Making Monsters (06:43)
17. Pool Monsters Attack (01:50)
18. Mad Monster Party (01:58)
19. Final Confrontation (02:56)
20. Happy Ending (03:30)
21. Alternate Main Titles (Bonus Track) (02:19)
22. Over the Fence (Bonus Track) (01:15)


Exact Audio Copy V1.0 beta 3 from 29. August 2011

EAC extraction logfile from 4. October 2012, 18:23

Danny Elfman / Frankenweenie

Used drive : PLEXTOR CD-R PX-230A Adapter: 1 ID: 0

Read mode : Secure
Utilize accurate stream : Yes
Defeat audio cache : Yes
Make use of C2 pointers : No

Read offset correction : 738
Overread into Lead-In and Lead-Out : No
Fill up missing offset samples with silence : Yes
Delete leading and trailing silent blocks : No
Null samples used in CRC calculations : Yes
Used interface : Native Win32 interface for Win NT & 2000
Gap handling : Appended to previous track

Used output format : User Defined Encoder
Selected bitrate : 896 kBit/s
Quality : High
Add ID3 tag : No
Command line compressor : C:\Program Files\Exact Audio Copy\FLAC\FLAC.EXE
Additional command line options : -6 -V -T "ARTIST=%artist%" -T "TITLE=%title%" -T "ALBUM=%albumtitle%" -T "DATE=%year%" -T "TRACKNUMBER=%tracknr%" -T "GENRE=%genre%" -T "COMMENT=%comment%" -T "ALBUMARTIST=%albuminterpret%" -T "COMPOSER=%composer%" -T "DISCNUMBER=%cdnumber%" -T "TOTALDISCS=%totalcds%" -T "TOTALTRACKS=%numtracks%" %source% -o %dest%


TOC of the extracted CD

Track | Start | Length | Start sector | End sector
––––––––––––––––––––––––––––-
1 | 0:00.00 | 0:37.25 | 0 | 2799
2 | 0:37.25 | 2:19.45 | 2800 | 13269
3 | 2:56.70 | 2:16.40 | 13270 | 23509
4 | 5:13.35 | 2:20.72 | 23510 | 34081
5 | 7:34.32 | 2:38.30 | 34082 | 45961
6 | 10:12.62 | 3:27.29 | 45962 | 61515
7 | 13:40.16 | 5:16.43 | 61516 | 85258
8 | 18:56.59 | 1:53.08 | 85259 | 93741
9 | 20:49.67 | 0:49.43 | 93742 | 97459
10 | 21:39.35 | 2:19.34 | 97460 | 107918
11 | 23:58.69 | 4:41.52 | 107919 | 129045
12 | 28:40.46 | 1:25.05 | 129046 | 135425
13 | 30:05.51 | 1:20.21 | 135426 | 141446
14 | 31:25.72 | 1:28.74 | 141447 | 148120
15 | 32:54.71 | 2:39.54 | 148121 | 160099
16 | 35:34.50 | 6:43.68 | 160100 | 190392
17 | 42:18.43 | 1:50.06 | 190393 | 198648
18 | 44:08.49 | 1:58.70 | 198649 | 207568
19 | 46:07.44 | 2:56.41 | 207569 | 220809
20 | 49:04.10 | 3:30.56 | 220810 | 236615
21 | 52:34.66 | 2:19.51 | 236616 | 247091
22 | 54:54.42 | 1:15.16 | 247092 | 252732


Track 1

Filename C:\Music\01 - Danny Elfman - Frankenweenie Disney Logo.wav

Pre-gap length 0:00:02.00

Peak level 94.4 %
Extraction speed 2.9 X
Track quality 100.0 %
Test CRC 1640AA08
Copy CRC 1640AA08
Track not present in AccurateRip database
Copy OK

Track 2

Filename C:\Music\02 - Danny Elfman - Main Titles.wav

Peak level 76.3 %
Extraction speed 3.9 X
Track quality 100.0 %
Test CRC A7430E84
Copy CRC A7430E84
Track not present in AccurateRip database
Copy OK

Track 3

Filename C:\Music\03 - Danny Elfman - Mr. Burgermeister,Noses Mee.wav

Peak level 94.4 %
Extraction speed 3.7 X
Track quality 100.0 %
Test CRC 49AF2131
Copy CRC 49AF2131
Track not present in AccurateRip database
Copy OK

Track 4

Filename C:\Music\04 - Danny Elfman - Game of Death.wav

Peak level 96.2 %
Extraction speed 3.7 X
Track quality 100.0 %
Test CRC 48A979B6
Copy CRC 48A979B6
Track not present in AccurateRip database
Copy OK

Track 5

Filename C:\Music\05 - Danny Elfman - The Funeral.wav

Pre-gap length 0:00:00.64

Peak level 83.6 %
Extraction speed 4.3 X
Track quality 100.0 %
Test CRC 62C2326A
Copy CRC 62C2326A
Track not present in AccurateRip database
Copy OK

Track 6

Filename C:\Music\06 - Danny Elfman - Electricity.wav

Peak level 98.0 %
Extraction speed 3.4 X
Track quality 100.0 %
Test CRC 282998D4
Copy CRC 282998D4
Track not present in AccurateRip database
Copy OK

Track 7

Filename C:\Music\07 - Danny Elfman - Re-Animation.wav

Peak level 98.1 %
Extraction speed 3.9 X
Track quality 100.0 %
Test CRC 073C6689
Copy CRC 073C6689
Track not present in AccurateRip database
Copy OK

Track 8

Filename C:\Music\08 - Danny Elfman - Sparky's Day Out.wav

Pre-gap length 0:00:00.67

Peak level 97.8 %
Extraction speed 3.8 X
Track quality 100.0 %
Test CRC 7B42B8F0
Copy CRC 7B42B8F0
Track not present in AccurateRip database
Copy OK

Track 9

Filename C:\Music\09 - Danny Elfman - Dad's Talk.wav

Peak level 32.8 %
Extraction speed 3.0 X
Track quality 100.0 %
Test CRC 85F3C627
Copy CRC 85F3C627
Track not present in AccurateRip database
Copy OK

Track 10

Filename C:\Music\10 - Danny Elfman - The Bride,Edgar Knows.wav

Pre-gap length 0:00:00.19

Peak level 66.9 %
Extraction speed 3.1 X
Track quality 99.9 %
Test CRC 6BF452DE
Copy CRC 6BF452DE
Track not present in AccurateRip database
Copy OK

Track 11

Filename C:\Music\11 - Danny Elfman - Invisible Fish,Search for Sparky.wav

Peak level 94.4 %
Extraction speed 4.1 X
Track quality 100.0 %
Test CRC 69AC2F1D
Copy CRC 69AC2F1D
Track not present in AccurateRip database
Copy OK

Track 12

Filename C:\Music\12 - Danny Elfman - A Premonition.wav

Peak level 94.4 %
Extraction speed 4.0 X
Track quality 100.0 %
Test CRC B3B0E653
Copy CRC B3B0E653
Track not present in AccurateRip database
Copy OK

Track 13

Filename C:\Music\13 - Danny Elfman - The Speech.wav

Peak level 94.4 %
Extraction speed 3.1 X
Track quality 100.0 %
Test CRC DA0DAD9D
Copy CRC DA0DAD9D
Track not present in AccurateRip database
Copy OK

Track 14

Filename C:\Music\14 - Danny Elfman - Mom's Discovery,Farewell.wav

Peak level 94.4 %
Extraction speed 3.6 X
Track quality 99.8 %
Test CRC 67481DFD
Copy CRC 67481DFD
Track not present in AccurateRip database
Copy OK

Track 15

Filename C:\Music\15 - Danny Elfman - Getting Ready.wav

Peak level 94.4 %
Extraction speed 3.5 X
Track quality 99.9 %
Test CRC CA4E3231
Copy CRC CA4E3231
Track not present in AccurateRip database
Copy OK

Track 16

Filename C:\Music\16 - Danny Elfman - Making Monsters.wav

Pre-gap length 0:00:01.20

Peak level 96.7 %
Extraction speed 4.1 X
Track quality 100.0 %
Test CRC 8AFE0610
Copy CRC 8AFE0610
Track not present in AccurateRip database
Copy OK

Track 17

Filename C:\Music\17 - Danny Elfman - Pool Monsters Attack.wav

Peak level 94.8 %
Extraction speed 3.5 X
Track quality 100.0 %
Test CRC D3B5909C
Copy CRC D3B5909C
Track not present in AccurateRip database
Copy OK

Track 18

Filename C:\Music\18 - Danny Elfman - Mad Monster Party.wav

Peak level 94.8 %
Extraction speed 4.3 X
Track quality 100.0 %
Test CRC 95171011
Copy CRC 95171011
Track not present in AccurateRip database
Copy OK

Track 19

Filename C:\Music\19 - Danny Elfman - Final Confrontation.wav

Peak level 94.4 %
Extraction speed 4.1 X
Track quality 100.0 %
Test CRC FCE241ED
Copy CRC FCE241ED
Track not present in AccurateRip database
Copy OK

Track 20

Filename C:\Music\20 - Danny Elfman - Happy Ending.wav

Peak level 98.0 %
Extraction speed 4.2 X
Track quality 100.0 %
Test CRC 74F2D647
Copy CRC 74F2D647
Track not present in AccurateRip database
Copy OK

Track 21

Filename C:\Music\21 - Danny Elfman - Alternate Main Titles (Bonus Track).wav

Pre-gap length 0:00:05.00

Peak level 94.4 %
Extraction speed 3.8 X
Track quality 100.0 %
Test CRC 4780B7D5
Copy CRC 4780B7D5
Track not present in AccurateRip database
Copy OK

Track 22

Filename C:\Music\22 - Danny Elfman - Over the Fence (Bonus Track).wav

Pre-gap length 0:00:00.59

Peak level 40.6 %
Extraction speed 3.0 X
Track quality 100.0 %
Test CRC 2D4C55E0
Copy CRC 2D4C55E0
Track not present in AccurateRip database
Copy OK


None of the tracks are present in the AccurateRip database

No errors occurred

End of status report

==== Log checksum 16B7EDC72BC72EA9ADD17CC9B80CB40ABCEACFE8FC987468211D5EBFC9BBABA3 ====

foobar2000 1.2.1 / Dynamic Range Meter 1.1.1
log date: 2013-01-30 17:34:19

––––––––––––––––––––––––––––––––––––––––
Analyzed: Danny Elfman / Frankenweenie
––––––––––––––––––––––––––––––––––––––––

DR Peak RMS Duration Track
––––––––––––––––––––––––––––––––––––––––
DR6 -0.50 dB -11.53 dB 0:37 01-Frankenweenie Disney Logo
DR12 -2.34 dB -18.63 dB 2:20 02-Main Titles
DR12 -0.50 dB -20.50 dB 2:17 03-Mr. Burgermeister/Noses Mee
DR9 -0.34 dB -14.48 dB 2:21 04-Game of Death
DR13 -1.55 dB -20.15 dB 2:38 05-The Funeral
DR12 -0.17 dB -16.97 dB 3:27 06-Electricity
DR7 -0.16 dB -12.37 dB 5:17 07-Re-Animation
DR12 -0.19 dB -17.36 dB 1:53 08-Sparky's Day Out
DR10 -9.68 dB -24.44 dB 0:50 09-Dad's Talk
DR13 -3.49 dB -21.11 dB 2:19 10-The Bride/Edgar Knows
DR10 -0.50 dB -14.90 dB 4:42 11-Invisible Fish/Search for Sparky
DR10 -0.50 dB -19.35 dB 1:25 12-A Premonition
DR9 -0.50 dB -17.43 dB 1:20 13-The Speech
DR10 -0.50 dB -15.37 dB 1:29 14-Mom's Discovery/Farewell
DR6 -0.50 dB -10.29 dB 2:40 15-Getting Ready
DR8 -0.29 dB -13.44 dB 6:44 16-Making Monsters
DR9 -0.46 dB -12.63 dB 1:50 17-Pool Monsters Attack
DR10 -0.46 dB -13.80 dB 1:59 18-Mad Monster Party
DR7 -0.50 dB -11.44 dB 2:57 19-Final Confrontation
DR8 -0.17 dB -14.63 dB 3:31 20-Happy Ending
DR12 -0.50 dB -18.92 dB 2:20 21-Alternate Main Titles (Bonus Track)
DR10 -7.81 dB -25.91 dB 1:15 22-Over the Fence (Bonus Track)
––––––––––––––––––––––––––––––––––––––––

Number of tracks: 22
Official DR value: DR10

Samplerate: 44100 Hz
Channels: 2
Bits per sample: 16
Bitrate: 604 kbps
Codec: FLAC
================================================================================

Danny Elfman - Frankenweenie: Soundtrack (2012) [Re-Up]

Danny Elfman - Frankenweenie: Soundtrack (2012) [Re-Up]