Subcategories

Darren Hayes - Albums Collection 2002-2013 (8CD) [Re-Up]

Posted By: Designol
Darren Hayes - Albums Collection 2002-2013 (8CD) [Re-Up]

Darren Hayes - Albums Collection 2002-2013 (8CD)
EAC | FLAC | Image (Cue&Log) ~ 2.71 Gb | Mp3 (CBR320) ~ 923 Mb
Genre: Pop, Electronic, Pop/Rock | Time: 06:42:40 | Scans ~ 1.61 Gb

As the lead singer and songwriter of duo Savage Garden, and as a solo recording artist in his own right Darren Hayes has held a career spanning two decades. He has sold over 27 million albums globally having achieved two U.S Billboard number one singles including holding the distinction of having written the longest running A.C hit in the chart's history with ballad 'Truly Madly Deeply’.

Since 1996 Hayes has released 6 albums: two Savage Garden and four solo offerings and has toured the world many times including sold out shows at the prestigious Royal Albert Hall London, The Sydney Opera House and Radio City Music Hall New York. Some career highlights include performing at the 2000 Sydney Olympic Games closing ceremonies and performing a duet with the late Luciano Pavarotti.

In 2011 Hayes released his 4th solo album 'Secret Codes and Battleships' marking almost 20 years in the music business. As with every show in his career he toured this record with a show designed by globally acclaimed director Willie Williams (U2, We Will Rock You).

A keen supporter of equal rights, his essay ‘Perfect just the way you are’ was recently published in the book ‘It Gets Better’ alongside noteworthy contributions by U.S President Barack Obama and British Prime Minister David Cameron.

Darren Hayes - Albums Collection 2002-2013 (8CD) [Re-Up]





Darren Hayes - Albums Collection 2002-2013 (8CD) [Re-Up]

Darren Hayes - Spin (2002)
EAC | FLAC | Image (Cue&Log) ~ 455 Mb | Mp3 (CBR320) ~ 142 Mb
Label: Columbia | # CK 86250 | Time: 01:02:16 | Scans ~ 33 Mb

Following his acrimonious split with musical partner Daniel Jones, Spin is the debut long-player from Savage Garden's Darren Hayes. The soft rock influences of the Jones era, are dumped in favour of superbly crafted pop and R&B numbers but with some more familiar sounding ballads thrown in too ("Insatiable" and "I Can't Ever Get Enough Of You"). In true Savage Garden style though, Darren's lyrics regularly descend into a confessional, cataloguing of his popular cultural tastes such as "Occasionally I can be caught dancin' to Britney… I like every single thing that Spielberg's done" ("Good Enough"), and also on the witty, 80s-tribute tune "1980 (Me)" ("…studded denim, big hair, acid wash, Rubik's cube, my boom box…") As on Affirmation Hayes manages to combine intelligent lyrical commentary on global politics and social issues, with the catchiest of backing melodies. On title track Spin, diverse issues ranging from Bosnia to HIV/AIDS are sensitively dealt with within a couple of verses over a funky George Michael-style "Faster Lover" tune. "Creepin' Up on You" sounds more Jacko, than the "King of Pop" does himself these days. This is a five-star album, which is guaranteed to give such established stars (as Jackson and Michael) a "run for their money".

John Galilee, Amazon.co.uk

Tracklist:

01. Strange Relationship (05:00)
02. Insatiable (05:10)
03. Heart Attack (05:02)
04. I Miss You (05:30)
05. Creepin' Up On You (04:53)
06. Dirty (04:45)
07. Crush (1980 Me) (04:00)
08. Good Enough (06:10)
09. I Can't Ever Get Enough Of You (05:16)
10. Like It Or Not (06:19)
11. What You Like (05:37)
12. Spin (04:22)


Exact Audio Copy V1.0 beta 3 from 29. August 2011

EAC extraction logfile from 29. January 2014, 14:01

Darren Hayes / Spin

Used drive : PLEXTOR DVDR PX-810SA Adapter: 2 ID: 0

Read mode : Secure
Utilize accurate stream : Yes
Defeat audio cache : Yes
Make use of C2 pointers : No

Read offset correction : 48
Overread into Lead-In and Lead-Out : No
Fill up missing offset samples with silence : Yes
Delete leading and trailing silent blocks : No
Null samples used in CRC calculations : Yes
Used interface : Installed external ASPI interface

Used output format : User Defined Encoder
Selected bitrate : 1024 kBit/s
Quality : High
Add ID3 tag : No
Command line compressor : C:\Program Files (x86)\Exact Audio Copy\Flac\flac.exe
Additional command line options : -8 -V -T "Date=%year%" -T "Genre=%genre%" -T "COMMENT=ripped by bvstudio®" %source%


TOC of the extracted CD

Track | Start | Length | Start sector | End sector
––––––––––––––––––––––––––––-
1 | 0:00.00 | 5:03.00 | 0 | 22724
2 | 5:03.00 | 5:10.18 | 22725 | 45992
3 | 10:13.18 | 5:04.58 | 45993 | 68850
4 | 15:18.01 | 5:30.56 | 68851 | 93656
5 | 20:48.57 | 4:53.09 | 93657 | 115640
6 | 25:41.66 | 4:45.21 | 115641 | 137036
7 | 30:27.12 | 4:00.04 | 137037 | 155040
8 | 34:27.16 | 6:10.74 | 155041 | 182864
9 | 40:38.15 | 5:16.27 | 182865 | 206591
10 | 45:54.42 | 6:19.74 | 206592 | 235090
11 | 52:14.41 | 5:38.68 | 235091 | 260508
12 | 57:53.34 | 4:23.00 | 260509 | 280233
13 | 64:48.34 | 3:16.32 | 291634 | 306365


Range status and errors

Selected range

Filename F:\Darren Hayes\2002 - Spin (2002 - Columbia Records. USA - CK 86250)\Darren Hayes - Spin.wav

Peak level 99.8 %
Extraction speed 7.9 X
Range quality 100.0 %
Test CRC FBA1C930
Copy CRC FBA1C930
Copy OK

No errors occurred


AccurateRip summary

Track 1 accurately ripped (confidence 2) [83D8B687] (AR v2)
Track 2 accurately ripped (confidence 2) [D851CC1F] (AR v2)
Track 3 accurately ripped (confidence 2) [F07BDAF0] (AR v2)
Track 4 accurately ripped (confidence 2) [16C838E2] (AR v2)
Track 5 accurately ripped (confidence 2) [5A98B2C4] (AR v2)
Track 6 accurately ripped (confidence 2) [8B4E3447] (AR v2)
Track 7 accurately ripped (confidence 2) [6A137F52] (AR v2)
Track 8 accurately ripped (confidence 2) [20327BCB] (AR v2)
Track 9 accurately ripped (confidence 2) [03501ED7] (AR v2)
Track 10 accurately ripped (confidence 2) [DC1FC70D] (AR v2)
Track 11 accurately ripped (confidence 2) [AF853BAD] (AR v2)
Track 12 accurately ripped (confidence 2) [6039C0EA] (AR v2)

All tracks accurately ripped

End of status report

–– CUETools DB Plugin V2.1.5

[CTDB TOCID: GAZaji5g.wAZye4gVLFPaCTO8CA-] found
Submit result: GAZaji5g.wAZye4gVLFPaCTO8CA- has been confirmed
Track | CTDB Status
1 | (1/1) Accurately ripped
2 | (1/1) Accurately ripped
3 | (1/1) Accurately ripped
4 | (1/1) Accurately ripped
5 | (1/1) Accurately ripped
6 | (1/1) Accurately ripped
7 | (1/1) Accurately ripped
8 | (1/1) Accurately ripped
9 | (1/1) Accurately ripped
10 | (1/1) Accurately ripped
11 | (1/1) Accurately ripped
12 | (1/1) Accurately ripped


==== Log checksum F6E3BB62F719EFAE6BDDBB72EFD14274A02ACE722AD5D3F301AF6159F36CBBAB ====

foobar2000 1.3.1 / Dynamic Range Meter 1.1.1
log date: 2014-01-29 14:48:48

––––––––––––––––––––––––––––––––––––––––
Analyzed: Darren Hayes / Spin
––––––––––––––––––––––––––––––––––––––––

DR Peak RMS Duration Track
––––––––––––––––––––––––––––––––––––––––
DR6 -0.18 dB -8.58 dB 5:03 01-Strange Relationship
DR6 -0.18 dB -8.09 dB 5:10 02-Insatiable
DR7 -0.07 dB -8.52 dB 5:05 03-Heart Attack
DR7 -0.18 dB -8.76 dB 5:31 04-I Miss You
DR7 -0.10 dB -8.48 dB 4:53 05-Creepin' Up On You
DR7 -0.01 dB -8.87 dB 4:45 06-Dirty
DR5 -0.18 dB -7.24 dB 4:00 07-Crush (1980 Me)
DR7 -0.18 dB -9.15 dB 6:11 08-Good Enough
DR6 -0.18 dB -7.94 dB 5:16 09-I Can't Ever Get Enough Of You
DR6 -0.28 dB -7.92 dB 6:20 10-Like It Or Not
DR6 -0.18 dB -7.67 dB 5:39 11-What You Like
DR7 -0.18 dB -8.68 dB 4:23 12-Spin
––––––––––––––––––––––––––––––––––––––––

Number of tracks: 12
Official DR value: DR6

Samplerate: 44100 Hz
Channels: 2
Bits per sample: 16
Bitrate: 1022 kbps
Codec: FLAC
================================================================================




Darren Hayes - Albums Collection 2002-2013 (8CD) [Re-Up]

Darren Hayes - Too Close For Comfort (2002)
EAC | FLAC | Image (Cue&Log) ~ 154 Mb | Mp3 (CBR320) ~ 57 Mb
Label: Sony Music Japan | # SICP 280 | Time: 00:25:10 | Scans ~ 27 Mb

Japanese memorial tour EP for the ex-Savage Garden vocalist features five tracks from his 2002 album, 'Spin'. Tracks, 'Dirty', 'Insatiable', 'Strange Relationship', 'I Miss You', & 'Good Enough'.

Tracklist:

01. Dirty (03:56)
02. Insatiable (05:20)
03. Strange Relationship (03:47)
04. I Miss You (04:47)
05. Good Enough (07:13)


Exact Audio Copy V1.0 beta 3 from 29. August 2011

EAC extraction logfile from 29. January 2014, 14:26

Darren Hayes / Too Close For Comfort

Used drive : PLEXTOR DVDR PX-810SA Adapter: 2 ID: 0

Read mode : Secure
Utilize accurate stream : Yes
Defeat audio cache : Yes
Make use of C2 pointers : No

Read offset correction : 48
Overread into Lead-In and Lead-Out : No
Fill up missing offset samples with silence : Yes
Delete leading and trailing silent blocks : No
Null samples used in CRC calculations : Yes
Used interface : Installed external ASPI interface

Used output format : User Defined Encoder
Selected bitrate : 1024 kBit/s
Quality : High
Add ID3 tag : No
Command line compressor : C:\Program Files (x86)\Exact Audio Copy\Flac\flac.exe
Additional command line options : -8 -V -T "Date=%year%" -T "Genre=%genre%" -T "COMMENT=ripped by bvstudio®" %source%


TOC of the extracted CD

Track | Start | Length | Start sector | End sector
––––––––––––––––––––––––––––-
1 | 0:00.00 | 3:57.38 | 0 | 17812
2 | 3:57.38 | 5:21.40 | 17813 | 41927
3 | 9:19.03 | 3:48.35 | 41928 | 59062
4 | 13:07.38 | 4:48.52 | 59063 | 80714
5 | 17:56.15 | 7:13.32 | 80715 | 113221


Range status and errors

Selected range

Filename F:\Darren Hayes\2002 - Too Close For Comfort (2002 - Sony Music Japan Int'l Inc. Japan - SICP 280)\Darren Hayes - Too Close For Comfort.wav

Peak level 100.0 %
Extraction speed 5.9 X
Range quality 99.9 %
Test CRC 39046655
Copy CRC 39046655
Copy OK

No errors occurred


AccurateRip summary

Track 1 accurately ripped (confidence 1) [FB16871E] (AR v1)
Track 2 accurately ripped (confidence 1) [A3A7352D] (AR v1)
Track 3 accurately ripped (confidence 1) [6B85AFB8] (AR v1)
Track 4 accurately ripped (confidence 1) [8650C6AF] (AR v1)
Track 5 accurately ripped (confidence 1) [B81FB54E] (AR v1)

All tracks accurately ripped

End of status report

–– CUETools DB Plugin V2.1.5

[CTDB TOCID: ws0V.fw.QBRcTsKTdk2gYM4k8RE-] disk not present in database
Submit result: ws0V.fw.QBRcTsKTdk2gYM4k8RE- has been uploaded


==== Log checksum 7868DF72B887E2D94875A47A51D3D91645EB0326644CFD0839C6BE4FF12C7C4D ====

foobar2000 1.3.1 / Dynamic Range Meter 1.1.1
log date: 2014-01-29 16:06:45

––––––––––––––––––––––––––––––––––––––––
Analyzed: Darren Hayes / Too Close For Comfort
––––––––––––––––––––––––––––––––––––––––

DR Peak RMS Duration Track
––––––––––––––––––––––––––––––––––––––––
DR12 0.00 dB -13.20 dB 3:58 01-Dirty
DR12 -0.15 dB -13.85 dB 5:22 02-Insatiable
DR13 0.00 dB -14.68 dB 3:48 03-Strange Relationship
DR13 -0.19 dB -15.24 dB 4:49 04-I Miss You
DR11 0.00 dB -13.35 dB 7:13 05-Good Enough
––––––––––––––––––––––––––––––––––––––––

Number of tracks: 5
Official DR value: DR12

Samplerate: 44100 Hz
Channels: 2
Bits per sample: 16
Bitrate: 858 kbps
Codec: FLAC
================================================================================




Darren Hayes - Albums Collection 2002-2013 (8CD) [Re-Up]

Darren Hayes - The Tension and the Spark (2004)
EAC | FLAC | Image (Cue&Log) ~ 409 Mb | Mp3 (CBR320) ~ 135 Mb
Label: Columbia | # COL 515431 2 | Time: 00:58:57 | Scans ~ 123 Mb

As one half of Australian boy band Savage Garden, falsetto-voiced Darren Hayes became the unofficial poster boy for the sensitive new man of the '90s, thanks to his often schmaltzy brand of adult contemporary pop, which was lapped up by a willing public in both the U.S. and Europe as well as his homeland. As accomplished as Spin, his first record since their acrimonious 2000 split was, its blend of George Michael-esque R&B and soft rock ballads didn't exactly indicate a hugely chameleon-like solo career – which makes his reinvention on follow-up The Tension and the Spark, a highly personal self-penned 13-track set of songs evoking the swirling electronica of Madonna's Ray of Light and the sophisticated synth pop of Pet Shop Boys, even more surprising. Sure, its electro-based dance-pop sound isn't akin to Hayes suddenly veering into thrash metal or Celtic folk territory, but compared to the MOR leanings of his previous output, it's an adventurous and ambitious step forward for an artist whose four-million-selling debut suggests he could quite easily have stuck to what he knew best. Largely co-written and co-produced with Robert Conley, whose band Specificus previously toured with Hayes, it's a subtle and introspective record that tackles angst-ridden insecurity ("Unlovable"), the cult of celebrity ("Pop!ular"), and his discomfort at being idolized by fans ("Hero"). However, The Tension and the Spark is far from being a bleak and downbeat ode to self-pity. "Love and Affection" is a sizzling fusion of twisted synths, acidic basslines, and throbbing beats that recalls the experimental club sounds of Mirwais, "I Like the Way" is a slinky attempt at glam-disco that could have been lifted from any of Goldfrapp's dancier albums, and the trip-hop-influenced "Dublin Sky" is an uplifting acoustic number that provides the perfect gap-bridger between his old and new sound. But the album is undoubtedly more intriguing when it's at its most melancholic. Opening track "Darkness" is a brooding slice of ambient electro, full of William Orbit-style sound effects, atmospheric strings, and ethereal guitar hooks, which brilliantly sets up both the album's sound and lyrical themes of dark and light, while "I Forgive You" throws some gothic pop and alternative country influences into the mix on a bitter tale of contempt that allows Hayes to release his inner menacing side before collapsing in a frenzy of unsettling electronic bleeps. This sudden change in direction won't receive half the attention that Robbie's Brit-pop or Justin's R&B-funk makeovers did, but just as convincing and effortless, it's one that has undeniably resulted in the album of Hayes' career.

Jon O'Brien, Allmusic.com

Tracklist:

01. Darkness (05:17)
02. I Like The Way (05:04)
03. Light (04:54)
04. Pop!ular (03:53)
05. Dublin Sky (04:35)
06. Hero (04:26)
07. Unlovable (05:23)
08. Void (03:19)
09. I Forgive You (04:35)
10. Feel (04:03)
11. Love And Attraction (04:05)
12. Sense Of Humor (04:47)
13. Ego (04:31)


Exact Audio Copy V1.0 beta 3 from 29. August 2011

EAC extraction logfile from 29. January 2014, 2:25

Darren Hayes / The Tension And The Spark

Used drive : PLEXTOR DVDR PX-810SA Adapter: 2 ID: 0

Read mode : Secure
Utilize accurate stream : Yes
Defeat audio cache : Yes
Make use of C2 pointers : No

Read offset correction : 48
Overread into Lead-In and Lead-Out : No
Fill up missing offset samples with silence : Yes
Delete leading and trailing silent blocks : No
Null samples used in CRC calculations : Yes
Used interface : Installed external ASPI interface

Used output format : User Defined Encoder
Selected bitrate : 1024 kBit/s
Quality : High
Add ID3 tag : No
Command line compressor : C:\Program Files (x86)\Exact Audio Copy\Flac\flac.exe
Additional command line options : -8 -V -T "Date=%year%" -T "Genre=%genre%" -T "COMMENT=ripped by bvstudio®" %source%


TOC of the extracted CD

Track | Start | Length | Start sector | End sector
––––––––––––––––––––––––––––-
1 | 0:00.00 | 5:17.55 | 0 | 23829
2 | 5:17.55 | 5:04.25 | 23830 | 46654
3 | 10:22.05 | 4:54.49 | 46655 | 68753
4 | 15:16.54 | 3:53.01 | 68754 | 86229
5 | 19:09.55 | 4:35.20 | 86230 | 106874
6 | 23:45.00 | 4:26.30 | 106875 | 126854
7 | 28:11.30 | 5:23.16 | 126855 | 151095
8 | 33:34.46 | 3:19.71 | 151096 | 166091
9 | 36:54.42 | 4:35.14 | 166092 | 186730
10 | 41:29.56 | 4:03.16 | 186731 | 204971
11 | 45:32.72 | 4:05.21 | 204972 | 223367
12 | 49:38.18 | 4:47.52 | 223368 | 244944
13 | 54:25.70 | 4:31.02 | 244945 | 265271
14 | 61:28.72 | 9:25.33 | 276672 | 319079


Range status and errors

Selected range

Filename F:\Darren Hayes\2004 - The Tension And The Spark (2004 - Sony BMG Music Entertainment. Austria - COL 515431 2)\Darren Hayes - The Tension And The Spark.wav

Peak level 100.0 %
Extraction speed 7.8 X
Range quality 100.0 %
Test CRC 2CE583BE
Copy CRC 2CE583BE
Copy OK

No errors occurred


AccurateRip summary

Track 1 accurately ripped (confidence 12) [EEFAFCF8] (AR v2)
Track 2 accurately ripped (confidence 12) [866A806D] (AR v2)
Track 3 accurately ripped (confidence 12) [C247710A] (AR v2)
Track 4 accurately ripped (confidence 12) [BB756837] (AR v2)
Track 5 accurately ripped (confidence 12) [A3C8C6BC] (AR v2)
Track 6 accurately ripped (confidence 12) [C1CA566D] (AR v2)
Track 7 accurately ripped (confidence 12) [740ADDDF] (AR v2)
Track 8 accurately ripped (confidence 12) [047A6E3C] (AR v2)
Track 9 accurately ripped (confidence 12) [6AC1CAF2] (AR v2)
Track 10 accurately ripped (confidence 12) [A78912DF] (AR v2)
Track 11 accurately ripped (confidence 12) [DC18BAD4] (AR v2)
Track 12 accurately ripped (confidence 12) [5C459641] (AR v2)
Track 13 accurately ripped (confidence 12) [09194328] (AR v2)

All tracks accurately ripped

End of status report

–– CUETools DB Plugin V2.1.5

[CTDB TOCID: 8y80bb8QjG5_d9ZdX1ldklCUjAM-] found
Submit result: 8y80bb8QjG5_d9ZdX1ldklCUjAM- has been confirmed
Track | CTDB Status
1 | (9/9) Accurately ripped
2 | (9/9) Accurately ripped
3 | (9/9) Accurately ripped
4 | (9/9) Accurately ripped
5 | (9/9) Accurately ripped
6 | (9/9) Accurately ripped
7 | (9/9) Accurately ripped
8 | (9/9) Accurately ripped
9 | (9/9) Accurately ripped
10 | (9/9) Accurately ripped
11 | (9/9) Accurately ripped
12 | (9/9) Accurately ripped
13 | (9/9) Accurately ripped


==== Log checksum 874462ABB04EC9B4EBDA1F99A9F7DC5EB55F22557B61801FC53ED397FD65BF99 ====

foobar2000 1.3.1 / Dynamic Range Meter 1.1.1
log date: 2014-01-29 17:43:36

––––––––––––––––––––––––––––––––––––––––
Analyzed: Darren Hayes / The Tension And The Spark
––––––––––––––––––––––––––––––––––––––––

DR Peak RMS Duration Track
––––––––––––––––––––––––––––––––––––––––
DR8 0.00 dB -10.47 dB 5:18 01-Darkness
DR6 0.00 dB -8.50 dB 5:04 02-I Like The Way
DR7 0.00 dB -9.78 dB 4:55 03-Light
DR7 0.00 dB -8.98 dB 3:53 04-Pop!ular
DR7 0.00 dB -9.51 dB 4:35 05-Dublin Sky
DR8 0.00 dB -9.40 dB 4:26 06-Hero
DR7 0.00 dB -9.04 dB 5:23 07-Unlovable
DR7 0.00 dB -9.32 dB 3:20 08-Void
DR7 0.00 dB -8.89 dB 4:35 09-I Forgive You
DR9 -0.05 dB -11.47 dB 4:03 10-Feel
DR7 0.00 dB -8.81 dB 4:05 11-Love And Attraction
DR7 0.00 dB -10.43 dB 4:48 12-Sense Of Humor
DR8 -0.21 dB -10.49 dB 4:31 13-Ego
––––––––––––––––––––––––––––––––––––––––

Number of tracks: 13
Official DR value: DR7

Samplerate: 44100 Hz
Channels: 2
Bits per sample: 16
Bitrate: 971 kbps
Codec: FLAC
================================================================================




Darren Hayes - Albums Collection 2002-2013 (8CD) [Re-Up]

Darren Hayes - This Delicate Thing We've Made (2007) 2CDs
EAC | FLAC | Image (Cue&Log) ~ 742 Mb | Mp3 (CBR320) ~ 257 Mb
Label: Powdered Sugar | # POWSUGCDUSA1 | Time: 01:52:37 | Scans ~ 90 Mb

Previously the forte of prog rockers, hair metallers, and hip-hop MCs, the idea of the double album has recently been embraced by the pop world, with Christina Aguilera (Back to Basics), Beyoncé (I Am…Sasha Fierce), and even Pop Idol runner-up Gareth Gates (Go Your Own Way), unable to restrict their creative flow to just one disc. Following his split with Columbia Records after ten years and 25 million sales together, former Savage Garden frontman Darren Hayes has used his new-found freedom to become the latest unlikely artist to boldly attempt the ambitious concept with his third solo album, This Delicate Thing We've Made. Clocking in at a near-two-hour running time, Hayes' first release through his own Powdered Sugar label could quite easily have become an exercise in self-indulgence, but luckily, he has plenty to offer both sonically and lyrically. Written during the period of his civil partnership with his animator/music video director husband, and his subsequent public coming out announcement, the majority of its 25 tracks eschew the dark and tortured themes of predecessor The Tension & the Spark in favor of a more optimistic approach which revels in his newly discovered happiness, particularly on the likes of "Who Would Have Thought?" a brooding trip-hop-inspired co-write with Guy Chambers, which comes complete with a chiming wedding bell middle-eight; the shimmering Enya-esque choral-led "The Only One," and the joyous new wave pop of lead single "On the Verge of Something Wonderful." Not that Hayes has become averse to addressing more heavy-handed issues, either, as evident on the politically charged, robotic synth-funk of "Bombs Up in My Face," the new age waltz of "Neverland," which tackles the subject of domestic violence, and the campfire sing-along of "The Great Big Disconnect" which covers everything from weapons of mass destruction to AIDS in Africa. The shimmering electro-pop that he so convincingly pulled off on his sophomore album remains the album's prevalent sound, the highlights of which are the Paul Van Dyk-inspired, six-minute trance-lite epic "Casey," the Giorgio Moroder-esque bubbling synth pop of "Step Into the Light," and the Middle Eastern-flavored "A Conversation with God." But elsewhere, Hayes takes full advantage of the opportunity to showcase his more adventurous side, shifting from Prince-inspired falsetto funk ("Me, Myself and I") to Scissor Sisters-style glam rock ("Lucky Town") to melancholic country-pop ("Maybe") to a cappella gospel ("Walk Away"), all with consummate ease. Of course, the album's sprawling nature means that it might be a bit of a slog for anyone other than hardcore fans, while the schmaltzy tendencies of Savage Garden unfortunately rear their head on the slushy and dreary acoustic ballads "I Just Want You to Love Me," "A Hundred Challenging Things a Boy Can Do," and "Words." But strip away these misguided ventures into lounge territory and you're left with an inventive, seductive, and slightly eccentric record which only furthers Hayes' surprising reinvention as one of pop's most unpredictable mavericks.

Jon O'Brien, Allmusic.com

Tracklist:

CD1:

01. A Fear Of Falling Under (04:09)
02. Who Would Have Thought (04:30)
03. Waking The Monster (04:07)
04. How To Build A Time Machine (05:50)
05. Casey (06:25)
06. Step Into The Light (04:57)
07. Sing To Me (04:54)
08. A Conversation With God (05:07)
09. The Sun Is Always Blinding Me (04:24)
10. Listen All You People (05:00)
11. The Only One (03:40)
12. Bombs Up In My Face (03:35)
13. The Great Big Disconnect (04:17)

CD2:

01. The Future Holds A Lion's Heart (04:02)
02. On The Verge Of Something Wonderful (04:00)
03. Neverland (04:01)
04. Walk Away (04:46)
05. Maybe (04:15)
06. Me, Myself And (I) (04:03)
07. Lucky Town (03:49)
08. I Just Want You To Love Me (03:59)
09. Setting Sun (04:09)
10. A Hundred Challenging Things A Boy Can Do (04:59)
11. Words (04:34)
12. The Tuning Of Violins (04:30)


Exact Audio Copy V1.0 beta 3 from 29. August 2011

EAC extraction logfile from 29. January 2014, 15:05

Darren Hayes / This Delicate Thing We've Made (Side 1)

Used drive : PLEXTOR DVDR PX-810SA Adapter: 2 ID: 0

Read mode : Secure
Utilize accurate stream : Yes
Defeat audio cache : Yes
Make use of C2 pointers : No

Read offset correction : 48
Overread into Lead-In and Lead-Out : No
Fill up missing offset samples with silence : Yes
Delete leading and trailing silent blocks : No
Null samples used in CRC calculations : Yes
Used interface : Installed external ASPI interface

Used output format : User Defined Encoder
Selected bitrate : 1024 kBit/s
Quality : High
Add ID3 tag : No
Command line compressor : C:\Program Files (x86)\Exact Audio Copy\Flac\flac.exe
Additional command line options : -8 -V -T "Date=%year%" -T "Genre=%genre%" -T "COMMENT=ripped by bvstudio®" %source%


TOC of the extracted CD

Track | Start | Length | Start sector | End sector
––––––––––––––––––––––––––––-
1 | 0:01.00 | 4:09.44 | 75 | 18793
2 | 4:10.44 | 4:30.71 | 18794 | 39114
3 | 8:41.40 | 4:07.68 | 39115 | 57707
4 | 12:49.33 | 5:51.62 | 57708 | 84094
5 | 18:41.20 | 6:26.40 | 84095 | 113084
6 | 25:07.60 | 4:57.63 | 113085 | 135422
7 | 30:05.48 | 4:56.12 | 135423 | 157634
8 | 35:01.60 | 5:08.25 | 157635 | 180759
9 | 40:10.10 | 4:24.13 | 180760 | 200572
10 | 44:34.23 | 5:00.05 | 200573 | 223077
11 | 49:34.28 | 3:42.05 | 223078 | 239732
12 | 53:16.33 | 3:39.32 | 239733 | 256189
13 | 56:55.65 | 4:17.33 | 256190 | 275497


Range status and errors

Selected range

Filename F:\Darren Hayes\2007 - This Delicate Thing We've Made (2007 - Powdered Sugar. USA - POWSUGCDUSA1)\Side1\Darren Hayes - This Delicate Thing We've Made (Side 1).wav

Peak level 100.0 %
Extraction speed 4.3 X
Range quality 100.0 %
Test CRC 402DE607
Copy CRC 402DE607
Copy OK

No errors occurred


AccurateRip summary

Track 1 accurately ripped (confidence 13) [6F58B8AC] (AR v1)
Track 2 accurately ripped (confidence 13) [98D9E6A9] (AR v1)
Track 3 accurately ripped (confidence 13) [955DED24] (AR v1)
Track 4 accurately ripped (confidence 13) [F966F028] (AR v1)
Track 5 accurately ripped (confidence 14) [C3BFB57E] (AR v1)
Track 6 accurately ripped (confidence 2) [5E769D6F] (AR v2)
Track 7 accurately ripped (confidence 13) [18166939] (AR v1)
Track 8 accurately ripped (confidence 13) [08601751] (AR v1)
Track 9 accurately ripped (confidence 13) [5F0F7BB5] (AR v1)
Track 10 accurately ripped (confidence 13) [458374C7] (AR v1)
Track 11 accurately ripped (confidence 12) [83C26288] (AR v1)
Track 12 accurately ripped (confidence 12) [96E09FAA] (AR v1)
Track 13 accurately ripped (confidence 13) [2B33AA1D] (AR v1)

All tracks accurately ripped

End of status report

–– CUETools DB Plugin V2.1.5

[CTDB TOCID: nIIbG2luvtmntZeLrKqsl_VUuZI-] found
Submit result: nIIbG2luvtmntZeLrKqsl_VUuZI- has been confirmed
Track | CTDB Status
1 | (1/1) Accurately ripped
2 | (1/1) Accurately ripped
3 | (1/1) Accurately ripped
4 | (1/1) Accurately ripped
5 | (1/1) Accurately ripped
6 | (1/1) Accurately ripped
7 | (1/1) Accurately ripped
8 | (1/1) Accurately ripped
9 | (1/1) Accurately ripped
10 | (1/1) Accurately ripped
11 | (1/1) Accurately ripped
12 | (1/1) Accurately ripped
13 | (1/1) Accurately ripped


==== Log checksum EDB18A147953742EC0569E977D190300FD5B122252320417D24FBED40DFCD4FF ====

foobar2000 1.3.1 / Dynamic Range Meter 1.1.1
log date: 2014-01-29 18:57:13

––––––––––––––––––––––––––––––––––––––––
Analyzed: Darren Hayes / This Delicate Thing We've Made (Side 1)
––––––––––––––––––––––––––––––––––––––––

DR Peak RMS Duration Track
––––––––––––––––––––––––––––––––––––––––
DR9 0.00 dB -13.09 dB 4:10 01-A Fear Of Falling Under
DR7 0.00 dB -8.64 dB 4:31 02-Who Would Have Thought
DR8 0.00 dB -10.71 dB 4:08 03-Waking The Monster
DR7 0.00 dB -10.44 dB 5:52 04-How To Build A Time Machine
DR7 0.00 dB -9.35 dB 6:27 05-Casey
DR7 0.00 dB -9.24 dB 4:58 06-Step Into The Light
DR7 0.00 dB -8.34 dB 4:56 07-Sing To Me
DR7 0.00 dB -8.22 dB 5:08 08-A Conversation With God
DR8 0.00 dB -9.32 dB 4:24 09-The Sun Is Always Blinding Me
DR7 0.00 dB -8.26 dB 5:00 10-Listen All You People
DR6 0.00 dB -9.09 dB 3:42 11-The Only One
DR9 0.00 dB -10.09 dB 3:39 12-Bombs Up In My Face
DR10 0.00 dB -11.56 dB 4:17 13-The Great Big Disconnect
––––––––––––––––––––––––––––––––––––––––

Number of tracks: 13
Official DR value: DR8

Samplerate: 44100 Hz
Channels: 2
Bits per sample: 16
Bitrate: 932 kbps
Codec: FLAC
================================================================================


Exact Audio Copy V1.0 beta 3 from 29. August 2011

EAC extraction logfile from 29. January 2014, 15:34

Darren Hayes / This Delicate Thing We've Made (Side 2)

Used drive : PLEXTOR DVDR PX-810SA Adapter: 2 ID: 0

Read mode : Secure
Utilize accurate stream : Yes
Defeat audio cache : Yes
Make use of C2 pointers : No

Read offset correction : 48
Overread into Lead-In and Lead-Out : No
Fill up missing offset samples with silence : Yes
Delete leading and trailing silent blocks : No
Null samples used in CRC calculations : Yes
Used interface : Installed external ASPI interface

Used output format : User Defined Encoder
Selected bitrate : 1024 kBit/s
Quality : High
Add ID3 tag : No
Command line compressor : C:\Program Files (x86)\Exact Audio Copy\Flac\flac.exe
Additional command line options : -8 -V -T "Date=%year%" -T "Genre=%genre%" -T "COMMENT=ripped by bvstudio®" %source%


TOC of the extracted CD

Track | Start | Length | Start sector | End sector
––––––––––––––––––––––––––––-
1 | 0:00.00 | 4:02.41 | 0 | 18190
2 | 4:02.41 | 4:02.25 | 18191 | 36365
3 | 8:04.66 | 4:03.53 | 36366 | 54643
4 | 12:08.44 | 4:46.19 | 54644 | 76112
5 | 16:54.63 | 4:15.55 | 76113 | 95292
6 | 21:10.43 | 4:05.27 | 95293 | 113694
7 | 25:15.70 | 3:50.58 | 113695 | 131002
8 | 29:06.53 | 4:00.10 | 131003 | 149012
9 | 33:06.63 | 4:12.12 | 149013 | 167924
10 | 37:19.00 | 5:01.18 | 167925 | 190517
11 | 42:20.18 | 4:34.35 | 190518 | 211102
12 | 46:54.53 | 4:30.12 | 211103 | 231364


Range status and errors

Selected range

Filename F:\Darren Hayes\2007 - This Delicate Thing We've Made (2007 - Powdered Sugar. USA - POWSUGCDUSA1)\Side2\Darren Hayes - This Delicate Thing We've Made (Side 2).wav

Peak level 100.0 %
Extraction speed 7.1 X
Range quality 100.0 %
Test CRC 9A26A696
Copy CRC 9A26A696
Copy OK

No errors occurred


AccurateRip summary

Track 1 accurately ripped (confidence 12) [E51A7E47] (AR v1)
Track 2 accurately ripped (confidence 12) [6B274C42] (AR v1)
Track 3 accurately ripped (confidence 11) [81FDE9A2] (AR v1)
Track 4 accurately ripped (confidence 12) [1F1A9086] (AR v1)
Track 5 accurately ripped (confidence 12) [FFE73D21] (AR v1)
Track 6 accurately ripped (confidence 12) [67D3393C] (AR v1)
Track 7 accurately ripped (confidence 12) [D85BC3AD] (AR v1)
Track 8 accurately ripped (confidence 12) [1F34FF4A] (AR v1)
Track 9 accurately ripped (confidence 12) [072634B4] (AR v1)
Track 10 accurately ripped (confidence 12) [70820335] (AR v1)
Track 11 accurately ripped (confidence 12) [D632C9A1] (AR v1)
Track 12 accurately ripped (confidence 12) [AB582549] (AR v1)

All tracks accurately ripped

End of status report

–– CUETools DB Plugin V2.1.5

[CTDB TOCID: qI7hxsXQuo.rXgSHC48B_9qXLzQ-] found
Submit result: qI7hxsXQuo.rXgSHC48B_9qXLzQ- has been confirmed
Track | CTDB Status
1 | (9/9) Accurately ripped
2 | (9/9) Accurately ripped
3 | (9/9) Accurately ripped
4 | (9/9) Accurately ripped
5 | (9/9) Accurately ripped
6 | (9/9) Accurately ripped
7 | (9/9) Accurately ripped
8 | (9/9) Accurately ripped
9 | (9/9) Accurately ripped
10 | (9/9) Accurately ripped
11 | (9/9) Accurately ripped
12 | (8/9) Accurately ripped


==== Log checksum 3B8917008A8D874BDB0FD782168CCE34181CAE3B147823C6768800E9DDD35F64 ====

foobar2000 1.3.1 / Dynamic Range Meter 1.1.1
log date: 2014-01-29 20:03:23

––––––––––––––––––––––––––––––––––––––––
Analyzed: Darren Hayes / This Delicate Thing We've Made (Side 2)
––––––––––––––––––––––––––––––––––––––––

DR Peak RMS Duration Track
––––––––––––––––––––––––––––––––––––––––
DR8 0.00 dB -9.83 dB 4:03 01-The Future Holds A Lion's Heart
DR7 0.00 dB -8.05 dB 4:02 02-On The Verge Of Something Wonderful
DR8 0.00 dB -9.86 dB 4:04 03-Neverland
DR8 0.00 dB -12.17 dB 4:46 04-Walk Away
DR9 0.00 dB -10.39 dB 4:16 05-Maybe
DR8 0.00 dB -9.28 dB 4:05 06-Me, Myself And (I)
DR8 0.00 dB -9.31 dB 3:51 07-Lucky Town
DR8 0.00 dB -11.33 dB 4:00 08-I Just Want You To Love Me
DR8 0.00 dB -9.02 dB 4:12 09-Setting Sun
DR11 0.00 dB -13.23 dB 5:01 10-A Hundred Challenging Things A Boy Can Do
DR12 -0.04 dB -14.78 dB 4:34 11-Words
DR8 0.00 dB -9.78 dB 4:30 12-The Tuning Of Violins
––––––––––––––––––––––––––––––––––––––––

Number of tracks: 12
Official DR value: DR9

Samplerate: 44100 Hz
Channels: 2
Bits per sample: 16
Bitrate: 910 kbps
Codec: FLAC
================================================================================




Darren Hayes - Albums Collection 2002-2013 (8CD) [Re-Up]

Darren Hayes - Secret Codes And Battleships (2011) 2CD Collector's Edition
EAC | FLAC | Image (Cue&Log) ~ 694 Mb | Mp3 (CBR320) ~ 297 Mb
Label: Powdered Sugar | # 12POWSUG9 | Time: 01:39:28 | Scans ~ 1.2 Gb

'90s MOR merchants Savage Garden might not have been known for their daring invention, but since their 2001 split, frontman Darren Hayes has become one of pop's most unexpected mavericks, flirting with '80s electro years before anyone had even heard of the term "nu-synth" on The Tension & the Spark, and appearing to compete with the most self-indulgent of prog rock acts on the 25-track double album, This Delicate Thing We've Made. However, perhaps tired of making bold artistic statements, only for a fraction of die-hard fans to take any notice, his fourth record, Secret Codes & Battleships is arguably his most commercial since 2002 debut Spin. There's still an array of interesting musical touches, from the Middle Eastern chanting on the cinematic balladry of close "The Siren's Call," to the burst of widescreen Sigur Rós-esque post-rock which interrupts the sweeping synth pop of "Bloodstained Heart," to the twinkling music boxes which kickstart the slow-burning, U2-inspired opener "Taken by the Sea." But with producer Carl Falk (Backstreet Boys, Nicole Scherzinger) on board, the majority of its 13 tracks come equipped with a pop sensibility that has been largely absent from his recent output. Lead single "Talk Talk Talk," a club-friendly fusion of twisted house riffs and pulsing electro beats, is his most mainstream single in nearly a decade; "Black Out the Sun" is a gorgeously yearning attempt at string-soaked R&B which shows that Hayes' trademark falsetto can still pack an emotional punch: while the inventive "God Walking Into the Rain" starts out like a Madonna tribute with its William Orbit-influenced electronica and "Like a Prayer"-ish gospel backing vocals, before settling into a shimmering, synth-led slice of melodrama packed with bluesy guitar hooks and an unashamedly retro-hair metal solo. Admittedly, it's a record which takes a while to get going, with the '80s-inspired double-whammy of "Don't Give Up" and "Nearly Love" echoing the more forgettable moments of Savage Garden's brief but impactful career. Nevertheless, it's an impressive feat that on album which was conceived way back in 2007, they're the only two tracks which sound slightly stale. It remains to be seen whether Hayes is a little too late to win back the millions of fans who worshipped his previous wedding dance favorites, but by limiting his experimental tendencies and focusing on the kind of intelligent synth pop he does best, he's given himself a fighting chance.

Jon O'Brien, Allmusic.com

Tracklist:

CD1:

01. Taken By The Sea (04:24)
02. Don't Give Up (03:44)
03. Nearly Love (03:11)
04. Black Out The Sun (04:09)
05. Talk Talk Talk (03:39)
06. Bloodstained Heart (03:51)
07. God Walking Into The Room (04:22)
08. Hurt (03:19)
09. Roses (04:19)
10. Stupid Mistake (04:37)
11. Cruel Cruel World (03:53)
12. The Siren's Call (04:01)

CD2:

01. Explode (04:26)
02. Perfect (04:27)
03. Tiny Little Flashlights (04:02)
04. Wrecking Ball (03:30)
05. Nothing (03:32)
06. Glorious (06:17)
07. Talk Talk Talk (Live In The Attic) (04:02)
08. Black Out The Sun (Live In The Attic) (04:15)
09. The Sweetest Lullaby (Demo) (05:57)
10. Hurt (Demo) (03:41)
11. Stupid Mistake (Demo) (03:35)
12. Perfect (Demo) (04:02)


Exact Audio Copy V1.0 beta 3 from 29. August 2011

EAC extraction logfile from 29. January 2014, 15:51

Darren Hayes / Secret Codes And Battleships (Disc One - Secret Codes)

Used drive : PLEXTOR DVDR PX-810SA Adapter: 2 ID: 0

Read mode : Secure
Utilize accurate stream : Yes
Defeat audio cache : Yes
Make use of C2 pointers : No

Read offset correction : 48
Overread into Lead-In and Lead-Out : No
Fill up missing offset samples with silence : Yes
Delete leading and trailing silent blocks : No
Null samples used in CRC calculations : Yes
Used interface : Installed external ASPI interface

Used output format : User Defined Encoder
Selected bitrate : 1024 kBit/s
Quality : High
Add ID3 tag : No
Command line compressor : C:\Program Files (x86)\Exact Audio Copy\Flac\flac.exe
Additional command line options : -8 -V -T "Date=%year%" -T "Genre=%genre%" -T "COMMENT=ripped by bvstudio®" %source%


TOC of the extracted CD

Track | Start | Length | Start sector | End sector
––––––––––––––––––––––––––––-
1 | 0:00.00 | 4:24.63 | 0 | 19862
2 | 4:24.63 | 3:44.18 | 19863 | 36680
3 | 8:09.06 | 3:11.42 | 36681 | 51047
4 | 11:20.48 | 4:10.20 | 51048 | 69817
5 | 15:30.68 | 3:39.26 | 69818 | 86268
6 | 19:10.19 | 3:51.11 | 86269 | 103604
7 | 23:01.30 | 4:22.72 | 103605 | 123326
8 | 27:24.27 | 3:19.65 | 123327 | 138316
9 | 30:44.17 | 4:19.35 | 138317 | 157776
10 | 35:03.52 | 4:38.49 | 157777 | 178675
11 | 39:42.26 | 3:53.35 | 178676 | 196185
12 | 43:35.61 | 4:01.19 | 196186 | 214279


Range status and errors

Selected range

Filename F:\Darren Hayes\2011 - Secret Codes And Battleships (Collectors Edition) (2011 - Powdered Sugar. UK - 12POWSUG9)\CD1 - Secret Codes\Darren Hayes - Secret Codes And Battleships (Disc One - Secret Codes).wav

Peak level 99.4 %
Extraction speed 7.3 X
Range quality 100.0 %
Test CRC 091B2D2B
Copy CRC 091B2D2B
Copy OK

No errors occurred


AccurateRip summary

Track 1 accurately ripped (confidence 6) [74D7EB2B] (AR v2)
Track 2 accurately ripped (confidence 6) [5D0586EE] (AR v2)
Track 3 accurately ripped (confidence 6) [35BBBD12] (AR v2)
Track 4 accurately ripped (confidence 6) [D448639E] (AR v2)
Track 5 accurately ripped (confidence 6) [0245D299] (AR v2)
Track 6 accurately ripped (confidence 6) [1725A6DC] (AR v2)
Track 7 accurately ripped (confidence 6) [CFEA19A7] (AR v2)
Track 8 accurately ripped (confidence 6) [6EFF16A7] (AR v2)
Track 9 accurately ripped (confidence 6) [49C034CC] (AR v2)
Track 10 accurately ripped (confidence 6) [9CD55A0F] (AR v2)
Track 11 accurately ripped (confidence 6) [F4A1E437] (AR v2)
Track 12 accurately ripped (confidence 6) [2DAB3761] (AR v2)

All tracks accurately ripped

End of status report

–– CUETools DB Plugin V2.1.5

[CTDB TOCID: Qjoyv6mNWoGSwZLJHgH_UndjJK8-] found
Submit result: Qjoyv6mNWoGSwZLJHgH_UndjJK8- has been confirmed
Track | CTDB Status
1 | (12/12) Accurately ripped
2 | (12/12) Accurately ripped
3 | (12/12) Accurately ripped
4 | (12/12) Accurately ripped
5 | (12/12) Accurately ripped
6 | (12/12) Accurately ripped
7 | (12/12) Accurately ripped
8 | (12/12) Accurately ripped
9 | (12/12) Accurately ripped
10 | (12/12) Accurately ripped
11 | (12/12) Accurately ripped
12 | (12/12) Accurately ripped


==== Log checksum 4C4B9748D1FA6DCA3785E7CD3ED2515A495F0A2EA73DB1C725B7F8FAE535546B ====

foobar2000 1.3.1 / Dynamic Range Meter 1.1.1
log date: 2014-01-29 20:55:25

––––––––––––––––––––––––––––––––––––––––
Analyzed: Darren Hayes / Secret Codes And Battleships (Disc One - Secret Codes)
––––––––––––––––––––––––––––––––––––––––

DR Peak RMS Duration Track
––––––––––––––––––––––––––––––––––––––––
DR6 -0.10 dB -7.73 dB 4:25 01-Taken By The Sea
DR5 -0.10 dB -6.39 dB 3:44 02-Don't Give Up
DR5 -0.10 dB -7.22 dB 3:12 03-Nearly Love
DR5 -0.10 dB -6.19 dB 4:10 04-Black Out The Sun
DR6 -0.10 dB -7.91 dB 3:39 05-Talk Talk Talk
DR5 -0.10 dB -7.74 dB 3:51 06-Bloodstained Heart
DR5 -0.10 dB -6.90 dB 4:23 07-God Walking Into The Room
DR6 -0.10 dB -6.95 dB 3:20 08-Hurt
DR7 -0.10 dB -7.98 dB 4:19 09-Roses
DR5 -0.10 dB -6.86 dB 4:39 10-Stupid Mistake
DR6 -0.10 dB -7.19 dB 3:53 11-Cruel Cruel World
DR6 -0.05 dB -8.72 dB 4:01 12-The Siren's Call
––––––––––––––––––––––––––––––––––––––––

Number of tracks: 12
Official DR value: DR6

Samplerate: 44100 Hz
Channels: 2
Bits per sample: 16
Bitrate: 1000 kbps
Codec: FLAC
================================================================================


Exact Audio Copy V1.0 beta 3 from 29. August 2011

EAC extraction logfile from 29. January 2014, 16:12

Darren Hayes / Secret Codes And Battleships (Disc Two - Battleships)

Used drive : PLEXTOR DVDR PX-810SA Adapter: 2 ID: 0

Read mode : Secure
Utilize accurate stream : Yes
Defeat audio cache : Yes
Make use of C2 pointers : No

Read offset correction : 48
Overread into Lead-In and Lead-Out : No
Fill up missing offset samples with silence : Yes
Delete leading and trailing silent blocks : No
Null samples used in CRC calculations : Yes
Used interface : Installed external ASPI interface

Used output format : User Defined Encoder
Selected bitrate : 1024 kBit/s
Quality : High
Add ID3 tag : No
Command line compressor : C:\Program Files (x86)\Exact Audio Copy\Flac\flac.exe
Additional command line options : -8 -V -T "Date=%year%" -T "Genre=%genre%" -T "COMMENT=ripped by bvstudio®" %source%


TOC of the extracted CD

Track | Start | Length | Start sector | End sector
––––––––––––––––––––––––––––-
1 | 0:00.00 | 4:26.08 | 0 | 19957
2 | 4:26.08 | 4:27.07 | 19958 | 39989
3 | 8:53.15 | 4:02.59 | 39990 | 58198
4 | 12:55.74 | 3:30.01 | 58199 | 73949
5 | 16:26.00 | 3:32.33 | 73950 | 89882
6 | 19:58.33 | 6:17.64 | 89883 | 118221
7 | 26:16.22 | 4:02.63 | 118222 | 136434
8 | 30:19.10 | 4:15.13 | 136435 | 155572
9 | 34:34.23 | 5:57.33 | 155573 | 182380
10 | 40:31.56 | 3:41.00 | 182381 | 198955
11 | 44:12.56 | 3:35.63 | 198956 | 215143
12 | 47:48.44 | 4:02.47 | 215144 | 233340


Range status and errors

Selected range

Filename F:\Darren Hayes\2011 - Secret Codes And Battleships (Collectors Edition) (2011 - Powdered Sugar. UK - 12POWSUG9)\CD2 - Battleships\Darren Hayes - Secret Codes And Battleships (Disc Two - Battleships).wav

Peak level 99.9 %
Extraction speed 7.1 X
Range quality 100.0 %
Test CRC 3EDF3FF5
Copy CRC 3EDF3FF5
Copy OK

No errors occurred


AccurateRip summary

Track 1 accurately ripped (confidence 1) [96BA5A43] (AR v2)
Track 2 accurately ripped (confidence 1) [022E6BDD] (AR v2)
Track 3 accurately ripped (confidence 1) [D524C5BA] (AR v2)
Track 4 accurately ripped (confidence 2) [9AFFBDFB] (AR v2)
Track 5 accurately ripped (confidence 1) [E9E25626] (AR v2)
Track 6 accurately ripped (confidence 1) [7B3E6687] (AR v2)
Track 7 accurately ripped (confidence 2) [14D4D358] (AR v2)
Track 8 accurately ripped (confidence 2) [008511CA] (AR v2)
Track 9 accurately ripped (confidence 2) [BC93B85E] (AR v2)
Track 10 accurately ripped (confidence 2) [36164BB7] (AR v2)
Track 11 accurately ripped (confidence 2) [E9F24B54] (AR v2)
Track 12 accurately ripped (confidence 2) [8D298019] (AR v2)

All tracks accurately ripped

End of status report

–– CUETools DB Plugin V2.1.5

[CTDB TOCID: 88w9xVb64Xe2I0b0X7NpPAdRtWo-] found
Submit result: 88w9xVb64Xe2I0b0X7NpPAdRtWo- has been confirmed
Track | CTDB Status
1 | (1/1) Accurately ripped
2 | (1/1) Accurately ripped
3 | (1/1) Accurately ripped
4 | (1/1) Accurately ripped
5 | (1/1) Accurately ripped
6 | (1/1) Accurately ripped
7 | (1/1) Accurately ripped
8 | (1/1) Accurately ripped
9 | (1/1) Accurately ripped
10 | (1/1) Accurately ripped
11 | (1/1) Accurately ripped
12 | (1/1) Accurately ripped


==== Log checksum 092DFBF68F95F0B07A7604435DC7E7FE0779ECFFC8711F40F1A52984352896C8 ====

foobar2000 1.3.1 / Dynamic Range Meter 1.1.1
log date: 2014-01-29 21:47:22

––––––––––––––––––––––––––––––––––––––––
Analyzed: Darren Hayes / Secret Codes And Battleships (Disc Two - Battleships)
––––––––––––––––––––––––––––––––––––––––

DR Peak RMS Duration Track
––––––––––––––––––––––––––––––––––––––––
DR6 -0.10 dB -6.94 dB 4:26 01-Explode
DR6 -0.01 dB -8.21 dB 4:27 02-Perfect
DR8 -0.10 dB -9.81 dB 4:03 03-Tiny Little Flashlights
DR6 -0.10 dB -7.10 dB 3:30 04-Wrecking Ball
DR6 -0.10 dB -8.35 dB 3:32 05-Nothing
DR8 -0.10 dB -10.70 dB 6:18 06-Glorious
DR8 -0.10 dB -10.77 dB 4:03 07-Talk Talk Talk (Live In The Attic)
DR8 -0.10 dB -10.78 dB 4:15 08-Black Out The Sun (Live In The Attic)
DR9 -0.10 dB -10.09 dB 5:57 09-The Sweetest Lullaby (Demo)
DR9 -0.10 dB -10.06 dB 3:41 10-Hurt (Demo)
DR8 -0.10 dB -8.87 dB 3:36 11-Stupid Mistake (Demo)
DR7 -0.10 dB -8.46 dB 4:03 12-Perfect (Demo)
––––––––––––––––––––––––––––––––––––––––

Number of tracks: 12
Official DR value: DR8

Samplerate: 44100 Hz
Channels: 2
Bits per sample: 16
Bitrate: 956 kbps
Codec: FLAC
================================================================================




Darren Hayes - Albums Collection 2002-2013 (8CD) [Re-Up]

Darren Hayes & Robert Conley - We Are Smug (2009) Limited Edition 2013
EAC | FLAC | Image (Cue&Log) ~ 303 Mb | Mp3 (CBR320) ~ 101 Mb
Label: Powdered Sugar | # POWSUGCD3 | Time: 00:44:11 | Scans ~ 94 Mb

We Are Smug is a ‘secret’ Darren Hayes side project with producer Robert Conley. This album is a strange 'Prince meets Disco' sound and it was recorded before Darren made his double album “This Delicate Thing We’ve Made”. Darren sings on all but one of the tracks (‘Fire It Up’ is sung by Robert Conley). This is superb pop-electronica music from the former Savage Garden frontman. Only previously available in 2009 to fans on the internet and then not for sale even. It is a cult favourite with fans and has never been available physically on CD before now. A bonus extra track of “Riot” has been added and it's a great one! The packaging is striking, colourful and contemporary.

Tracklist:

01. Look What We've Started (04:18)
02. Hot Tub Blues (04:21)
03. Good Dress (03:03)
04. Words That I Can't Say (03:38)
05. Riot (03:33)
06. On The Radio (03:40)
07. Tear It Up (03:44)
08. Never Be The Same Again (05:09)
09. Watching Me Watching You (05:07)
10. Fire It Up (03:14)
11. The Pressure (04:11)


Exact Audio Copy V1.0 beta 3 from 29. August 2011

EAC extraction logfile from 28. January 2014, 23:12

We Are Smug / We Are Smug

Used drive : PLEXTOR DVDR PX-810SA Adapter: 2 ID: 0

Read mode : Secure
Utilize accurate stream : Yes
Defeat audio cache : Yes
Make use of C2 pointers : No

Read offset correction : 48
Overread into Lead-In and Lead-Out : No
Fill up missing offset samples with silence : Yes
Delete leading and trailing silent blocks : No
Null samples used in CRC calculations : Yes
Used interface : Installed external ASPI interface

Used output format : User Defined Encoder
Selected bitrate : 1024 kBit/s
Quality : High
Add ID3 tag : No
Command line compressor : C:\Program Files (x86)\Exact Audio Copy\Flac\flac.exe
Additional command line options : -8 -V -T "Date=%year%" -T "Genre=%genre%" -T "COMMENT=ripped by bvstudio®" %source%


TOC of the extracted CD

Track | Start | Length | Start sector | End sector
––––––––––––––––––––––––––––-
1 | 0:00.00 | 4:18.47 | 0 | 19396
2 | 4:18.47 | 4:22.45 | 19397 | 39091
3 | 8:41.17 | 3:04.24 | 39092 | 52915
4 | 11:45.41 | 3:39.25 | 52916 | 69365
5 | 15:24.66 | 3:34.24 | 69366 | 85439
6 | 18:59.15 | 3:41.14 | 85440 | 102028
7 | 22:40.29 | 3:45.48 | 102029 | 118951
8 | 26:26.02 | 5:10.09 | 118952 | 142210
9 | 31:36.11 | 5:08.36 | 142211 | 165346
10 | 36:44.47 | 3:15.24 | 165347 | 179995
11 | 39:59.71 | 4:11.47 | 179996 | 198867


Range status and errors

Selected range

Filename F:\We Are Smug (Darren Hayes & Robert Conley)\2013 - We Are Smug (2013 - Powdered Sugar. UK - POWSUGCD3)\We Are Smug - We Are Smug.wav

Peak level 96.6 %
Extraction speed 7.1 X
Range quality 100.0 %
Test CRC 75966AF0
Copy CRC 75966AF0
Copy OK

No errors occurred


AccurateRip summary

Track 1 accurately ripped (confidence 2) [2A423C1F] (AR v2)
Track 2 accurately ripped (confidence 2) [644C8895] (AR v2)
Track 3 accurately ripped (confidence 2) [C87EE54E] (AR v2)
Track 4 accurately ripped (confidence 2) [D69219B8] (AR v2)
Track 5 accurately ripped (confidence 2) [DD1531EC] (AR v2)
Track 6 accurately ripped (confidence 2) [AA788155] (AR v2)
Track 7 accurately ripped (confidence 2) [6DBEBD7D] (AR v2)
Track 8 accurately ripped (confidence 2) [26E368C8] (AR v2)
Track 9 accurately ripped (confidence 2) [3D193776] (AR v2)
Track 10 accurately ripped (confidence 2) [28AC3009] (AR v2)
Track 11 accurately ripped (confidence 2) [B6870BA4] (AR v2)

All tracks accurately ripped

End of status report

–– CUETools DB Plugin V2.1.5

[CTDB TOCID: JhqdOjOT1X8_EoSHNbjMQbfnZR4-] found
Submit result: JhqdOjOT1X8_EoSHNbjMQbfnZR4- has been confirmed
Track | CTDB Status
1 | (1/1) Accurately ripped
2 | (1/1) Accurately ripped
3 | (1/1) Accurately ripped
4 | (1/1) Accurately ripped
5 | (1/1) Accurately ripped
6 | (1/1) Accurately ripped
7 | (1/1) Accurately ripped
8 | (1/1) Accurately ripped
9 | (1/1) Accurately ripped
10 | (1/1) Accurately ripped
11 | (1/1) Accurately ripped


==== Log checksum FE2BFF3FE3AE58FC6CF90EEACF64C578848553BE85685B37F5BA25B816D2536E ====

foobar2000 1.3.1 / Dynamic Range Meter 1.1.1
log date: 2014-01-28 23:25:04

––––––––––––––––––––––––––––––––––––––––
Analyzed: We Are Smug / We Are Smug
––––––––––––––––––––––––––––––––––––––––

DR Peak RMS Duration Track
––––––––––––––––––––––––––––––––––––––––
DR6 -0.30 dB -7.72 dB 4:19 01-Look What We've Started
DR8 -0.30 dB -9.26 dB 4:23 02-Hot Tub Blues
DR7 -0.30 dB -8.61 dB 3:04 03-Good Dress
DR6 -0.30 dB -8.12 dB 3:39 04-Words That I Can't Say
DR6 -0.30 dB -7.00 dB 3:34 05-Riot
DR8 -0.30 dB -10.31 dB 3:41 06-On The Radio
DR6 -0.30 dB -8.13 dB 3:46 07-Tear It Up
DR8 -0.30 dB -9.65 dB 5:10 08-Never Be The Same Again
DR8 -0.30 dB -9.61 dB 5:08 09-Watching Me Watching You
DR5 -0.30 dB -7.11 dB 3:15 10-Fire It Up
DR9 -0.80 dB -11.95 dB 4:12 11-The Pressure
––––––––––––––––––––––––––––––––––––––––

Number of tracks: 11
Official DR value: DR7

Samplerate: 44100 Hz
Channels: 2
Bits per sample: 16
Bitrate: 990 kbps
Codec: FLAC
================================================================================




All thanks to original releaser - bvstudio

More interesting music in My Blog