Tags
Language
Tags

Daryl Hall & John Oates - 14 Albums (1975 - 1990) [2011, Sony Music, SICP-20270~83]

Posted By: v3122
Daryl Hall & John Oates - 14 Albums (1975 - 1990) [2011, Sony Music, SICP-20270~83]

Daryl Hall & John Oates - 14 Albums (1975 - 1990) [2011, Sony Music, SICP-20270~83]
Soul / Pop / Pop Rock | EAC Rip | Flac(Image) + Cue + Log | MP3 CBR 320Kbps
Scans(600dpi) -> 4685 Mb | Blu-spec CD | Sony Music, SICP-20270~83 | ~ 4931 + 1625 Mb

Cardboard sleeve (mini LP) reissues from Daryl Hall & John Oates featuring the high-fidelity Blu-spec CD format and the latest digital remastering
Daryl Hall & John Oates - 14 Albums (1975 - 1990) [2011, Sony Music, SICP-20270~83]

Daryl Hall & John Oates:

From their first hit in 1974 through their heyday in the '80s, Daryl Hall and John Oates' smooth, catchy take on Philly soul brought them enormous commercial success – including six number one singles and six platinum albums – yet little critical success. Hall & Oates' music was remarkably well constructed and produced; at their best, their songs were filled with strong hooks and melodies that adhered to soul traditions without being a slave to them by incorporating elements of new wave and hard rock.

Daryl Hall began performing professionally while he was a student at Temple University. In 1966, he recorded a single with Kenny Gamble and the Romeos; the group featured Gamble, Leon Huff, and Thom Bell, who would all become the architects of Philly soul. During this time, Hall frequently appeared on sessions for Gamble and Huff. In 1967, Hall met John Oates, a fellow Temple University student. Oates was leading his own soul band at the time. The two students realized they had similar tastes and began performing together in an array of R&B and doo wop groups. By 1968, the duo had parted ways, as Oates transferred schools and Hall formed the soft rock band Gulliver; the group released one album on Elektra in the late '60s before disbanding.

After Gulliver's breakup, Hall concentrated on session work again, appearing as a backup vocalist for the Stylistics, the Delfonics, and the Intruders, among others. Oates returned to Philadelphia in 1969, and he and Hall began writing folk-oriented songs and performing together. Eventually they came to the attention of Tommy Mottola, who quickly became their manager, securing the duo a contract with Atlantic Records. On their first records – Whole Oates (1972), Abandoned Luncheonette (1973), War Babies (1974) – the duo were establishing their sound, working with producers like Arif Mardin and Todd Rundgren and removing much of their folk influences. At the beginning of 1974, the duo relocated from Philadelphia to New York. During this period, they only managed one hit – the number 60 "She's Gone" in the spring of 1974.

After they moved to RCA in 1975, the duo landed on its successful mixture of soul, pop, and rock, scoring a Top Ten single with "Sara Smile." The success of "Sara Smile" prompted the re-release of "She's Gone," which rocketed into the Top Ten as well. Released in the summer of 1976, Bigger than the Both of Us was only moderately successful upon its release. The record took off in early 1977, when "Rich Girl" became the duo's first number one single.

Although they had several minor hits between 1977 and 1980, the albums Hall & Oates released at the end of the decade were not as successful as their mid-'70s records. Nevertheless, they were more adventurous, incorporating more rock elements into their blue-eyed soul. The combination would finally pay off in late 1980, when the duo released the self-produced Voices, the album that marked the beginning of Hall & Oates' greatest commercial and artistic success. The first single from Voices, a cover of the Righteous Brothers' "You've Lost That Lovin' Feeling," reached number 12, yet it was the second single, "Kiss on My List" that confirmed their commercial potential by becoming the duo's second number one single; its follow-up, "You Make My Dreams" hit number five. They quickly released Private Eyes in the summer of 1981; the record featured two number one hits, "Private Eyes" and "I Can't Go for That (No Can Do)," as well as the Top Ten hit "Did It in a Minute." "I Can't Go for That (No Can Do)" also spent a week at the top of the R&B charts – a rare accomplishment for a white act. H20 followed in 1982 and it proved more successful than their two previous albums, selling over two million copies and launching their biggest hit single, "Maneater," as well as the Top Ten hits "One on One" and "Family Man." The following year, the duo released a greatest-hits compilation, Rock 'N Soul, Pt. 1, that featured two new Top Ten hits – the number two "Say It Isn't So" and "Adult Education."

In April of 1984, the Recording Industry Association of America announced that Hall & Oates had surpassed the Everly Brothers as the most successful duo in rock history, earning a total of 19 gold and platinum awards. Released in October of 1984, Big Bam Boom expanded their number of gold and platinum awards, selling over two million copies and launching four Top 40 singles, including the number one "Out of Touch." Following their contract-fulfilling gold album Live at the Apollo with David Ruffin & Eddie Kendrick, Hall & Oates went on hiatus. After the lukewarm reception for Daryl Hall's 1986 solo album, Three Hearts in the Happy Ending Machine, the duo regrouped to release 1988's Ooh Yeah!, their first record for Arista. The first single, "Everything Your Heart Desires," went to number three and helped propel the album to platinum status.

However, none of the album's other singles broke the Top 20, indicating that the era of chart dominance had ended. Change of Season, released in 1990, confirmed that fact. Although the record went gold, it only featured one Top 40 hit – the number 11 single "So Close." The duo mounted a comeback in 1997 with Marigold Sky, but it was only partially successful; far better was 2003's Do It for Love and the following year's soul covers record Our Kind of Soul. The issuing of "greatest-hits" albums reached a fever pitch during the 2000s, with no fewer than 15 different collections seeing the light by 2008. Live records were in proliferation as well, with the A&E Live by Request release Live in Concert hitting stores in 2003, a reissue of their Ecstasy on the Edge 1979 concert (titled simply In Concert this time around) in 2006, and the Live at the Troubadour two-CD/one-DVD set in 2008. As far as proper studio albums go, the 2000s were lean, with only three releases – the aforementioned Do It for Love and Our Kind of Soul, topped off by Home for Christmas in 2006.

~ Stephen Thomas Erlewine & J. Scott McClintock, Rovi

Дэрил Холл и Джон Оатс познакомились в 1967 году на одной из танцплощадок Филадельфии. Оба на тот момент учились в «Temple University» и каждый из них возглавлял собственную команду, «The Temptones» (Холл) и «The Masters» (Оатс). Музыкальные вкусы Дэрила и Джона были схожи, поэтому спустя некоторое время парни решили организовать совместный проект. В 1969-м их группа получила название «Hall & Oates», а в 1972-м они заключили контракт с «Atlantic Records». Первые работы Холла и Оатса были далеко не успешными, хотя их продюсированием занимались такие видные личности как Ариф Мардин и Тодд Рандгрен. Парни никак не могли определиться со стилем, и их саунд плавал между ритм-энд-блюзом, соулом, фолком и поп-музыкой. Явных хитов у дуэта в то время не имелось, но некоторые ростки успеха все же проклевывались. Такие песни как «She’s Gone» и «Las Vegas Turnaround» помогли «Hall & Oats» заработать репутацию «голубоглазых соулстеров». Фортуна улыбнулась Дэрилу и Джону, после того как они перебрались на «RCA Records», где дебютировали с альбомом «Daryl Hall & John Oates». Пластинка содержала балладу «Sara Smile», которая стала первым попаданием группы в горячую десятку «Billboard». Следом в Топ 10 отправилась и переизданная «She’s Gone», а в марте 1977-го «Hall & Oats» дали залп по самой верхушке чартов композицией «Rich Girl» с поп-ориентированного альбома «Bigger Than Both Of Us». Однако за этой серией хитов Дэрила и Джона ждала полоса неудач, поскольку они не успевали следить за быстроменяющимся музыкальным климатом. В самый разгар диско Холл и Оатс выпустили роковый опус «Along The Red Ledge», а когда вышел их танцевальный альбом «X-Static», мода на этот стиль уже пошла на спад. Кроме того, в 1977-м «RCA» предложили Дэрилу записать сольник, но тот получился настолько экспериментальным и некоммерческим, что лейбл отказался его выпускать. Решив, что все их неудачи приходят со стороны, в 1980 году музыканты лично взялись за продюсирование своего альбома «Voices». Результат оправдал ожидания, и несколько сопутствующих синглов попали в чарты, а «Kiss on My List» взобрался на самую вершину и провел там три недели. Две следующих работы, являвшиеся смесью соула, нью-вейва и синт-попа, также были широко востребованными и принесли группе немало хитов: «I Can’t Go for That (No Can Do)», «Did It in a Minute», «Your Imagination», «One on One», «Family Man» (кавер Майка Олдфилда). К концу 1983-го «Hall & Oats» были одним из самых коммерчески успешных американских проектов, что подтвердилось выпуском лучших вещей «Rock N’ Soul». Первый же сингл с этой пластинки, «Say It Isn’t So», шесть недель провел в борьбе за первое место с совместным творением Пола МакКартни и Майкла Джексона «Say, Say, Say». В 1985 году вышел второй концертник, «Live At The Apollo», записанный с участием Дэвида Раффина и Эдди Кендрика из «Temptations». Этим альбомом «Hall & Oats» завершили сотрудничество с «RCA», после чего перебрались под крышу «Arista». Диск «Ooh Yeah!» хотя и принес дуэту очередную платину, многими слушателями был встречен с разочарованием. Следующий альбом, «Change Of Seasons», получил всего лишь золото, в результате чего проект на долгое время исчез из поля зрения широкой публики. Лишь в 1997-м на собственном лейбле Холл и Оатс выпустили диск «Marigold Sky», да и тот пользовался весьма умеренным спросом. Очередной длительный тайм-аут Дэрил и Джон потратили на сольные карьеры, но в 2002-м вновь объединили свои усилия. Впервые за долгое время их работа имела хоть какой-то успех – песня «Do It for Love» заняла первую строчку в биллбордовских чартах в разделе «R&R’s Adult Contemporary». В 2004-м вышел диск «Our Kind Of Soul», составленный в основном из каверов.

~ Last Fm
=============================

Daryl Hall & John Oates - 14 Albums (1975 - 1990) [2011, Sony Music, SICP-2070~83]:

Daryl Hall & John Oates - 14 Albums (1975 - 1990) [2011, Sony Music, SICP-20270~83]

CD01. Daryl Hall & John Oates - Daryl Hall & John Oates (1975)
Soul/Pop/Pop Rock | EAC Rip | Flac(Image) + Cue + Log | MP3 CBR 320Kbps
Scans(600dpi) -> 256 Mb | Sony Music, SICP-20270 | ~ 275 + 102 Mb

Daryl Hall & John Oates - 14 Albums (1975 - 1990) [2011, Sony Music, SICP-20270~83]

Tracklist:

01. Camellia
02. Sara Smile
03. Alone Too Long
04. Out Of Me, Out Of You
05. Nothing At All
06. Gino (The Manager)
07. It Doesn't Matter Anymore
08. Ennui On The Mountain
09. Grounds For Separation
10. Soldering

Bonus Tracks:

11. What's Important To Me (Demo)
12. Ice (Demo)

Exact Audio Copy V1.0 beta 1 from 15. November 2010

EAC extraction logfile from 28. March 2011, 17:09

Daryl Hall & John Oates / Daryl Hall & John Oates

Used drive : HL-DT-STDVDRAM GSA-H60N Adapter: 2 ID: 0

Read mode : Secure
Utilize accurate stream : Yes
Defeat audio cache : Yes
Make use of C2 pointers : No

Read offset correction : 667
Overread into Lead-In and Lead-Out : No
Fill up missing offset samples with silence : Yes
Delete leading and trailing silent blocks : No
Null samples used in CRC calculations : Yes
Used interface : Native Win32 interface for Win NT & 2000

Used output format : Internal WAV Routines
Sample format : 44.100 Hz; 16 Bit; Stereo


TOC of the extracted CD

Track | Start | Length | Start sector | End sector
––––––––––––––––––––––––––––-
1 | 0:00.00 | 2:49.43 | 0 | 12717
2 | 2:49.43 | 3:09.23 | 12718 | 26915
3 | 5:58.66 | 3:23.60 | 26916 | 42200
4 | 9:22.51 | 3:31.11 | 42201 | 58036
5 | 12:53.62 | 4:26.55 | 58037 | 78041
6 | 17:20.42 | 4:13.59 | 78042 | 97075
7 | 21:34.26 | 3:09.63 | 97076 | 111313
8 | 24:44.14 | 3:17.16 | 111314 | 126104
9 | 28:01.30 | 4:14.30 | 126105 | 145184
10 | 32:15.60 | 3:24.25 | 145185 | 160509
11 | 35:40.10 | 3:46.37 | 160510 | 177496
12 | 39:26.47 | 2:57.56 | 177497 | 190827


Range status and errors

Selected range

Filename C:\Documents and Settings\Администратор\Рабочий стол\Rip by ALLexxess\Daryl Hall & John Oates\1975 Daryl Hall & John Oates (Sony Music JP Mini LP Blu-spec CD 2011)\Daryl Hall & John Oates - Daryl Hall & John Oates.wav

Peak level 100.0 %
Extraction speed 0.4 X
Range quality 100.0 %
Test CRC B5FA4570
Copy CRC B5FA4570
Copy OK

No errors occurred


AccurateRip summary

Track 1 not present in database
Track 2 not present in database
Track 3 not present in database
Track 4 not present in database
Track 5 not present in database
Track 6 not present in database
Track 7 not present in database
Track 8 not present in database
Track 9 not present in database
Track 10 not present in database
Track 11 not present in database
Track 12 not present in database

None of the tracks are present in the AccurateRip database

End of status report

AUDIOCHECKER v2.0 beta (build 457) - by Dester - opdester@freemail.hu
~~~~~~~~~~~~~~~~~~~~~~~~~~~~~~~~~~
-=== DO NOT EDIT THIS FILE! ===-

Path: …\1975 Daryl Hall & John Oates (Sony Music JP Mini LP Blu-spec CD 2011)

01 -=- Daryl Hall & John Oates - Daryl Hall & John Oates.flac -=- CDDA (100%)

88896324

[Verification date: 08.04.2011 17:07:50]
[Disc ID: 0012b6bd-00b07e0b-a409f00c]
Disk not present in database.

Track [ CRC32 ] [W/O NULL] [ LOG ]
– [B5FA4570] [6EB49620] CRC32
01 [1274E722] [5CC2148F]
02 [DCE517D7] [020B40DE]
03 [88B4F3D3] [2587CF93]
04 [44E12716] [4F8CDBC6]
05 [95D66663] [597DB835]
06 [6871FBDC] [437D4ABE]
07 [33BF6680] [AD5E4D2E]
08 [3C280530] [D06767E1]
09 [31A3D64D] [4C8D0E26]
10 [75DB035E] [1AE1C750]
11 [ADC2D042] [EEDFCE38]
12 [8571C529] [F2867BCB]

––––––––––––––––––––––––––––––––-

Daryl Hall & John Oates - 14 Albums (1975 - 1990) [2011, Sony Music, SICP-20270~83]

CD02. Daryl Hall & John Oates - Bigger Than Both Of Us (1976)
Soul/Pop/Pop Rock | EAC Rip | Flac(Image) + Cue + Log | MP3 CBR 320Kbps
Scans(600dpi) -> 328 Mb | Sony Music, SICP-20271 | ~ 261 + 83 Mb

Daryl Hall & John Oates - 14 Albums (1975 - 1990) [2011, Sony Music, SICP-20270~83]

Tracklist:

1. Back Together Again
2. Rich Girl
3. Crazy Eyes
4. Do What You Want, Be What You Are
5. Kerry
6. London Luck, & Love
7. Room To Breathe
8. You'll Never Learn
9. Falling

Exact Audio Copy V1.0 beta 1 from 15. November 2010

EAC extraction logfile from 29. March 2011, 22:25

Daryl Hall & John Oates / Bigger Than Both Of Us

Used drive : HL-DT-STDVDRAM GSA-H60N Adapter: 2 ID: 0

Read mode : Secure
Utilize accurate stream : Yes
Defeat audio cache : Yes
Make use of C2 pointers : No

Read offset correction : 667
Overread into Lead-In and Lead-Out : No
Fill up missing offset samples with silence : Yes
Delete leading and trailing silent blocks : No
Null samples used in CRC calculations : Yes
Used interface : Native Win32 interface for Win NT & 2000

Used output format : Internal WAV Routines
Sample format : 44.100 Hz; 16 Bit; Stereo


TOC of the extracted CD

Track | Start | Length | Start sector | End sector
––––––––––––––––––––––––––––-
1 | 0:00.00 | 3:25.03 | 0 | 15377
2 | 3:25.03 | 2:24.42 | 15378 | 26219
3 | 5:49.45 | 3:03.54 | 26220 | 39998
4 | 8:53.24 | 4:33.45 | 39999 | 60518
5 | 13:26.69 | 3:50.35 | 60519 | 77803
6 | 17:17.29 | 3:01.54 | 77804 | 91432
7 | 20:19.08 | 4:13.66 | 91433 | 110473
8 | 24:32.74 | 4:15.16 | 110474 | 129614
9 | 28:48.15 | 6:12.28 | 129615 | 157542


Range status and errors

Selected range

Filename C:\Documents and Settings\Администратор\Рабочий стол\Rip by ALLexxess\Daryl Hall & John Oates\1976 Bigger Than Both Of Us (Sony Music JP Mini LP Blu-spec CD 2011)\Daryl Hall & John Oates - Bigger Than Both Of Us.wav

Peak level 99.8 %
Extraction speed 0.9 X
Range quality 100.0 %
Test CRC 69F17424
Copy CRC 69F17424
Copy OK

No errors occurred


AccurateRip summary

Track 1 not present in database
Track 2 not present in database
Track 3 not present in database
Track 4 not present in database
Track 5 not present in database
Track 6 not present in database
Track 7 not present in database
Track 8 not present in database
Track 9 not present in database

None of the tracks are present in the AccurateRip database

End of status report

AUDIOCHECKER v2.0 beta (build 457) - by Dester - opdester@freemail.hu
~~~~~~~~~~~~~~~~~~~~~~~~~~~~~~~~~~
-=== DO NOT EDIT THIS FILE! ===-

Path: …\1976 Bigger Than Both Of Us (Sony Music JP Mini LP Blu-spec CD 2011)

01 -=- Daryl Hall & John Oates - Bigger Than Both Of Us.flac -=- MPEG (100%)

34511188

[Verification date: 08.04.2011 17:08:27]
[Disc ID: 000ad179-0050f12c-5f083409]
Disk not present in database.

Track [ CRC32 ] [W/O NULL] [ LOG ]
– [69F17424] [DF1027E1] CRC32
01 [66B5C574] [AB179999]
02 [6778A50F] [26DEB643]
03 [29268F12] [20C6796D]
04 [0EF71FD5] [CC21A2A7]
05 [E0B8C615] [1D94D41E]
06 [78C1D3E8] [92B7CE3C]
07 [B824D5E6] [A1B05290]
08 [E634E43B] [5304DB90]
09 [615DCBA2] [6A5CF439]

AuSpec:
Daryl Hall & John Oates - 14 Albums (1975 - 1990) [2011, Sony Music, SICP-20270~83]

Horizontal thick line = 5 khz; thin line = 1 Khz

––––––––––––––––––––––––––––––––-

Daryl Hall & John Oates - 14 Albums (1975 - 1990) [2011, Sony Music, SICP-20270~83]

CD03. Daryl Hall & John Oates - Beauty On A Back Street (1977)
Soul/Pop/Pop Rock | EAC Rip | Flac(Image) + Cue + Log | MP3 CBR 320Kbps
Scans(600dpi) -> 316 Mb | Sony Music, SICP-20272 | ~ 252 + 86 Mb

Daryl Hall & John Oates - 14 Albums (1975 - 1990) [2011, Sony Music, SICP-20270~83]

Tracklist:

1. Don't Change
2. Why Do Lovers Break Each Other's Heart
3. You Must Be Good For Something
4. The Empytness
5. Bad Habits And Infections
6. Bigger Than Both Of Us
7. Love Hurts (Love Heals)
8. Winged Bull
9. The Girl Who Used To Be

Exact Audio Copy V1.0 beta 1 from 15. November 2010

EAC extraction logfile from 29. March 2011, 21:51

Daryl Hall & John Oates / Beauty On A Back Street

Used drive : HL-DT-STDVDRAM GSA-H60N Adapter: 2 ID: 0

Read mode : Secure
Utilize accurate stream : Yes
Defeat audio cache : Yes
Make use of C2 pointers : No

Read offset correction : 667
Overread into Lead-In and Lead-Out : No
Fill up missing offset samples with silence : Yes
Delete leading and trailing silent blocks : No
Null samples used in CRC calculations : Yes
Used interface : Native Win32 interface for Win NT & 2000

Used output format : Internal WAV Routines
Sample format : 44.100 Hz; 16 Bit; Stereo


TOC of the extracted CD

Track | Start | Length | Start sector | End sector
––––––––––––––––––––––––––––-
1 | 0:00.00 | 3:33.40 | 0 | 16014
2 | 3:33.40 | 3:13.48 | 16015 | 30537
3 | 6:47.13 | 3:29.01 | 30538 | 46213
4 | 10:16.14 | 3:35.45 | 46214 | 62383
5 | 13:51.59 | 3:10.14 | 62384 | 76647
6 | 17:01.73 | 4:29.71 | 76648 | 96893
7 | 21:31.69 | 5:59.02 | 96894 | 123820
8 | 27:30.71 | 4:33.40 | 123821 | 144335
9 | 32:04.36 | 4:09.17 | 144336 | 163027


Range status and errors

Selected range

Filename C:\Documents and Settings\Администратор\Рабочий стол\Rip by ALLexxess\Daryl Hall & John Oates\1977 Beauty On A Back Street (Sony Music JP Mini LP Blu-spec CD 2011)\Daryl Hall & John Oates - Beauty On A Back Street.wav

Peak level 99.9 %
Extraction speed 0.6 X
Range quality 99.9 %
Test CRC 978E0BD9
Copy CRC 978E0BD9
Copy OK

No errors occurred


AccurateRip summary

Track 1 not present in database
Track 2 not present in database
Track 3 not present in database
Track 4 not present in database
Track 5 not present in database
Track 6 not present in database
Track 7 not present in database
Track 8 not present in database
Track 9 not present in database

None of the tracks are present in the AccurateRip database

End of status report

AUDIOCHECKER v2.0 beta (build 457) - by Dester - opdester@freemail.hu
~~~~~~~~~~~~~~~~~~~~~~~~~~~~~~~~~~
-=== DO NOT EDIT THIS FILE! ===-

Path: …\1977 Beauty On A Back Street (Sony Music JP Mini LP Blu-spec CD 2011)

01 -=- Daryl Hall & John Oates - Beauty On A Back Street.flac -=- CDDA (100%)

191494372

[Verification date: 08.04.2011 17:08:51]
[Disc ID: 000b9846-0056a567-69087d09]
Disk not present in database.

Track [ CRC32 ] [W/O NULL] [ LOG ]
– [978E0BD9] [AD221736] CRC32
01 [6AC9F59F] [EB8A782E]
02 [399AA35F] [315E1C44]
03 [F79E2F10] [4335AAFA]
04 [DED2AB9E] [9D37600B]
05 [5A303834] [FB28E1EB]
06 [24CAC7A8] [2C106148]
07 [9D8B0802] [B640F7AC]
08 [F5375F37] [B7F20FBE]
09 [64BFA19A] [497A245D]

––––––––––––––––––––––––––––––––-

Daryl Hall & John Oates - 14 Albums (1975 - 1990) [2011, Sony Music, SICP-20270~83]

CD04. Daryl Hall & John Oates - Livetime (1978)
Soul/Pop/Pop Rock | EAC Rip | Flac(Image) + Cue + Log | MP3 CBR 320Kbps
Scans(600dpi) -> 270 Mb | Sony Music, SICP-20273 | ~ 291 + 91 Mb

Daryl Hall & John Oates - 14 Albums (1975 - 1990) [2011, Sony Music, SICP-20270~83]

Tracklist:

1. Rich Girl
2. The Emptyness
3. Do What You Want, Be What You Are
4. I'm Just A Kid (Don't Make Me Feel Like A Man)
5. Sara Smile
6. Abandoned Luncheonette
7. Room To Breathe

Exact Audio Copy V1.0 beta 1 from 15. November 2010

EAC extraction logfile from 29. March 2011, 23:17

Daryl Hall & John Oates / Livetime

Used drive : HL-DT-STDVDRAM GSA-H60N Adapter: 2 ID: 0

Read mode : Secure
Utilize accurate stream : Yes
Defeat audio cache : Yes
Make use of C2 pointers : No

Read offset correction : 667
Overread into Lead-In and Lead-Out : No
Fill up missing offset samples with silence : Yes
Delete leading and trailing silent blocks : No
Null samples used in CRC calculations : Yes
Used interface : Native Win32 interface for Win NT & 2000

Used output format : Internal WAV Routines
Sample format : 44.100 Hz; 16 Bit; Stereo


TOC of the extracted CD

Track | Start | Length | Start sector | End sector
––––––––––––––––––––––––––––-
1 | 0:00.00 | 3:36.02 | 0 | 16201
2 | 3:36.02 | 3:47.31 | 16202 | 33257
3 | 7:23.33 | 6:57.16 | 33258 | 64548
4 | 14:20.49 | 5:29.55 | 64549 | 89278
5 | 19:50.29 | 8:01.33 | 89279 | 125386
6 | 27:51.62 | 6:08.19 | 125387 | 153005
7 | 34:00.06 | 4:46.44 | 153006 | 174499


Range status and errors

Selected range

Filename C:\Documents and Settings\Администратор\Рабочий стол\Rip by ALLexxess\Daryl Hall & John Oates\1978 Livetime (Sony Music JP Mini LP Blu-spec CD 2011)\Daryl Hall & John Oates - Livetime.wav

Peak level 99.9 %
Extraction speed 0.7 X
Range quality 100.0 %
Test CRC F5FAC503
Copy CRC F5FAC503
Copy OK

No errors occurred


AccurateRip summary

Track 1 not present in database
Track 2 not present in database
Track 3 not present in database
Track 4 not present in database
Track 5 not present in database
Track 6 not present in database
Track 7 not present in database

None of the tracks are present in the AccurateRip database

End of status report

AUDIOCHECKER v2.0 beta (build 457) - by Dester - opdester@freemail.hu
~~~~~~~~~~~~~~~~~~~~~~~~~~~~~~~~~~
-=== DO NOT EDIT THIS FILE! ===-

Path: …\1978 Livetime (Sony Music JP Mini LP Blu-spec CD 2011)

01 -=- Daryl Hall & John Oates - Livetime.flac -=- MPEG (73%)

194149524

[Verification date: 08.04.2011 17:09:43]
[Disc ID: 000a0335-003de446-50091607]
Disk not present in database.

Track [ CRC32 ] [W/O NULL] [ LOG ]
– [F5FAC503] [695CA475] CRC32
01 [1FCBC38A] [70E77805]
02 [E3F94751] [493FE3A6]
03 [06F7F058] [67BADFA9]
04 [8598EBFF] [784A5658]
05 [874C1BA5] [3306186E]
06 [8C4ADA3D] [6E1FB9D2]
07 [C59AB1E1] [C7AB2AB6]

AuSpec:
Daryl Hall & John Oates - 14 Albums (1975 - 1990) [2011, Sony Music, SICP-20270~83]

Horizontal thick line = 5 khz; thin line = 1 Khz

––––––––––––––––––––––––––––––––-

Daryl Hall & John Oates - 14 Albums (1975 - 1990) [2011, Sony Music, SICP-20270~83]

CD05. Daryl Hall & John Oates - Along The Red Ledge (1978)
Soul/Pop/Pop Rock | EAC Rip | Flac(Image) + Cue + Log | MP3 CBR 320Kbps
Scans(600dpi) -> 362 Mb | Sony Music, SICP-20274 | ~ 269 + 88 Mb

Daryl Hall & John Oates - 14 Albums (1975 - 1990) [2011, Sony Music, SICP-20270~83]

Tracklist:

01. It's A Laugh
02. Melody For A Memory
03. The Last Time
04. I Don't Wanna Lose You
05. Have I Been Away Too Long
06. Alley Katz
07. Don't Blame It On Love
08. Serious Music
09. Pleasure Beach
10. August Day

Exact Audio Copy V1.0 beta 1 from 15. November 2010

EAC extraction logfile from 31. March 2011, 20:13

Daryl Hall & John Oates / Along The Red Ledge

Used drive : HL-DT-STDVDRAM GSA-H60N Adapter: 2 ID: 0

Read mode : Secure
Utilize accurate stream : Yes
Defeat audio cache : Yes
Make use of C2 pointers : No

Read offset correction : 667
Overread into Lead-In and Lead-Out : No
Fill up missing offset samples with silence : Yes
Delete leading and trailing silent blocks : No
Null samples used in CRC calculations : Yes
Used interface : Native Win32 interface for Win NT & 2000

Used output format : Internal WAV Routines
Sample format : 44.100 Hz; 16 Bit; Stereo


TOC of the extracted CD

Track | Start | Length | Start sector | End sector
––––––––––––––––––––––––––––-
1 | 0:00.00 | 3:50.14 | 0 | 17263
2 | 3:50.14 | 4:55.12 | 17264 | 39400
3 | 8:45.26 | 2:53.43 | 39401 | 52418
4 | 11:38.69 | 3:50.13 | 52419 | 69681
5 | 15:29.07 | 4:24.66 | 69682 | 89547
6 | 19:53.73 | 3:05.55 | 89548 | 103477
7 | 22:59.53 | 3:58.55 | 103478 | 121382
8 | 26:58.33 | 4:10.33 | 121383 | 140165
9 | 31:08.66 | 3:13.33 | 140166 | 154673
10 | 34:22.24 | 3:06.13 | 154674 | 168636


Range status and errors

Selected range

Filename C:\Documents and Settings\Администратор\Рабочий стол\Rip by ALLexxess\Daryl Hall & John Oates\1978 Along The Red Ledge (Sony Music JP Mini LP Blu-spec CD 2011)\Daryl Hall & John Oates - Along The Red Ledge.wav

Peak level 100.0 %
Extraction speed 0.4 X
Range quality 100.0 %
Test CRC 1091FA37
Copy CRC 1091FA37
Copy OK

No errors occurred


AccurateRip summary

Track 1 not present in database
Track 2 not present in database
Track 3 not present in database
Track 4 not present in database
Track 5 not present in database
Track 6 not present in database
Track 7 not present in database
Track 8 not present in database
Track 9 not present in database
Track 10 not present in database

None of the tracks are present in the AccurateRip database

End of status report

AUDIOCHECKER v2.0 beta (build 457) - by Dester - opdester@freemail.hu
~~~~~~~~~~~~~~~~~~~~~~~~~~~~~~~~~~
-=== DO NOT EDIT THIS FILE! ===-

Path: …\1978 Along The Red Ledge (Sony Music JP Mini LP Blu-spec CD 2011)

01 -=- Daryl Hall & John Oates - Along The Red Ledge.flac -=- CDDA (100%)

128494292

[Verification date: 08.04.2011 17:09:17]
[Disc ID: 000e98ec-007411e5-6d08c80a]
Disk not present in database.

Track [ CRC32 ] [W/O NULL] [ LOG ]
– [1091FA37] [BF2C808B] CRC32
01 [3CFB1809] [E7943E09]
02 [240A5CE6] [723722A0]
03 [640F9CD4] [6AE57D35]
04 [5EBC6B1A] [F3EB50C3]
05 [DAFFD933] [DB00C039]
06 [CFBDE4FD] [71F8FCA9]
07 [7BE8C45D] [DFF4BE68]
08 [BA917CF1] [654C805D]
09 [F8371426] [A31F1367]
10 [90580D4F] [A7B0D307]

––––––––––––––––––––––––––––––––-

Daryl Hall & John Oates - 14 Albums (1975 - 1990) [2011, Sony Music, SICP-20270~83]

CD06. Daryl Hall & John Oates - X-Static (1979)
Soul/Pop/Pop Rock | EAC Rip | Flac(Image) + Cue + Log | MP3 CBR 320Kbps
Scans(600dpi) -> 335 Mb | Sony Music, SICP-20275 | ~ 334 + 110 Mb

Daryl Hall & John Oates - 14 Albums (1975 - 1990) [2011, Sony Music, SICP-20270~83]

Tracklist:

01. The Woman Comes And Goes
02. Wait For Me
03. Portable Radio
04. All You Want Is Heaven
05. Who Said The World Was Fair
06. Running From Paradise
07. Number One
08. Bebop / Drop
09. Hallofon
10. Intravino

Bonus Tracks:

11. Time's Up (Previously Unreleased)
12. No Brain No Pain (Previously Unreleased)

Exact Audio Copy V1.0 beta 1 from 15. November 2010

EAC extraction logfile from 30. March 2011, 20:42

Daryl Hall & John Oates / X-Static

Used drive : HL-DT-STDVDRAM GSA-H60N Adapter: 2 ID: 0

Read mode : Secure
Utilize accurate stream : Yes
Defeat audio cache : Yes
Make use of C2 pointers : No

Read offset correction : 667
Overread into Lead-In and Lead-Out : No
Fill up missing offset samples with silence : Yes
Delete leading and trailing silent blocks : No
Null samples used in CRC calculations : Yes
Used interface : Native Win32 interface for Win NT & 2000

Used output format : Internal WAV Routines
Sample format : 44.100 Hz; 16 Bit; Stereo


TOC of the extracted CD

Track | Start | Length | Start sector | End sector
––––––––––––––––––––––––––––-
1 | 0:00.00 | 3:49.62 | 0 | 17236
2 | 3:49.62 | 4:08.21 | 17237 | 35857
3 | 7:58.08 | 4:46.53 | 35858 | 57360
4 | 12:44.61 | 4:04.15 | 57361 | 75675
5 | 16:49.01 | 4:12.60 | 75676 | 94635
6 | 21:01.61 | 6:37.48 | 94636 | 124458
7 | 27:39.34 | 3:46.51 | 124459 | 141459
8 | 31:26.10 | 3:57.74 | 141460 | 159308
9 | 35:24.09 | 1:21.24 | 159309 | 165407
10 | 36:45.33 | 3:38.52 | 165408 | 181809
11 | 40:24.10 | 3:17.20 | 181810 | 196604
12 | 43:41.30 | 2:55.22 | 196605 | 209751


Range status and errors

Selected range

Filename C:\Documents and Settings\Администратор\Рабочий стол\Rip by ALLexxess\Daryl Hall & John Oates\1979 X-Static (Sony Music JP Mini LP Blu-spec CD 2011)\Daryl Hall & John Oates - X-Static.wav

Peak level 100.0 %
Extraction speed 0.3 X
Range quality 99.9 %
Test CRC 9AA76061
Copy CRC 9AA76061
Copy OK

No errors occurred


AccurateRip summary

Track 1 not present in database
Track 2 not present in database
Track 3 not present in database
Track 4 not present in database
Track 5 not present in database
Track 6 not present in database
Track 7 not present in database
Track 8 not present in database
Track 9 not present in database
Track 10 not present in database
Track 11 not present in database
Track 12 not present in database

None of the tracks are present in the AccurateRip database

End of status report

AUDIOCHECKER v2.0 beta (build 457) - by Dester - opdester@freemail.hu
~~~~~~~~~~~~~~~~~~~~~~~~~~~~~~~~~~
-=== DO NOT EDIT THIS FILE! ===-

Path: …\1979 X-Static (Sony Music JP Mini LP Blu-spec CD 2011)

01 -=- Daryl Hall & John Oates - X-Static.flac -=- CDDA (100%)

28971012

[Verification date: 08.04.2011 17:10:11]
[Disc ID: 00164573-00cde875-8e0aec0c]
Disk not present in database.

Track [ CRC32 ] [W/O NULL] [ LOG ]
– [9AA76061] [EA67FF78] CRC32
01 [A1D60DE7] [C5A55E60]
02 [F9EFC39C] [F36A0BC4]
03 [1E186921] [626EC761]
04 [13797DDF] [4BB21676]
05 [0E6E25EC] [216F8F4C]
06 [0CE632F7] [F9AD98E7]
07 [5E9B911A] [D86EEC41]
08 [640B7E7E] [99DFB418]
09 [5769C1E5] [60E568D4]
10 [8CD3980E] [6379777B]
11 [206FB88E] [C54E06C2]
12 [51889D53] [CF5695BA]

––––––––––––––––––––––––––––––––-

Daryl Hall & John Oates - 14 Albums (1975 - 1990) [2011, Sony Music, SICP-20270~83]

CD07. Daryl Hall & John Oates - Voices (1980)
Soul/Pop/Pop Rock | EAC Rip | Flac(Image) + Cue + Log | MP3 CBR 320Kbps
Scans(600dpi) -> 348 Mb | Sony Music, SICP-20276 | ~ 377 + 129 Mb

Daryl Hall & John Oates - 14 Albums (1975 - 1990) [2011, Sony Music, SICP-20270~83]

Tracklist:

01. How Does It Feel To Be Back
02. Big Kids
03. United State
04. Hard To Be In Love With You
05. Kiss On My List
06. Gotta Lotta Nerve (Perfect Perfect)
07 You've Lost That Lovin' Feeling
08. You Make My Dreams
09. Everytime You Go Away
10. Africa
11. Diddy Doo Wop (I Heard The Voices)

Bonus Tracks:

12. Kiss On My List (Remix Version)
13. Everytime You Go Away (Remix Version)

Exact Audio Copy V1.0 beta 1 from 15. November 2010

EAC extraction logfile from 31. March 2011, 17:36

Daryl Hall & John Oates / Voices

Used drive : HL-DT-STDVDRAM GSA-H60N Adapter: 2 ID: 0

Read mode : Secure
Utilize accurate stream : Yes
Defeat audio cache : Yes
Make use of C2 pointers : No

Read offset correction : 667
Overread into Lead-In and Lead-Out : No
Fill up missing offset samples with silence : Yes
Delete leading and trailing silent blocks : No
Null samples used in CRC calculations : Yes
Used interface : Native Win32 interface for Win NT & 2000

Used output format : Internal WAV Routines
Sample format : 44.100 Hz; 16 Bit; Stereo


TOC of the extracted CD

Track | Start | Length | Start sector | End sector
––––––––––––––––––––––––––––-
1 | 0:00.00 | 4:35.10 | 0 | 20634
2 | 4:35.10 | 3:41.02 | 20635 | 37211
3 | 8:16.12 | 3:08.33 | 37212 | 51344
4 | 11:24.45 | 3:38.71 | 51345 | 67765
5 | 15:03.41 | 4:25.62 | 67766 | 87702
6 | 19:29.28 | 3:37.47 | 87703 | 104024
7 | 23:07.00 | 4:37.40 | 104025 | 124839
8 | 27:44.40 | 3:12.17 | 124840 | 139256
9 | 30:56.57 | 5:23.65 | 139257 | 163546
10 | 36:20.47 | 3:39.71 | 163547 | 180042
11 | 40:00.43 | 3:46.14 | 180043 | 197006
12 | 43:46.57 | 5:41.00 | 197007 | 222581
13 | 49:27.57 | 5:07.73 | 222582 | 245679


Range status and errors

Selected range

Filename C:\Documents and Settings\Администратор\Рабочий стол\Rip by ALLexxess\Daryl Hall & John Oates\1980 Voices (Sony Music JP Mini LP Blu-spec CD 2011)\Daryl Hall & John Oates - Voices.wav

Peak level 99.9 %
Extraction speed 0.5 X
Range quality 100.0 %
Test CRC 0747F68C
Copy CRC 0747F68C
Copy OK

No errors occurred


AccurateRip summary

Track 1 not present in database
Track 2 not present in database
Track 3 not present in database
Track 4 not present in database
Track 5 not present in database
Track 6 not present in database
Track 7 not present in database
Track 8 not present in database
Track 9 not present in database
Track 10 not present in database
Track 11 not present in database
Track 12 not present in database
Track 13 not present in database

None of the tracks are present in the AccurateRip database

End of status report

AUDIOCHECKER v2.0 beta (build 457) - by Dester - opdester@freemail.hu
~~~~~~~~~~~~~~~~~~~~~~~~~~~~~~~~~~
-=== DO NOT EDIT THIS FILE! ===-

Path: …\1980 Voices (Sony Music JP Mini LP Blu-spec CD 2011)

01 -=- Daryl Hall & John Oates - Voices.flac -=- CDDA (100%)

102449700

[Verification date: 08.04.2011 17:10:49]
[Disc ID: 00190caa-00fc0630-d20ccb0d]
Disk not present in database.

Track [ CRC32 ] [W/O NULL] [ LOG ]
– [0747F68C] [6CFB79A9] CRC32
01 [AC8059D1] [C6637D37]
02 [1DA02AAD] [9821B702]
03 [1F390A76] [E4049364]
04 [2715F261] [B1097405]
05 [B3812241] [A8070348]
06 [CCCD8039] [726E493E]
07 [B9BA0ABE] [9B447A26]
08 [6B0106BD] [8B82F5F5]
09 [B129A897] [C7D6DDA0]
10 [9EBA200C] [812BEA99]
11 [CA29B14D] [6EE91A2C]
12 [655FA459] [5F38AAFB]
13 [2D19CC23] [219FEDA1]

––––––––––––––––––––––––––––––––-

Daryl Hall & John Oates - 14 Albums (1975 - 1990) [2011, Sony Music, SICP-20270~83]

CD08. Daryl Hall & John Oates - Private Eyes (1981)
Soul/Pop/Pop Rock | EAC Rip | Flac(Image) + Cue + Log | MP3 CBR 320Kbps
Scans(600dpi) -> 307 Mb | Sony Music, SICP-20277 | ~ 389 + 130 Mb

Daryl Hall & John Oates - 14 Albums (1975 - 1990) [2011, Sony Music, SICP-20270~83]

Tracklist:

01. Private Eyes
02. Looking For A Good Sign
03. I Can't Go For That
04. Mano A Mano
05. Did It In A Minute
06. Head Above Water
07. Tell Me What You Want
08. Friday Let Me Down
09. Unguarded Minute
10. Your Imagination
11. Some Men

Bonus Tracks:

12. Your Imagination (12'' Version / Disco Remix)
13. I Can't Go For That (No Can Do) (12'' Version / Extended Club Mix)

Exact Audio Copy V1.0 beta 1 from 15. November 2010

EAC extraction logfile from 30. March 2011, 22:26

Daryl Hall & John Oates / Private Eyes

Used drive : HL-DT-STDVDRAM GSA-H60N Adapter: 2 ID: 0

Read mode : Secure
Utilize accurate stream : Yes
Defeat audio cache : Yes
Make use of C2 pointers : No

Read offset correction : 667
Overread into Lead-In and Lead-Out : No
Fill up missing offset samples with silence : Yes
Delete leading and trailing silent blocks : No
Null samples used in CRC calculations : Yes
Used interface : Native Win32 interface for Win NT & 2000

Used output format : Internal WAV Routines
Sample format : 44.100 Hz; 16 Bit; Stereo


TOC of the extracted CD

Track | Start | Length | Start sector | End sector
––––––––––––––––––––––––––––-
1 | 0:00.00 | 3:38.04 | 0 | 16353
2 | 3:38.04 | 3:56.39 | 16354 | 34092
3 | 7:34.43 | 5:08.11 | 34093 | 57203
4 | 12:42.54 | 3:54.68 | 57204 | 74821
5 | 16:37.47 | 3:38.57 | 74822 | 91228
6 | 20:16.29 | 3:35.00 | 91229 | 107353
7 | 23:51.29 | 3:50.60 | 107354 | 124663
8 | 27:42.14 | 3:33.72 | 124664 | 140710
9 | 31:16.11 | 4:09.37 | 140711 | 159422
10 | 35:25.48 | 3:33.36 | 159423 | 175433
11 | 38:59.09 | 4:20.37 | 175434 | 194970
12 | 43:19.46 | 5:43.02 | 194971 | 220697
13 | 49:02.48 | 6:06.12 | 220698 | 248159


Range status and errors

Selected range

Filename C:\Documents and Settings\Администратор\Рабочий стол\Rip by ALLexxess\Daryl Hall & John Oates\1981 Private Eyes (Sony Music JP Mini LP Blu-spec CD 2011)\Daryl Hall & John Oates - Private Eyes.wav

Peak level 100.0 %
Extraction speed 0.6 X
Range quality 100.0 %
Test CRC CE2B1394
Copy CRC CE2B1394
Copy OK

No errors occurred


AccurateRip summary

Track 1 not present in database
Track 2 not present in database
Track 3 not present in database
Track 4 not present in database
Track 5 not present in database
Track 6 not present in database
Track 7 not present in database
Track 8 not present in database
Track 9 not present in database
Track 10 not present in database
Track 11 not present in database
Track 12 not present in database
Track 13 not present in database

None of the tracks are present in the AccurateRip database

End of status report

AUDIOCHECKER v2.0 beta (build 457) - by Dester - opdester@freemail.hu
~~~~~~~~~~~~~~~~~~~~~~~~~~~~~~~~~~
-=== DO NOT EDIT THIS FILE! ===-

Path: …\1981 Private Eyes (Sony Music JP Mini LP Blu-spec CD 2011)

01 -=- Daryl Hall & John Oates - Private Eyes.flac -=- CDDA (100%)

202132084

[Verification date: 08.04.2011 17:11:21]
[Disc ID: 00191a3d-00fbe237-b30cec0d]
Disk not present in database.

Track [ CRC32 ] [W/O NULL] [ LOG ]
– [CE2B1394] [B947F0FC] CRC32
01 [8C49726F] [5D3373CF]
02 [220E52A7] [87E86A04]
03 [3DF317DB] [4846BD58]
04 [DD184A7B] [386DE110]
05 [C95B9EB1] [9D1D78EA]
06 [92F04F65] [B90B5B3B]
07 [396DD0FB] [EC6CE6BC]
08 [8FFDB59F] [EA2C6CF5]
09 [8D24ED86] [C90ADC94]
10 [38F7C506] [42FE7BA6]
11 [A6D95776] [E1BE6124]
12 [9F6E9A4C] [11D5C201]
13 [0E91BA32] [D9987A83]

––––––––––––––––––––––––––––––––-

Daryl Hall & John Oates - 14 Albums (1975 - 1990) [2011, Sony Music, SICP-20270~83]

CD09. Daryl Hall & John Oates - H2O (1982)
Soul/Pop/Pop Rock | EAC Rip | Flac(Image) + Cue + Log | MP3 CBR 320Kbps
Scans(600dpi) -> 346 Mb | Sony Music, SICP-20278 | ~ 459 + 151 Mb

Daryl Hall & John Oates - 14 Albums (1975 - 1990) [2011, Sony Music, SICP-20270~83]

Tracklist:

01. Maneater
02. Crime Pays
03. Art Of Heartbreak
04. One On One
05. Open All Night
06. Family Man
07. Italian Girls
08. Guessing Games
09. Delayed Reaction
10. At Tension
11. Go Solo

Bonus Tracks:

12. Family Man (12'' Version / Rock Mix)
13. Maneater (12'' Version / Special Extended Club Mix)
14. One On One (12'' Version / Club Mix)

Exact Audio Copy V1.0 beta 1 from 15. November 2010

EAC extraction logfile from 30. March 2011, 21:34

Daryl Hall & John Oates / H2O

Used drive : HL-DT-STDVDRAM GSA-H60N Adapter: 2 ID: 0

Read mode : Secure
Utilize accurate stream : Yes
Defeat audio cache : Yes
Make use of C2 pointers : No

Read offset correction : 667
Overread into Lead-In and Lead-Out : No
Fill up missing offset samples with silence : Yes
Delete leading and trailing silent blocks : No
Null samples used in CRC calculations : Yes
Used interface : Native Win32 interface for Win NT & 2000

Used output format : Internal WAV Routines
Sample format : 44.100 Hz; 16 Bit; Stereo


TOC of the extracted CD

Track | Start | Length | Start sector | End sector
––––––––––––––––––––––––––––-
1 | 0:00.00 | 4:32.63 | 0 | 20462
2 | 4:32.63 | 4:31.49 | 20463 | 40836
3 | 9:04.37 | 3:43.15 | 40837 | 57576
4 | 12:47.52 | 4:17.59 | 57577 | 76910
5 | 17:05.36 | 4:35.70 | 76911 | 97605
6 | 21:41.31 | 3:25.30 | 97606 | 113010
7 | 25:06.61 | 3:17.41 | 113011 | 127826
8 | 28:24.27 | 3:15.61 | 127827 | 142512
9 | 31:40.13 | 3:59.45 | 142513 | 160482
10 | 35:39.58 | 6:16.43 | 160483 | 188725
11 | 41:56.26 | 4:40.02 | 188726 | 209727
12 | 46:36.28 | 5:47.10 | 209728 | 235762
13 | 52:23.38 | 6:00.32 | 235763 | 262794
14 | 58:23.70 | 5:31.69 | 262795 | 287688


Range status and errors

Selected range

Filename C:\Documents and Settings\Администратор\Рабочий стол\Rip by ALLexxess\Daryl Hall & John Oates\1982 H2O (Sony Music JP Mini LP Blu-spec CD 2011)\Daryl Hall & John Oates - H2O.wav

Peak level 99.0 %
Extraction speed 0.5 X
Range quality 100.0 %
Test CRC 131C539B
Copy CRC 131C539B
Copy OK

No errors occurred


AccurateRip summary

Track 1 not present in database
Track 2 not present in database
Track 3 not present in database
Track 4 not present in database
Track 5 not present in database
Track 6 not present in database
Track 7 not present in database
Track 8 not present in database
Track 9 not present in database
Track 10 not present in database
Track 11 not present in database
Track 12 not present in database
Track 13 not present in database
Track 14 not present in database

None of the tracks are present in the AccurateRip database

End of status report

AUDIOCHECKER v2.0 beta (build 457) - by Dester - opdester@freemail.hu
~~~~~~~~~~~~~~~~~~~~~~~~~~~~~~~~~~
-=== DO NOT EDIT THIS FILE! ===-

Path: …\1982 H2O (Sony Music JP Mini LP Blu-spec CD 2011)

01 -=- Daryl Hall & John Oates - H2O.flac -=- CDDA (100%)

229143316

[Verification date: 08.04.2011 17:11:57]
[Disc ID: 001eda29-014b60bf-b90efb0e]
Disk not present in database.

Track [ CRC32 ] [W/O NULL] [ LOG ]
– [131C539B] [BD5813E0] CRC32
01 [8C4B3667] [15EE69B1]
02 [BD18CD3A] [A7ABC8A5]
03 [9CCB088B] [2D2F7DAB]
04 [99BB0689] [9801698C]
05 [4EA1FD16] [D3AFE582]
06 [9F401B2A] [F48BEC98]
07 [CA4E5696] [40DF1C2F]
08 [2AA02B95] [9C1EE986]
09 [44C21240] [A7C00C58]
10 [B3063F24] [8E29F11D]
11 [1A22509C] [D8F1E0D6]
12 [0A8D4969] [4CCBADBA]
13 [930559A1] [70E4D989]
14 [45CC7741] [0951C51B]

––––––––––––––––––––––––––––––––-

Daryl Hall & John Oates - 14 Albums (1975 - 1990) [2011, Sony Music, SICP-20270~83]

CD10. Daryl Hall & John Oates - Rock 'N Soul Part 1 (1983)
Soul/Pop/Pop Rock | EAC Rip | Flac(Image) + Cue + Log | MP3 CBR 320Kbps
Scans(600dpi) -> 476 Mb | Sony Music, SICP-20279 | ~ 333 + 112 Mb

Daryl Hall & John Oates - 14 Albums (1975 - 1990) [2011, Sony Music, SICP-20270~83]

Tracklist:

01. Say It Isn't So
02. Sara Smile
03. She's Gone
04. Rich Girl
05. Kiss On My List
06. You Make My Dreams
07. Private Eyes
08. Adult Education
09. I Can't Go For That (No Can Do)
10. Maneater
11. One On One
12. Wait For Me (Live Version)

Exact Audio Copy V1.0 beta 1 from 15. November 2010

EAC extraction logfile from 31. March 2011, 21:44

Daryl Hall & John Oates / Rock 'N Soul Part 1

Used drive : HL-DT-STDVDRAM GSA-H60N Adapter: 2 ID: 0

Read mode : Secure
Utilize accurate stream : Yes
Defeat audio cache : Yes
Make use of C2 pointers : No

Read offset correction : 667
Overread into Lead-In and Lead-Out : No
Fill up missing offset samples with silence : Yes
Delete leading and trailing silent blocks : No
Null samples used in CRC calculations : Yes
Used interface : Native Win32 interface for Win NT & 2000

Used output format : Internal WAV Routines
Sample format : 44.100 Hz; 16 Bit; Stereo


TOC of the extracted CD

Track | Start | Length | Start sector | End sector
––––––––––––––––––––––––––––-
1 | 0:00.00 | 4:18.08 | 0 | 19357
2 | 4:18.08 | 3:10.05 | 19358 | 33612
3 | 7:28.13 | 3:27.36 | 33613 | 49173
4 | 10:55.49 | 2:25.46 | 49174 | 60094
5 | 13:21.20 | 3:53.61 | 60095 | 77630
6 | 17:15.06 | 3:06.18 | 77631 | 91598
7 | 20:21.24 | 3:28.22 | 91599 | 107220
8 | 23:49.46 | 5:27.04 | 107221 | 131749
9 | 29:16.50 | 3:45.34 | 131750 | 148658
10 | 33:02.09 | 4:32.53 | 148659 | 169111
11 | 37:34.62 | 3:56.36 | 169112 | 186847
12 | 41:31.23 | 6:03.45 | 186848 | 214117


Range status and errors

Selected range

Filename C:\Documents and Settings\Администратор\Рабочий стол\Rip by ALLexxess\Daryl Hall & John Oates\1983 Rock 'N Soul Part 1 (Sony Music JP Mini LP Blu-spec CD 2011)\Daryl Hall & John Oates - Rock 'N Soul Part 1.wav

Peak level 100.0 %
Extraction speed 0.7 X
Range quality 100.0 %
Test CRC 2DDC7171
Copy CRC 2DDC7171
Copy OK

No errors occurred


AccurateRip summary

Track 1 not present in database
Track 2 not present in database
Track 3 not present in database
Track 4 not present in database
Track 5 not present in database
Track 6 not present in database
Track 7 not present in database
Track 8 not present in database
Track 9 not present in database
Track 10 not present in database
Track 11 not present in database
Track 12 not present in database

None of the tracks are present in the AccurateRip database

End of status report

AUDIOCHECKER v2.0 beta (build 457) - by Dester - opdester@freemail.hu
~~~~~~~~~~~~~~~~~~~~~~~~~~~~~~~~~~
-=== DO NOT EDIT THIS FILE! ===-

Path: …\1983 Rock 'N Soul Part 1 (Sony Music JP Mini LP Blu-spec CD 2011)

01 -=- Daryl Hall & John Oates - Rock 'N Soul Part 1.flac -=- CDDA (100%)

86129956

[Verification date: 08.04.2011 17:12:26]
[Disc ID: 0013abda-00b98b0c-980b260c]
Disk not present in database.

Track [ CRC32 ] [W/O NULL] [ LOG ]
– [2DDC7171] [3BE4D85B] CRC32
01 [1169BEE0] [371D7E51]
02 [250DDADB] [DC730C82]
03 [3294123C] [7F8E5711]
04 [24C25376] [F2A2717E]
05 [473A7574] [D3A261C5]
06 [67B75A82] [BC66ED73]
07 [1BDF8847] [6E214DA6]
08 [D61AE0AC] [C518996E]
09 [96CF916E] [5CD4D010]
10 [A00E987C] [A49CDB62]
11 [C3E35DD2] [12C58BF8]
12 [90F2D160] [7D0764D7]

––––––––––––––––––––––––––––––––-

Daryl Hall & John Oates - 14 Albums (1975 - 1990) [2011, Sony Music, SICP-20270~83]

CD11. Daryl Hall & John Oates - Big Bam Boom (1984)
Soul/Pop/Pop Rock | EAC Rip | Flac(Image) + Cue + Log | MP3 CBR 320Kbps
Scans(600dpi) -> 304 Mb | Sony Music, SICP-20280 | ~ 504 + 163 Mb

Daryl Hall & John Oates - 14 Albums (1975 - 1990) [2011, Sony Music, SICP-20270~83]

Tracklist:

01. Dance On Your Knees
02. Out Of Touch
03. Method Of Modern Love
04. Bank On Your Love
05. Some Things Are Better Left Unsaid
06. Going Thru The Motions
07. Cold Dark And Yesterday
08. All American Girl
09. Possession Obsession

Bonus Tracks:

10. Out Of Touch (12" Version / Extended Version)
11. Method Of Modern Love (12" Version / Extended Mix)
12. Possession Obsession (12" Version / Special Mix)
13. Dance On Your Knees (12" Version / Extended Version)

Exact Audio Copy V1.0 beta 1 from 15. November 2010

EAC extraction logfile from 31. March 2011, 22:50

Daryl Hall & John Oates / Big Bam Boom

Used drive : HL-DT-STDVDRAM GSA-H60N Adapter: 2 ID: 0

Read mode : Secure
Utilize accurate stream : Yes
Defeat audio cache : Yes
Make use of C2 pointers : No

Read offset correction : 667
Overread into Lead-In and Lead-Out : No
Fill up missing offset samples with silence : Yes
Delete leading and trailing silent blocks : No
Null samples used in CRC calculations : Yes
Used interface : Native Win32 interface for Win NT & 2000

Used output format : Internal WAV Routines
Sample format : 44.100 Hz; 16 Bit; Stereo


TOC of the extracted CD

Track | Start | Length | Start sector | End sector
––––––––––––––––––––––––––––-
1 | 0:00.00 | 1:26.40 | 0 | 6489
2 | 1:26.40 | 4:22.13 | 6490 | 26152
3 | 5:48.53 | 5:34.37 | 26153 | 51239
4 | 11:23.15 | 4:24.42 | 51240 | 71081
5 | 15:47.57 | 5:27.43 | 71082 | 95649
6 | 21:15.25 | 5:39.03 | 95650 | 121077
7 | 26:54.28 | 4:40.55 | 121078 | 142132
8 | 31:35.08 | 4:28.21 | 142133 | 162253
9 | 36:03.29 | 4:39.37 | 162254 | 183215
10 | 40:42.66 | 7:39.22 | 183216 | 217662
11 | 48:22.13 | 7:50.20 | 217663 | 252932
12 | 56:12.33 | 6:31.16 | 252933 | 282273
13 | 62:43.49 | 6:39.71 | 282274 | 312269


Range status and errors

Selected range

Filename C:\Documents and Settings\Администратор\Рабочий стол\Rip by ALLexxess\Daryl Hall & John Oates\1984 Big Bam Boom (Sony Music JP Mini LP Blu-spec CD 2011)\Daryl Hall & John Oates - Big Bam Boom.wav

Peak level 100.0 %
Extraction speed 0.6 X
Range quality 100.0 %
Test CRC 4A5BDA28
Copy CRC 4A5BDA28
Copy OK

No errors occurred


AccurateRip summary

Track 1 not present in database
Track 2 not present in database
Track 3 not present in database
Track 4 not present in database
Track 5 not present in database
Track 6 not present in database
Track 7 not present in database
Track 8 not present in database
Track 9 not present in database
Track 10 not present in database
Track 11 not present in database
Track 12 not present in database
Track 13 not present in database

None of the tracks are present in the AccurateRip database

End of status report

AUDIOCHECKER v2.0 beta (build 457) - by Dester - opdester@freemail.hu
~~~~~~~~~~~~~~~~~~~~~~~~~~~~~~~~~~
-=== DO NOT EDIT THIS FILE! ===-

Path: …\1984 Big Bam Boom (Sony Music JP Mini LP Blu-spec CD 2011)

01 -=- Daryl Hall & John Oates - Big Bam Boom.flac -=- CDDA (100%)

265953572

[Verification date: 08.04.2011 17:13:05]
[Disc ID: 001d5d54-0130c5dd-cc10430d]
Disk not present in database.

Track [ CRC32 ] [W/O NULL] [ LOG ]
– [4A5BDA28] [63BBA00B] CRC32
01 [83A8A712] [AA1A4E3D]
02 [382D050E] [698FEB4D]
03 [D7AD96C4] [A5146400]
04 [2644A27E] [F3A0B719]
05 [71EC0527] [68BFC6C7]
06 [0CB080C6] [EBA145E4]
07 [7E7E323B] [A2EBC98A]
08 [BACEDFEC] [EC58B120]
09 [9CE086AA] [7888500A]
10 [CCE5E256] [6A4CAF18]
11 [EE7630AE] [90F4B452]
12 [971F6FFD] [5B5B2662]
13 [5F48D9B3] [F7FCE232]

––––––––––––––––––––––––––––––––-

Daryl Hall & John Oates - 14 Albums (1975 - 1990) [2011, Sony Music, SICP-20270~83]

CD12. Daryl Hall & John Oates - Live At The Apollo With David Ruffin & Eddie Kendrick (1985)
Soul/Pop/Pop Rock | EAC Rip | Flac(Image) + Cue + Log | MP3 CBR 320Kbps
Scans(600dpi) -> 360 Mb | Sony Music, SICP-20281 | ~ 393 + 120 Mb

Daryl Hall & John Oates - 14 Albums (1975 - 1990) [2011, Sony Music, SICP-20270~83]

Tracklist:

1. Apollo Medley
I. Get Ready
II. Ain't Too Proud To Beg
III. The Way You Do The Things You Do
IV. My Girl
2. When Something Is Wrong With My Baby
3. Everytime You Go Away
4. I Can't Go For That (No Can Do)
5. One On One
6. Possession Obsession
7. Adult Education

Exact Audio Copy V1.0 beta 1 from 15. November 2010

EAC extraction logfile from 31. March 2011, 20:56

Daryl Hall & John Oates / Live At The Apollo With David Ruffin & Eddie Kendrick

Used drive : HL-DT-STDVDRAM GSA-H60N Adapter: 2 ID: 0

Read mode : Secure
Utilize accurate stream : Yes
Defeat audio cache : Yes
Make use of C2 pointers : No

Read offset correction : 667
Overread into Lead-In and Lead-Out : No
Fill up missing offset samples with silence : Yes
Delete leading and trailing silent blocks : No
Null samples used in CRC calculations : Yes
Used interface : Native Win32 interface for Win NT & 2000

Used output format : Internal WAV Routines
Sample format : 44.100 Hz; 16 Bit; Stereo


TOC of the extracted CD

Track | Start | Length | Start sector | End sector
––––––––––––––––––––––––––––-
1 | 0:00.00 | 12:34.02 | 0 | 56551
2 | 12:34.02 | 4:24.50 | 56552 | 76401
3 | 16:58.52 | 7:49.47 | 76402 | 111623
4 | 24:48.24 | 7:46.33 | 111624 | 146606
5 | 32:34.57 | 5:52.33 | 146607 | 173039
6 | 38:27.15 | 6:05.37 | 173040 | 200451
7 | 44:32.52 | 6:26.13 | 200452 | 229414


Range status and errors

Selected range

Filename C:\Documents and Settings\Администратор\Рабочий стол\Rip by ALLexxess\Daryl Hall & John Oates\1985 Live At The Apollo (Sony Music JP Mini LP Blu-spec CD 2011)\Daryl Hall & John Oates - Live At The Apollo.wav

Peak level 100.0 %
Extraction speed 0.7 X
Range quality 100.0 %
Test CRC B16525D6
Copy CRC B16525D6
Copy OK

No errors occurred


AccurateRip summary

Track 1 not present in database
Track 2 not present in database
Track 3 not present in database
Track 4 not present in database
Track 5 not present in database
Track 6 not present in database
Track 7 not present in database

None of the tracks are present in the AccurateRip database

End of status report

AUDIOCHECKER v2.0 beta (build 457) - by Dester - opdester@freemail.hu
~~~~~~~~~~~~~~~~~~~~~~~~~~~~~~~~~~
-=== DO NOT EDIT THIS FILE! ===-

Path: …\1985 Live At The Apollo (Sony Music JP Mini LP Blu-spec CD 2011)

01 -=- Daryl Hall & John Oates - Live At The Apollo.flac -=- MPEG (95%)

150640804

[Verification date: 08.04.2011 17:13:40]
[Disc ID: 000f2b2c-00587aa6-5b0bf207]
Disk not present in database.

Track [ CRC32 ] [W/O NULL] [ LOG ]
– [B16525D6] [894CD193] CRC32
01 [2564014F] [88048E0D]
02 [B049D41E] [D48286E5]
03 [0B5B38E7] [4468E336]
04 [08CF47AB] [7A2BA4F1]
05 [40B8FBEA] [36F960F9]
06 [1C7BB514] [7E912796]
07 [70AA53A9] [36F53093]

AuSpec:
Daryl Hall & John Oates - 14 Albums (1975 - 1990) [2011, Sony Music, SICP-20270~83]

Horizontal thick line = 5 khz; thin line = 1 Khz

––––––––––––––––––––––––––––––––-

Daryl Hall & John Oates - 14 Albums (1975 - 1990) [2011, Sony Music, SICP-20270~83]

CD13. Daryl Hall & John Oates - Ooh Yeah! (1988)
Soul/Pop/Pop Rock | EAC Rip | Flac(Image) + Cue + Log | MP3 CBR 320Kbps
Scans(600dpi) -> 312 Mb | Sony Music, SICP-20282 | ~ 354 + 116 Mb

Daryl Hall & John Oates - 14 Albums (1975 - 1990) [2011, Sony Music, SICP-20270~83]

Tracklist:

01. Downtown Life
02. Everything Your Heart Desires
03. I'm In Pieces
04. Missed Opportunity
05. Talking All Night
06. Rockability
07. Rocket To God
08. Soul Love
09. Realove
10. Keep On Pushin' Love

Exact Audio Copy V1.0 beta 1 from 15. November 2010

EAC extraction logfile from 30. March 2011, 23:05

Daryl Hall & John Oates / Ooh Yeah!

Used drive : HL-DT-STDVDRAM GSA-H60N Adapter: 2 ID: 0

Read mode : Secure
Utilize accurate stream : Yes
Defeat audio cache : Yes
Make use of C2 pointers : No

Read offset correction : 667
Overread into Lead-In and Lead-Out : No
Fill up missing offset samples with silence : Yes
Delete leading and trailing silent blocks : No
Null samples used in CRC calculations : Yes
Used interface : Native Win32 interface for Win NT & 2000

Used output format : Internal WAV Routines
Sample format : 44.100 Hz; 16 Bit; Stereo


TOC of the extracted CD

Track | Start | Length | Start sector | End sector
––––––––––––––––––––––––––––-
1 | 0:00.00 | 4:27.72 | 0 | 20096
2 | 4:27.72 | 5:00.37 | 20097 | 42633
3 | 9:28.34 | 4:50.34 | 42634 | 64417
4 | 14:18.68 | 4:47.46 | 64418 | 85988
5 | 19:06.39 | 4:34.24 | 85989 | 106562
6 | 23:40.63 | 4:45.33 | 106563 | 127970
7 | 28:26.21 | 5:49.35 | 127971 | 154180
8 | 34:15.56 | 4:25.04 | 154181 | 174059
9 | 38:40.60 | 5:24.55 | 174060 | 198414
10 | 44:05.40 | 5:18.65 | 198415 | 222329


Range status and errors

Selected range

Filename C:\Documents and Settings\Администратор\Рабочий стол\Rip by ALLexxess\Daryl Hall & John Oates\1988 Ooh Yeah! (Sony Music JP Mini LP Blu-spec CD 2011)\Daryl Hall & John Oates - Ooh Yeah!.wav

Peak level 100.0 %
Extraction speed 0.6 X
Range quality 100.0 %
Test CRC 337AF536
Copy CRC 337AF536
Copy OK

No errors occurred


AccurateRip summary

Track 1 not present in database
Track 2 not present in database
Track 3 not present in database
Track 4 not present in database
Track 5 not present in database
Track 6 not present in database
Track 7 not present in database
Track 8 not present in database
Track 9 not present in database
Track 10 not present in database

None of the tracks are present in the AccurateRip database

End of status report

AUDIOCHECKER v2.0 beta (build 457) - by Dester - opdester@freemail.hu
~~~~~~~~~~~~~~~~~~~~~~~~~~~~~~~~~~
-=== DO NOT EDIT THIS FILE! ===-

Path: …\1988 Ooh Yeah! (Sony Music JP Mini LP Blu-spec CD 2011)

01 -=- Daryl Hall & John Oates - Ooh Yeah!.flac -=- CDDA (100%)

47569668

[Verification date: 08.04.2011 17:14:10]
[Disc ID: 00124272-0092ccb1-7e0b940a]
Disk not present in database.

Track [ CRC32 ] [W/O NULL] [ LOG ]
– [337AF536] [77A7F562] CRC32
01 [5A53127F] [F3E9CD28]
02 [E19FDEAA] [6EFA87D6]
03 [7A5B8489] [91D73015]
04 [319389B9] [5D643214]
05 [AC806A8A] [5BFCB6A3]
06 [666E38C0] [94253058]
07 [30342F4E] [5CB9CAD7]
08 [6C8D4D38] [CF741768]
09 [472948B2] [CE734A7C]
10 [D9AD145D] [1AF969E9]

––––––––––––––––––––––––––––––––-

Daryl Hall & John Oates - 14 Albums (1975 - 1990) [2011, Sony Music, SICP-20270~83]

CD14. Daryl Hall & John Oates - Change Of Season (1990)
Soul/Pop/Pop Rock | EAC Rip | Flac(Image) + Cue + Log | MP3 CBR 320Kbps
Scans(600dpi) -> 365 Mb | Sony Music, SICP-20283 | ~ 440 + 144 Mb

Daryl Hall & John Oates - 14 Albums (1975 - 1990) [2011, Sony Music, SICP-20270~83]

Tracklist:

01. So Close
02. Starting All Over Again
03. Sometimes A Mind Changes
04. Change Of Season
05. I Ain't Gonna Take It This Time
06. Everywhere I Look
07. Rip It Up
08. Give It Up (Old Habits)
09. Don't Hold Back Your Love
10. Halfway There
11. Only Love
12. Heavy Rain
13. So Close (Unplugged)

Exact Audio Copy V1.0 beta 1 from 15. November 2010

EAC extraction logfile from 30. March 2011, 23:59

Daryl Hall & John Oates / Change Of Season

Used drive : HL-DT-STDVDRAM GSA-H60N Adapter: 2 ID: 0

Read mode : Secure
Utilize accurate stream : Yes
Defeat audio cache : Yes
Make use of C2 pointers : No

Read offset correction : 667
Overread into Lead-In and Lead-Out : No
Fill up missing offset samples with silence : Yes
Delete leading and trailing silent blocks : No
Null samples used in CRC calculations : Yes
Used interface : Native Win32 interface for Win NT & 2000

Used output format : Internal WAV Routines
Sample format : 44.100 Hz; 16 Bit; Stereo


TOC of the extracted CD

Track | Start | Length | Start sector | End sector
––––––––––––––––––––––––––––-
1 | 0:00.00 | 4:39.74 | 0 | 20998
2 | 4:39.74 | 4:06.15 | 20999 | 39463
3 | 8:46.14 | 4:09.14 | 39464 | 58152
4 | 12:55.28 | 5:42.47 | 58153 | 83849
5 | 18:38.00 | 3:54.41 | 83850 | 101440
6 | 22:32.41 | 4:24.37 | 101441 | 121277
7 | 26:57.03 | 4:20.12 | 121278 | 140789
8 | 31:17.15 | 4:01.51 | 140790 | 158915
9 | 35:18.66 | 5:13.46 | 158916 | 182436
10 | 40:32.37 | 5:30.70 | 182437 | 207256
11 | 46:03.32 | 4:36.49 | 207257 | 228005
12 | 50:40.06 | 5:26.30 | 228006 | 252485
13 | 56:06.36 | 4:52.68 | 252486 | 274453


Range status and errors

Selected range

Filename C:\Documents and Settings\Администратор\Рабочий стол\Rip by ALLexxess\Daryl Hall & John Oates\1990 Change Of Season (Sony Music JP Mini LP Blu-spec CD 2011)\Daryl Hall & John Oates - Change Of Season.wav

Peak level 100.0 %
Extraction speed 0.4 X
Range quality 99.9 %
Test CRC 1A9EE371
Copy CRC 1A9EE371
Copy OK

No errors occurred


AccurateRip summary

Track 1 not present in database
Track 2 not present in database
Track 3 not present in database
Track 4 not present in database
Track 5 not present in database
Track 6 not present in database
Track 7 not present in database
Track 8 not present in database
Track 9 not present in database
Track 10 not present in database
Track 11 not present in database
Track 12 not present in database
Track 13 not present in database

None of the tracks are present in the AccurateRip database

End of status report

AUDIOCHECKER v2.0 beta (build 457) - by Dester - opdester@freemail.hu
~~~~~~~~~~~~~~~~~~~~~~~~~~~~~~~~~~
-=== DO NOT EDIT THIS FILE! ===-

Path: …\1990 Change Of Season (Sony Music JP Mini LP Blu-spec CD 2011)

01 -=- Daryl Hall & John Oates - Change Of Season.flac -=- CDDA (100%)

73202180

[Verification date: 08.04.2011 17:14:48]
[Disc ID: 001c86db-011ebbb8-af0e4b0d]
Disk not present in database.

Track [ CRC32 ] [W/O NULL] [ LOG ]
– [1A9EE371] [48735C4E] CRC32
01 [490E4BB9] [76809AC6]
02 [06F6D9A2] [BCFEB3B6]
03 [CE2E760D] [2982B8EF]
04 [76F79114] [903F2B01]
05 [C205836E] [D48D8ED9]
06 [61392803] [EF24195D]
07 [C2C5EB4C] [7028A0EB]
08 [6DE38F47] [F7CC9BED]
09 [87E6861D] [3857F7F9]
10 [8B71E5A6] [4BC8537A]
11 [D2C68F39] [4598028B]
12 [C4CE3BB0] [299DC059]
13 [2EFB6132] [27C460C4]

=============================

All thanks go to ALLexxess

Download Daryl Hall & John Oates - 14 Albums (1975 - 1990) [2011, Sony Music, SICP-2070~83]: