Tags
Language
Tags

Dave Koz - Lucky Man (1993)

Posted By: JET 1
Dave Koz - Lucky Man (1993)

Dave Koz - Lucky Man (1993)
EAC Rip | FLAC (Image) +CUE, LOG | 420 MB | Scans
Genre: Jazz, Smooth Jazz, Contemporary Jazz | Label: Capitol Records | Catalog Number: CDP-598892

Saxophonist Dave Koz has become one of the most successful and beloved instrumentalists of his time, and helped establish smooth jazz as a musical force to be reckoned with. His career catapulted with 1993's Lucky Man, one of Koz' slickest and most commercial releases (which is not a bad thing by any means) to date. The album has an undeniably crisp and clean feel, akin to the color schemes used in the artwork. The musical styles range from funky and peppy, as in the opening "Shakin' the Shack," "Silverlining," and the evergreen "You Make Me Smile," to tender and sweet, as in "Faces of the Heart," "Lucky Man," and "Tender Is the Night," which features hypnotic vocals courtesy of Phil Perry.

Exact Audio Copy V0.99 prebeta 4 from 23. January 2008

EAC extraction logfile from 1. August 2010, 20:00

Dave Koz / Lucky Man

Used drive : HL-DT-STDVDRAM GH22NS50 Adapter: 2 ID: 1

Read mode : Secure
Utilize accurate stream : Yes
Defeat audio cache : Yes
Make use of C2 pointers : No

Read offset correction : 667
Overread into Lead-In and Lead-Out : No
Fill up missing offset samples with silence : Yes
Delete leading and trailing silent blocks : No
Null samples used in CRC calculations : Yes
Used interface : Native Win32 interface for Win NT & 2000

Used output format : Internal WAV Routines
Sample format : 44.100 Hz; 16 Bit; Stereo


TOC of the extracted CD

Track | Start | Length | Start sector | End sector
––––––––––––––––––––––––––––-
1 | 0:00.00 | 6:05.62 | 0 | 27436
2 | 6:05.62 | 4:17.38 | 27437 | 46749
3 | 10:23.25 | 3:42.02 | 46750 | 63401
4 | 14:05.27 | 0:40.73 | 63402 | 66474
5 | 14:46.25 | 5:19.10 | 66475 | 90409
6 | 20:05.35 | 5:55.52 | 90410 | 117086
7 | 26:01.12 | 4:25.05 | 117087 | 136966
8 | 30:26.17 | 6:22.05 | 136967 | 165621
9 | 36:48.22 | 3:26.28 | 165622 | 181099
10 | 40:14.50 | 5:15.60 | 181100 | 204784
11 | 45:30.35 | 5:39.35 | 204785 | 230244
12 | 51:09.70 | 5:22.05 | 230245 | 254399
13 | 56:32.00 | 3:19.47 | 254400 | 269371


Range status and errors

Selected range

Filename D:\My Rips\Dave Koz - Lucky Man.wav

Peak level 100.0 %
Range quality 99.9 %
Test CRC 4424CAC8
Copy CRC 4424CAC8
Copy OK

No errors occurred


AccurateRip summary

Track 1 accurately ripped (confidence 36) [894981A5]
Track 2 accurately ripped (confidence 36) [AA3734A2]
Track 3 accurately ripped (confidence 36) [3BE50B9A]
Track 4 accurately ripped (confidence 35) [059AA0C5]
Track 5 accurately ripped (confidence 35) [48B371BA]
Track 6 accurately ripped (confidence 36) [638F499A]
Track 7 accurately ripped (confidence 36) [04B98064]
Track 8 accurately ripped (confidence 36) [75E47BE4]
Track 9 accurately ripped (confidence 36) [6CA7125C]
Track 10 accurately ripped (confidence 36) [A3359105]
Track 11 accurately ripped (confidence 32) [2EA77997]
Track 12 accurately ripped (confidence 32) [BEFBBAD5]
Track 13 accurately ripped (confidence 28) [631FC63B]

All tracks accurately ripped

End of status report

Tracklist :::
1. Shakin' the Shack - (with Robben Ford)
2. You Make Me Smile
3. Faces of the Heart
4. Don't Look Any Further (Prelude)
5. Don't Look Any Further
6. Tender Is the Night
7. Saxman - (with Maceo Parker/Clarence Clemons/Booker T. Jones)
8. After Dark
9. Lucky Man
10. Silver Lining
11. Wait a Little While
12. Show Me the Way
13. Misty

Personnel :::
Dave Koz - soprano, alto, tenor & baritone saxophones, background vocals, programming, EWI, keyboards
Zelma Davis - vocals
Charles Pettigrew - vocals
Edward James Olmos - spoken vocals
Jeff Lorber - piano, keyboards, percussion programming, synth bass
Brad Cole - piano, keyboards
Chester Thompson - organ
Claude Gaudette - keyboards, synth bass, programming
Jeff Koz - guitar, keyboards, programming
Teddy Castelucci - guitar
Carlos Rios - guitar
Buzz Feiten - guitar
Michael Thompson - guitar
Oliver Leiber - guitar
Alec Milstein - bass
Pino Palladino - bass
Rayford Griffin - drums
Ricky Lawson - drums
John Robinson - drums
Paulinho Da Costa - percussion
Lenny Castro - percussion
Dennis Lambert - background vocals, programming
Steven "Doc" Kupka - baritone saxophone
Greg Phillinganes - piano
Jheryl Lockhart, Jean McClain, Katrina Perkins, Evelyn King, Franne Golde, Evan Rogers, Phillip Ingram, Terry Young, MonaLisa, Gigi Worth, Alex Brown, Yvonne Williams, Katrina Perkins, Leslie Smith, Jeff Pescetto, Jim Gilstrap (background vocals)