Tags
Language
Tags

David Sanborn - A Change Of Heart (1987) {Warner}

Posted By: tiburon
David Sanborn - A Change Of Heart (1987) {Warner}

David Sanborn - A Change Of Heart (1987) {Warner}
EAC 1.0b3 | FLAC tracks level 8 | Cue+Log+M3U | Full Scans 300dpi | 278MB + 5% Recovery
MP3 CBR 320 Kbps | 109MB + 5% Recovery
Genre: Jazz-Funk, Smooth Jazz
David Sanborn - A Change Of Heart (1987) {Warner}

A Change of Heart is a fairly typical '80s outing by the popular R&B-ish altoist David Sanborn. The main difference from his past work is that the music often uses synthesizers and electronic rhythms to a greater degree than it had previously, but Sanborn's distinctive crying sound was still very much intact. The music is produced by Marcus Miller ("Chicago Song" and "Imogene"), Michael Colina, Ronnie Foster or Philippe Saisse; each of the producers plays keyboards and is responsible for the backgrounds behind the leader.
Track List
01. Chicago Song 6:26
02. Imogene 5:26
03. High Roller 4:39
04. Tintin 4:05
05. Breaking Point 4:26
06. A Change of Heart 5:07
07. Summer 5:45
08. The Dream 4:58

musicians
David Sanborn - alto sax
Marcus Miller - bass, keyboards, rhythm guitar
Steve Gadd - drums
Paulinho Da Costa - percussion
Don Grolnick - electric piano
Steve Ferrone - drums
John Mahoney – synthesizer
Hugh McCracken - rhythm and slide guitar
Nick Moroch - electric guitar
Carlos Rios - acoustic and electric guitars
John Robinson - drums
Philippe Saisse - synthesizer, programming, keyboards, guitar
Randy Waldman - keyboards
Casey Young - synthesizer, programming
Mac Rebennack - Piano
Mark Stevens - background vocals
Bernard Wright - synthesizer
Michael Sembello - synthesizer, background vocals
Mino Cinelu - percussion, drums
Mickey Curry - drums
Anthony Jackson - contrabass guitar
Michael Brecker - Synthesizer
Hiram Bullock - rhythm guitar
Michael Colina - synthesizer, programming
Rob Mounsey - synthesizer

Produced by Michael Colina, Marcus Miller, Ronnie Foster and Philippe Saisse


Exact Audio Copy V1.0 beta 3 from 29. August 2011

EAC extraction logfile from 23. September 2014, 11:46

David Sanborn / A Change Of Heart

Used drive : HL-DT-STDVDRAM GH20NS10 Adapter: 2 ID: 1

Read mode : Secure
Utilize accurate stream : Yes
Defeat audio cache : Yes
Make use of C2 pointers : No

Read offset correction : 667
Overread into Lead-In and Lead-Out : No
Fill up missing offset samples with silence : Yes
Delete leading and trailing silent blocks : No
Null samples used in CRC calculations : Yes
Used interface : Native Win32 interface for Win NT & 2000
Gap handling : Appended to previous track

Used output format : User Defined Encoder
Selected bitrate : 1024 kBit/s
Quality : High
Add ID3 tag : No
Command line compressor : C:\Program Files\Exact Audio Copy\Flac\flac.exe
Additional command line options : -8 -V -T "ARTIST=%artist%" -T "TITLE=%title%" -T "ALBUM=%albumtitle%" -T "DATE=%year%" -T "TRACKNUMBER=%tracknr%" -T "TOTALTRACKS=%numtracks%" -T "GENRE=%genre%" -T "ALBUMARTIST=%albumartist%" -T "ALBUM ARTIST=%albumartist%" -T "COMMENT=EAC Secure Mode, Test & Copy, AccurateRip, FLAC -8" %source%


TOC of the extracted CD

Track | Start | Length | Start sector | End sector
––––––––––––––––––––––––––––-
1 | 0:00.00 | 6:31.45 | 0 | 29369
2 | 6:31.45 | 5:25.45 | 29370 | 53789
3 | 11:57.15 | 4:39.57 | 53790 | 74771
4 | 16:36.72 | 4:07.65 | 74772 | 93361
5 | 20:44.62 | 4:28.63 | 93362 | 113524
6 | 25:13.50 | 5:07.72 | 113525 | 136621
7 | 30:21.47 | 5:45.18 | 136622 | 162514
8 | 36:06.65 | 4:59.12 | 162515 | 184951


Track 1

Filename D:\David Sanborn - A Change Of Heart (1987) [FLAC]\01 - Chicago Song.wav

Pre-gap length 0:00:02.00

Peak level 100.0 %
Extraction speed 5.1 X
Track quality 100.0 %
Test CRC DCC39899
Copy CRC DCC39899
Accurately ripped (confidence 6) [477403D4] (AR v2)
Copy OK

Track 2

Filename D:\David Sanborn - A Change Of Heart (1987) [FLAC]\02 - Imogene.wav

Pre-gap length 0:00:03.13

Peak level 68.6 %
Extraction speed 5.7 X
Track quality 100.0 %
Test CRC D093A715
Copy CRC D093A715
Accurately ripped (confidence 6) [E69C011A] (AR v2)
Copy OK

Track 3

Filename D:\David Sanborn - A Change Of Heart (1987) [FLAC]\03 - High Roller.wav

Peak level 100.0 %
Extraction speed 6.1 X
Track quality 100.0 %
Test CRC DC684B01
Copy CRC DC684B01
Accurately ripped (confidence 6) [8264B31F] (AR v2)
Copy OK

Track 4

Filename D:\David Sanborn - A Change Of Heart (1987) [FLAC]\04 - Tintin.wav

Pre-gap length 0:00:01.00

Peak level 90.9 %
Extraction speed 6.3 X
Track quality 100.0 %
Test CRC F11B3AFA
Copy CRC F11B3AFA
Accurately ripped (confidence 6) [455E4063] (AR v2)
Copy OK

Track 5

Filename D:\David Sanborn - A Change Of Heart (1987) [FLAC]\05 - Breaking Point.wav

Pre-gap length 0:00:01.20

Peak level 100.0 %
Extraction speed 6.8 X
Track quality 100.0 %
Test CRC FB8408AA
Copy CRC FB8408AA
Accurately ripped (confidence 6) [52714DA1] (AR v2)
Copy OK

Track 6

Filename D:\David Sanborn - A Change Of Heart (1987) [FLAC]\06 - A Change of Heart.wav

Pre-gap length 0:00:01.13

Peak level 92.4 %
Extraction speed 7.3 X
Track quality 100.0 %
Test CRC B1AB7594
Copy CRC B1AB7594
Accurately ripped (confidence 6) [CE9C18F9] (AR v2)
Copy OK

Track 7

Filename D:\David Sanborn - A Change Of Heart (1987) [FLAC]\07 - Summer.wav

Pre-gap length 0:00:02.10

Peak level 76.2 %
Extraction speed 7.8 X
Track quality 100.0 %
Test CRC EBB90DCD
Copy CRC EBB90DCD
Accurately ripped (confidence 6) [F4A4688F] (AR v2)
Copy OK

Track 8

Filename D:\David Sanborn - A Change Of Heart (1987) [FLAC]\08 - The Dream.wav

Pre-gap length 0:00:00.73

Peak level 84.9 %
Extraction speed 7.0 X
Track quality 99.9 %
Test CRC 84A888B3
Copy CRC 84A888B3
Accurately ripped (confidence 6) [E2335318] (AR v2)
Copy OK


All tracks accurately ripped

No errors occurred

End of status report

==== Log checksum 552D117A9819E0FE21BC2D59A963390AE1A122DE5AE4FE222C6EF60757C80961 ====


––––––––––––––––––––––––––––––––––––––––
Analyzed: David Sanborn / A Change Of Heart
––––––––––––––––––––––––––––––––––––––––

DR Peak RMS Duration Track
––––––––––––––––––––––––––––––––––––––––
DR14 0.00 dB -16.66 dB 6:32 01-Chicago Song
DR13 -3.27 dB -19.56 dB 5:26 02-Imogene
DR14 0.00 dB -16.52 dB 4:40 03-High Roller
DR13 -0.82 dB -16.42 dB 4:08 04-Tintin
DR15 0.00 dB -17.00 dB 4:29 05-Breaking Point
DR14 -0.68 dB -17.96 dB 5:08 06-A Change of Heart
DR12 -2.36 dB -16.42 dB 5:45 07-Summer
DR14 -1.41 dB -18.57 dB 4:59 08-The Dream
––––––––––––––––––––––––––––––––––––––––

Number of tracks: 8
Official DR value: DR14

Samplerate: 44100 Hz
Channels: 2
Bits per sample: 16
Bitrate: 866 kbps
Codec: FLAC
================================================================================

David Sanborn - A Change Of Heart (1987) {Warner}
David Sanborn - A Change Of Heart (1987) {Warner}
David Sanborn - A Change Of Heart (1987) {Warner}