Subcategories

Deacon Blue - When The World Knows Your Name (1989) [Re-Up]

Posted By: Designol
Deacon Blue - When The World Knows Your Name (1989) [Re-Up]

Deacon Blue - When The World Knows Your Name (1989)
EAC | FLAC | Image (Cue&Log) ~ 317 Mb | Mp3 (CBR320) ~ 114 Mb | Scans ~ 61 Mb
Pop/Rock, Alternative Pop/Rock, Sophisti-Pop | Label: CBS | # 463321 2 | 00:50:10

When The World Knows Your Name is the second album from the Scottish rock band Deacon Blue. It was released in 1989 and attained the number 1 chart position in the United Kingdom. "Real Gone Kid" was the band's first Top 10 hit single, reaching No. 8 in October 1988. "Wages Day", "Fergus Sings the Blues", "Love and Regret" and "Queen of the New Year" also reached the UK top 30, and all five of the album's singles made the top 10 of the Irish singles chart.

Their name may come from a Steely Dan song, but, as far as their musical makeup goes, Deacon Blue owes a lot more to Simple Minds and Prefab Sprout than the Dan. On When the World Knows Your Name, the band blends AOR, Celtic flourishes, and dashes of blue-eyed soul to create a polished album that, while it won't make any "best-of" lists in a hurry, has more than a few pleasures to offer nevertheless. Deacon Blue isn't on the mark all the time. They have their failings, notably a tendency to get overly precious and self-indulgent when trying too hard to be impressionistic on the slower songs toward album's end. But when they get it right, like on "Queen of the New Year," "Wages Day," "Real Gone Kid," and "Fergus Sings the Blues," their driving melodies and hooks are fine compensation. Ricky Ross' songwriting is accomplished enough when he's not striving too hard for poetic effect: his word-picture evocations of light and shade are particularly impressive. The material is mostly strong, if not uniformly so; the playing is rather more consistently focused and energetic. If Deacon Blue gets the balance right, and plays to their strengths, they could be rather more than the minor-league U2 they come off as on this album.

Review by Leslie Mathew, Allmusic.com

Deacon Blue - When The World Knows Your Name (1989) [Re-Up]



Tracklist:

01. Queen Of The New Year (03:35)
02. Wages Day (03:09)
03. Real Gone Kid (04:03)
04. Love And Regret (04:48)
05. Circus Lights (04:59)
06. This Changing Light (05:00)
07. Sad Loved Girl (01:11)
08. Fergus Sings The Blues (03:54)
09. The World Is Lit By Lightning (04:27)
10. Silhouette (03:18)
11. One Hundred Things (03:53)
12. Your Constant Heart (04:11)
13. Orphans (03:33)


Exact Audio Copy V1.0 beta 3 from 29. August 2011

Отчёт EAC об извлечении, выполненном 29. августа 2012, 21:58

Deacon Blue / When The World Knows Your Name

Дисковод: PIONEER BD-RW BDR-206D Adapter: 1 ID: 1

Режим чтения : Достоверность
Использование точного потока : Да
Отключение кэша аудио : Да
Использование указателей C2 : Нет

Коррекция смещения при чтении : 667
Способность читать области Lead-in и Lead-out : Нет
Заполнение пропущенных сэмплов тишиной : Да
Удаление блоков с тишиной в начале и конце : Нет
При вычислениях CRC использовались нулевые сэмплы : Да
Интерфейс : Встроенный Win32-интерфейс для Win NT/2000

Выходной формат : Пользовательский кодировщик
Выбранный битрейт : 1024 kBit/s
Качество : Высокий
Добавление ID3-тега : Нет
Утилита сжатия : H:\Program Files\Exact Audio Copy\FLAC\FLAC.EXE
Дополнительные параметры : -V -8 -T "Date=%year%" -T "Genre=%genre%" %source%


TOC извлечённого CD

Трек | Старт | Длительность | Начальный сектор | Конечный сектор
––––––––––––––––––––––––––––––––––-
1 | 0:00.00 | 3:35.65 | 0 | 16189
2 | 3:35.65 | 3:09.50 | 16190 | 30414
3 | 6:45.40 | 4:03.57 | 30415 | 48696
4 | 10:49.22 | 4:48.08 | 48697 | 70304
5 | 15:37.30 | 4:59.05 | 70305 | 92734
6 | 20:36.35 | 5:01.55 | 92735 | 115364
7 | 25:38.15 | 1:11.45 | 115365 | 120734
8 | 26:49.60 | 3:54.52 | 120735 | 138336
9 | 30:44.37 | 4:28.03 | 138337 | 158439
10 | 35:12.40 | 3:18.70 | 158440 | 173359
11 | 38:31.35 | 3:53.60 | 173360 | 190894
12 | 42:25.20 | 4:11.02 | 190895 | 209721
13 | 46:36.22 | 3:33.35 | 209722 | 225731


Характеристики диапазона извлечения и сообщения об ошибках

Выбранный диапазон

Имя файла L:\Audio Lossless\Deacon Blue. 1989 When The World Knows Your Name\Deacon Blue - When The World Knows Your Name.wav

Пиковый уровень 99.9 %
Скорость извлечения 1.7 X
Качество диапазона 100.0 %
CRC теста 5488866B
CRC копии 5488866B
Копирование… OK

Ошибок не произошло


AccurateRip: сводка

Трек 1 : извлечено точно (доверие 21) [4E74B2C6] (AR v2)
Трек 2 : извлечено точно (доверие 21) [6956526E] (AR v2)
Трек 3 : извлечено точно (доверие 21) [D455403F] (AR v2)
Трек 4 : извлечено точно (доверие 21) [A3925795] (AR v2)
Трек 5 : извлечено точно (доверие 21) [7D07332F] (AR v2)
Трек 6 : извлечено точно (доверие 21) [60D03722] (AR v2)
Трек 7 : извлечено точно (доверие 21) [73A755DC] (AR v2)
Трек 8 : извлечено точно (доверие 20) [2529E0D3] (AR v2)
Трек 9 : извлечено точно (доверие 19) [AA7B0FFC] (AR v2)
Трек 10 : извлечено точно (доверие 20) [0A0EA244] (AR v2)
Трек 11 : извлечено точно (доверие 20) [40369442] (AR v2)
Трек 12 : извлечено точно (доверие 20) [60B86418] (AR v2)
Трек 13 : извлечено точно (доверие 19) [CD5B5F3D] (AR v2)

Все треки извлечены точно

Конец отчёта

==== Контрольная сумма отчёта D67FDBAFC27A431AC7B42A10A74D52C114665ED53B8F7D24AFF0EA758806053C ====

foobar2000 1.2 / Dynamic Range Meter 1.1.1
log date: 2014-07-31 14:04:58

––––––––––––––––––––––––––––––––––––––––
Analyzed: Deacon Blue / When The World Knows Your Name
––––––––––––––––––––––––––––––––––––––––

DR Peak RMS Duration Track
––––––––––––––––––––––––––––––––––––––––
DR11 -1.21 dB -14.00 dB 3:36 01-Queen Of The New Year
DR12 -1.21 dB -14.57 dB 3:10 02-Wages Day
DR13 -1.21 dB -15.49 dB 4:04 03-Real Gone Kid
DR13 -1.21 dB -16.57 dB 4:48 04-Love And Regret
DR12 -0.01 dB -14.96 dB 4:59 05-Circus Lights
DR14 -0.01 dB -16.02 dB 5:02 06-This Changing Light
DR15 -2.01 dB -20.37 dB 1:12 07-Sad Loved Girl
DR12 -1.01 dB -14.85 dB 3:55 08-Fergus Sings The Blues
DR12 -1.01 dB -15.25 dB 4:28 09-The World Is Lit By Lightning
DR14 -1.01 dB -16.99 dB 3:19 10-Silhouette
DR12 -1.01 dB -14.86 dB 3:54 11-One Hundred Things
DR12 -1.01 dB -14.85 dB 4:11 12-Your Constant Heart
DR12 -2.50 dB -17.58 dB 3:33 13-Orphans
––––––––––––––––––––––––––––––––––––––––

Number of tracks: 13
Official DR value: DR13

Samplerate: 44100 Hz
Channels: 2
Bits per sample: 16
Bitrate: 883 kbps
Codec: FLAC
================================================================================

Deacon Blue - When The World Knows Your Name (1989) [Re-Up]

Deacon Blue - When The World Knows Your Name (1989) [Re-Up]