Tags
Language
Tags

Deathrow - Riders Of Doom (1986) [Remastered 2018] Digipak

Posted By: Andi_Deris
Deathrow - Riders Of Doom (1986) [Remastered 2018] Digipak

Deathrow - Riders Of Doom (1986) [Remastered 2018] Digipak
EAC Rip | FLAC: Image+Cue+Log | MP3 CBR 320 kbps | Scans
499 Mb | 163 Mb | 42 Mb | Time: 01:11:02
Noise Records | NOISECD053
Thrash Metal

German thrash metal from the mid 80's seems to have a revival these days. Bands like Exumer and Accuser released new longplayers during the last couple of years, the eight first Kreator records have been re-issued as being part of the 'Noise lebt!' campaign and now it's Deathrow that gets back on the radar. Deathrow’s debut album, "Riders of Doom" was originally released in 1986 and was an instant cult classic in the flourishing thrash metal scene.

"Riders of Doom" is the first album from the Ruhrpott-based quartet and it was originally released as "Satan's Gift". Even though Deathrow stood in the mighty shadow of bands like Kreator, Sodom and Destruction, the debut was highly acclaimed by fans. The quartet stood for authentic thrash metal that was raw and rough around the edges. The album achieved a cult status in the metallic underground and was more than just a decent result of hard work. In addition to this merciless aggressiveness Deathrow's sound included quite impressive guitar work with furious leads and solos. Songs like "Riders of Doom" and "Satans Gift" are still well crafted Teutonic thrash metal tracks that didn't loose any power over the last three decades. The re-issue of the album also includes some extras in the form of three demo songs and three songs from the rehearsal room.

Deathrow - Riders Of Doom (1986) [Remastered 2018] Digipak




Track Listing

01. Winds Of Death (02:38)
02. Satan's Gift (03:03)
03. Riders Of Doom (04:52)
04. Hell's Ascent (04:03)
05. Spider Attack (03:58)
06. Slaughtered (03:56)
07. Violent Omen (04:23)
08. Dark Tales (05:52)
09. Samhain (06:38)

Bonus Tracks

10. Hell's Ascent (Samhain Demo) (05:34)
11. Samhain (Samhain Demo) (06:52)
12. Riders Of Doom (Samhain Demo) (05:05)
13. Night Of The Wolf (Rehearsal 1985) (04:07)
14. Run (Rehearsal 1985) (04:41)
15. Screams Of Pain (Rehearsal 1985) (05:19)

Produced by Ralph Hubert & Andre Chipallier

The Band

• Milo - Bass, Vocals
• Thomas Priebe - Guitars
• Sven Flügge - Guitars
• Markus Hahn - Drums

Notes

Remastered by Andy Pearce

DELUXE EXPANDED EDITION

℗ & © 2018 Sanctuary Records Group Ltd., a BMG Company.
Manufactured in the EU.


Exact Audio Copy V1.3 from 2. September 2016

EAC extraction logfile from 14. April 2018, 12:01

Deathrow / Riders of Doom (2018)

Used drive : ATAPI iHAS122 W Adapter: 2 ID: 0

Read mode : Secure
Utilize accurate stream : Yes
Defeat audio cache : Yes
Make use of C2 pointers : No

Read offset correction : 48
Overread into Lead-In and Lead-Out : No
Fill up missing offset samples with silence : Yes
Delete leading and trailing silent blocks : No
Null samples used in CRC calculations : Yes
Used interface : Installed external ASPI interface

Used output format : User Defined Encoder
Selected bitrate : 1024 kBit/s
Quality : High
Add ID3 tag : No
Command line compressor : C:\Program Files\FLAC\flac.exe
Additional command line options : -V -8 -T "Date=%year%" -T "Genre=%genre%" -T"COMMENT=Ripped by Ilijan" -8 -V %source%


TOC of the extracted CD

Track | Start | Length | Start sector | End sector
––––––––––––––––––––––––––––-
1 | 0:00.00 | 2:37.69 | 0 | 11843
2 | 2:37.69 | 3:02.65 | 11844 | 25558
3 | 5:40.59 | 4:52.02 | 25559 | 47460
4 | 10:32.61 | 4:03.25 | 47461 | 65710
5 | 14:36.11 | 3:58.04 | 65711 | 83564
6 | 18:34.15 | 3:55.72 | 83565 | 101261
7 | 22:30.12 | 4:22.55 | 101262 | 120966
8 | 26:52.67 | 5:51.53 | 120967 | 147344
9 | 32:44.45 | 6:38.18 | 147345 | 177212
10 | 39:22.63 | 5:34.06 | 177213 | 202268
11 | 44:56.69 | 6:52.08 | 202269 | 233176
12 | 51:49.02 | 5:05.15 | 233177 | 256066
13 | 56:54.17 | 4:07.02 | 256067 | 274593
14 | 61:01.19 | 4:40.71 | 274594 | 295664
15 | 65:42.15 | 5:18.67 | 295665 | 319581


Range status and errors

Selected range

Filename D:\Deathrow - Riders of Doom (2018).wav

Peak level 97.0 %
Extraction speed 4.6 X
Range quality 100.0 %
Test CRC CD105E30
Copy CRC CD105E30
Copy OK

No errors occurred


AccurateRip summary

Track 1 not present in database
Track 2 not present in database
Track 3 not present in database
Track 4 not present in database
Track 5 not present in database
Track 6 not present in database
Track 7 not present in database
Track 8 not present in database
Track 9 not present in database
Track 10 not present in database
Track 11 not present in database
Track 12 not present in database
Track 13 not present in database
Track 14 not present in database
Track 15 not present in database

None of the tracks are present in the AccurateRip database

End of status report

–– CUETools DB Plugin V2.1.6

[CTDB TOCID: iIPMmoXsGGLSyZQfg3ouENDBq.E-] found
Submit result: iIPMmoXsGGLSyZQfg3ouENDBq.E- has been confirmed
Track | CTDB Status
1 | (1/1) Accurately ripped
2 | (1/1) Accurately ripped
3 | (1/1) Accurately ripped
4 | (1/1) Accurately ripped
5 | (1/1) Accurately ripped
6 | (1/1) Accurately ripped
7 | (1/1) Accurately ripped
8 | (1/1) Accurately ripped
9 | (1/1) Accurately ripped
10 | (1/1) Accurately ripped
11 | (1/1) Accurately ripped
12 | (1/1) Accurately ripped
13 | (1/1) Accurately ripped
14 | (1/1) Accurately ripped
15 | (1/1) Accurately ripped


==== Log checksum 046B6F4C8265602726723F15BA64CE22E96B45B4F8168E469371F29BC6AC42E3 ====


Many thanks to the original uploader: Ilijan

SEE also:
Deathrow 1987 Raging Steel [Remastered 2018] Digipak
Deathrow 1988 Deception Ignored [Remastered 2018] Digipak



Password: pass