Subcategories
Tags
Language
Tags

Delaney Bramlett - 'Some Things Coming' (1972) + 'Mobius Strip' (1973) 2 LP in 1 CD, Remastered Compilation 2011

Posted By: Designol
Delaney Bramlett - 'Some Things Coming' (1972) + 'Mobius Strip' (1973) 2 LP in 1 CD, Remastered Compilation 2011

Delaney Bramlett - 'Some Things Coming' (1972) + 'Mobius Strip' (1973)
2 LP in 1 CD, Remastered Compilation 2011
XLD | FLAC | Image (Cue&Log) ~ 380 Mb | Mp3 (CBR320) ~ 161 Mb | Scans ~ 174 Mb | 01:10:73
Blues-Rock, Rock & Roll, Blue-Eyed Soul, Soul-Blues | Label: Acadia | # ACAM 8171

2007 CD two-fer featuring a double dose of Delaney on one disc! Formerly of the much-loved duo Delaney & Bonnie, Something Is Coming was Delaney Bramlett's first solo album, released, in 1972 featuring Gloria Jones, the future Mrs. Marc Bolan, on backing vocals. Mobius Strip followed in 1973, a far stronger album that features the stand out track "Are You A Beatle Or A Rolling Stone'.

Alas, here we go again, the work of a quintessentially American artist being available only to the nations on the other sides of both ponds. In this case it's the great Delaney Bramlett – the man who managed to teach Eric Clapton how to sing, wrote one of his biggest hits, and produced his first solo album (anyone who has heard the original version of Clapton's self-titled debut album realizes with great clarity the superiority of Bramlett's version over the officially released one). This is the guy who, along with then-wife Bonnie (who was an Ikette), put together one of the greatest tours this side of the Mad Dogs & Englishmen thang in Great Britain, only to have it stolen by a record company eager to cash in on Clapton's rising star. The album? It's was called On Tour with Eric Clapton by Delaney & Bonnie & Friends. One more thing: Delaney taught Mr. George Harrison how to play the slide guitar because he is a monster on the six-string and plays second to none. Delaney & Bonnie Bramlett issued a handful of albums, including the greatest live-to-tape recorded album in the history of rock & roll: Motel Shot. It was done in a single night in a motel room with all manner of guests, from Mr. Clapton to Mr. Gram Parsons crowding the mikes. In addition, there is the joyous and powerful To Bonnie from Delaney. This pair of sides, Some Things Coming (a classic in its own right) and Mobius Strip, may not rank quite as high in the pantheon of believers as the aforementioned three, but perhaps they deserve to. And they do smoke – the former with its hard-driving Southern soul meets funk-happy rock band recorded and issued in 1972, and the latter with its larger, more ambitious follow-up in 1973.

Some Things Coming features Bramlett on lead vocals and guitars with a full-on horn section, Venetta Fields and Clydie King on backing vocals throughout, string arrangements by George Bohannon, percussionist Milt Holland, Ronnie Grayson on drums, bassist Robert Wilson, and B-3 boss Tim Hedding – the backing chorus added on several cuts includes future disco diva Gloria Jones and Shirley Matthews. The material is wide-ranging but always greasy. The opener is the driving funky Southern soul and gospel of "Over and Over"; it's revved to rockist hedonism with a splintering, overdriven guitar and popping bassline dueling to the death with double-time drums and an ambitious horn chart. There's the in-the-pocket ballad "Thank God," which manages to evoke both Ray Charles and '60s Nashville without blowing it. The gospel blues of "Please Accept My Love" is done in the utterly believable, wanton, pleading singing voice that Leon Russell and Bramlett shared – but Bramlett's range is wider. It gets downright hard and funky on "Keep It Going," a tune that Bramlett co-wrote with Elvin Bishop. This is snaky voodoo funk at its best. One can hear the Meters and a gospel choir meeting on the street corner where Saturday night reluctantly gives way to Sunday morning and the spirits are everywhere duking it out. Add the title track and the album is worth its weight in gold. Bramlett – via percussionist Holland with a kalimba, congas, and a boatload of hand percussion, and a gospel choir singing in Zulu – simply takes the innovation of Hugh Masakela into the rock and Southern soul idiom. He answers them, line for line, in English. It all flows together until it erupts in razor-sharp lead guitar lines; funked-out bass and drums are underscored by the B-3 in the middle eight before it gives way again to the chant. It's stunning – especially considering it's followed here with the traditional "Down by the Riverside," done with so much class you'd swear you were in church, except for maybe that guitar solo. Speaking of which, "Sit Right Down" offers one of the nastiest-sounding National Steel bottleneck guitars ever put in front of a mike in a studio.

Mobius Strip was recorded and released in 1973, during Bramlett's separation from Bonnie in the wake of their imminent divorce. Amazingly, it doesn't immediately show in the music. In fact, it's more joyous in places than predecessor Some Things Coming. That said, one has to wonder if Bramlett was losing it, given that its opener is titled "Are You a Beatle or a Rolling Stone." By rights it should be dreadful, but it's not. Bramlett's cornball humor aside, its tale of life on the road depicts the '70s in all of their decadent glory. It's also a savagely funky R&B-drenched rocker. The band on this set is a bit larger but is also leaner. Bramlett handles a lot of the backing vocals and percussion himself – offering his true worth as a singer. He plays guitar a lot more, too – each track is shot through with his nasty Telecaster and Stratocaster fills and solos. He's got Jim Gordon and Jerry Jumonville on saxes (the latter plays bagpipes à la Rufus Harley on one cut), and George Bohannon handles the charts for the horns on a few tracks. Bramlett does the rest, and the same core session players are used from Some Things Coming – essentially his road band of bassist Wilson, organist Hedding, and drummer Grayson. The tunes where there are other backing vocals feature Fields and King and something called the Hired Choir, as well as a "mini-choir": the children of Bramlett and King. (For Fleetwood Mac fanatics, this marks the very first recorded performance of Bekka Bramlett.) The opener and "What Am I Doin' (In a Place Like This)" could have come off Some Things Coming; they're raucous, rowdy, and drenched in the Muscle Shoals horn and rhythm section soul-meets-blues formula that crackles with power and sexual energy. But the changeup happens on the set's third track, a stripped-down ballad by B. Sharpe called "A Young Girl (In Her Garden)," which could have been composed by Jimmy Webb. The desperation in Bramlett's vocal reveals his precarious situation, caught between regret and the desire for love in his life. "Big Ol' Piece of Blues" is just what it says it is, and then comes the charging road band soul "Circles," which offers more naked confessionalism with the amazing call-and-response backing vocals and choir, in a completely hypnotic vocal pattern that matches the (no pun intended) circular rhythms employed by the drum kit and percussion section. The organ and horns here are transcendent; they offer the singer courage as he bares his ripped-up heart and lost sense of purpose for the listener. But the funky, gritty sound that typifies Bramlett's best work is everywhere and his arrangement for the chorus is astonishing.

"When a Man Is in Need of a Woman" is not a rewrite of the Percy Sledge hit; its strictly honest "let's look at this without pretense" delivery may be sung right out to Bonnie, or it may be sung to the heavens. Damn! The slide work and special synth effects on "I'm a M-A-N" are a changeup for the first few seconds before Bramlett roars like a lion and lets his slide do the talking, challenging Bohannon's horns to go the distance with him. Jim Hobson's piano is poignant here, and is the only thing that keeps the piece on the ground. The set closes with "California Rain," a ballad with Bramlett on his 12-string guitars, a B-3, piano, and a skeletal bassline that is every bit as poignant as any singer/songwriter tune that's ever been laid down, but Bramlett's singing is as expressive as ________ (name any great Atlantic or Stax male vocalist after Otis Redding). It's as sad a tune as you're likely to hear, but its music moves past grief and loneliness toward the willing to live another day. As the children's choir kicks in, all off-key and sincere, one can feel the sun coming through the clouds. What it all means, of course, is that Bramlett is a bona fide genius, and even if he never records another note, this is enough (but he's a chronic underachiever and should get off his butt and do so because he's still got it). These albums, ignored in America as they are, deserve to be heard, by many for the first time. And for those who caught them back in the day as Bowie, Kiss, and the New York Dolls were moving to the center of rock & roll's terminally short attention meter, they need to be reheard because they endure – they are as completely fearsomely soulful and true 35 years on as they were when issued. Order them at import prices, find them on second-hand vinyl – just go out and find them.

Review by Thom Jurek, Allmusic.com

Delaney Bramlett - 'Some Things Coming' (1972) + 'Mobius Strip' (1973) 2 LP in 1 CD, Remastered Compilation 2011



Tracklist:

01. Over And Over (3:02)
02. Thank God (3:22)
03. Please Accept My Love (3:23)
04. Keep It Going (4:29)
05. Some Things Coming (Heartbeat) (3:07)
06. Down By The Riverside (2:33)
07. Sit Right Down (3:07)
08. I'm Not Your Lover, I'm Your Lovee (4:33)
09. Try A Little Harder (6:13)
10. Are You A Beatle Or A Rolling Stone (3:25)
11. What Am I Doin' (In A Place Like This) (3:01)
12. A Young Girl (In Her Garden) (3:46)
13. Big Ol' Piece Of Blues (3:01)
14. Circles (5:08)
15. When A Man Is In Need Of A Woman (3:27)
16. I'm A M-A-N (4:39)
17. B.B's Blues (3:44)
18. A Little Bit Of You In Me (2:20)
19. California Rain (3:52)


X Lossless Decoder version 20170729 (150.3)

XLD extraction logfile from 2018-01-20 20:29:11 +0500

Delaney Bramlett / Some Things Coming & Mobius Strip

Used drive : HL-DT-ST DVDRAM GP60NS60 (revision PE00)
Media type : Pressed CD

Ripper mode : XLD Secure Ripper
Disable audio cache : OK for the drive with a cache less than 1375KiB
Make use of C2 pointers : NO
Read offset correction : 6
Max retry count : 20
Gap status : Analyzed, Appended

TOC of the extracted CD
Track | Start | Length | Start sector | End sector
––––––––––––––––––––––––––––-
1 | 00:00:00 | 03:01:60 | 0 | 13634
2 | 03:01:60 | 03:22:04 | 13635 | 28788
3 | 06:23:64 | 03:23:30 | 28789 | 44043
4 | 09:47:19 | 04:28:41 | 44044 | 64184
5 | 14:15:60 | 03:07:04 | 64185 | 78213
6 | 17:22:64 | 02:33:18 | 78214 | 89706
7 | 19:56:07 | 03:06:40 | 89707 | 103696
8 | 23:02:47 | 04:33:18 | 103697 | 124189
9 | 27:35:65 | 06:13:07 | 124190 | 152171
10 | 33:48:72 | 03:25:16 | 152172 | 167562
11 | 37:14:13 | 03:01:18 | 167563 | 181155
12 | 40:15:31 | 03:46:32 | 181156 | 198137
13 | 44:01:63 | 03:01:36 | 198138 | 211748
14 | 47:03:24 | 05:07:49 | 211749 | 234822
15 | 52:10:73 | 03:27:05 | 234823 | 250352
16 | 55:38:03 | 04:38:72 | 250353 | 271274
17 | 60:17:00 | 03:43:69 | 271275 | 288068
18 | 64:00:69 | 02:20:18 | 288069 | 298586
19 | 66:21:12 | 03:51:61 | 298587 | 315972

AccurateRip Summary (DiscID: 002f8d1f-02a02d86-16107413)
Track 01 : OK (v1+v2, confidence 5/5)
Track 02 : OK (v1+v2, confidence 5/5)
Track 03 : OK (v1+v2, confidence 5/5)
Track 04 : OK (v1+v2, confidence 5/5)
Track 05 : OK (v1+v2, confidence 5/5)
Track 06 : OK (v1+v2, confidence 5/5)
Track 07 : OK (v1+v2, confidence 5/5)
Track 08 : OK (v1+v2, confidence 5/5)
Track 09 : OK (v1+v2, confidence 5/5)
Track 10 : OK (v1+v2, confidence 5/5)
Track 11 : OK (v1+v2, confidence 5/5)
Track 12 : OK (v1+v2, confidence 5/5)
Track 13 : OK (v1+v2, confidence 5/5)
Track 14 : OK (v1+v2, confidence 5/5)
Track 15 : OK (v1+v2, confidence 5/5)
Track 16 : OK (v1+v2, confidence 5/5)
Track 17 : OK (v1+v2, confidence 5/5)
Track 18 : OK (v1+v2, confidence 5/5)
Track 19 : OK (v1+v2, confidence 5/5)
->All tracks accurately ripped.

All Tracks
Filename : /Users/mihail/Music/CDs/Delaney Bramlett - Some Things Coming & Mobius Strip.flac
Album gain : -2.67 dB
Peak : 0.851410
CRC32 hash (test run) : 43945FE3
CRC32 hash : 43945FE3
CRC32 hash (skip zero) : EFC31B37
Statistics
Read error : 0
Jitter error (maybe fixed) : 0
Retry sector count : 0
Damaged sector count : 0

Track 01
Pre-gap length : 00:02:00

Track gain : -2.81 dB
Peak : 0.588440
CRC32 hash (test run) : A2715C89
CRC32 hash : A2715C89
CRC32 hash (skip zero) : 21A3ECC3
AccurateRip v1 signature : 558F505A
AccurateRip v2 signature : 93E4466B
->Accurately ripped (v1+v2, confidence 3+2/5)
Statistics
Read error : 0
Jitter error (maybe fixed) : 0
Retry sector count : 0
Damaged sector count : 0

Track 02
Pre-gap length : 00:02:00

Track gain : -2.70 dB
Peak : 0.654968
CRC32 hash (test run) : 4123A284
CRC32 hash : 4123A284
CRC32 hash (skip zero) : EDC39BE1
AccurateRip v1 signature : 49069588
AccurateRip v2 signature : 1FA0B9F7
->Accurately ripped (v1+v2, confidence 3+2/5)
Statistics
Read error : 0
Jitter error (maybe fixed) : 0
Retry sector count : 0
Damaged sector count : 0

Track 03
Pre-gap length : 00:02:00

Track gain : -3.20 dB
Peak : 0.709015
CRC32 hash (test run) : A643F70E
CRC32 hash : A643F70E
CRC32 hash (skip zero) : 6BD658E5
AccurateRip v1 signature : 2579D525
AccurateRip v2 signature : 5566BA85
->Accurately ripped (v1+v2, confidence 3+2/5)
Statistics
Read error : 0
Jitter error (maybe fixed) : 0
Retry sector count : 0
Damaged sector count : 0

Track 04
Pre-gap length : 00:02:00

Track gain : -3.70 dB
Peak : 0.759399
CRC32 hash (test run) : 5D6DCBAC
CRC32 hash : 5D6DCBAC
CRC32 hash (skip zero) : 3CD562C1
AccurateRip v1 signature : 9AF2FF12
AccurateRip v2 signature : 87598BCB
->Accurately ripped (v1+v2, confidence 3+2/5)
Statistics
Read error : 0
Jitter error (maybe fixed) : 0
Retry sector count : 0
Damaged sector count : 0

Track 05
Pre-gap length : 00:02:00

Track gain : -1.96 dB
Peak : 0.805725
CRC32 hash (test run) : 8900E605
CRC32 hash : 8900E605
CRC32 hash (skip zero) : CE21EAC1
AccurateRip v1 signature : C05B9DF8
AccurateRip v2 signature : C07EEAE8
->Accurately ripped (v1+v2, confidence 3+2/5)
Statistics
Read error : 0
Jitter error (maybe fixed) : 0
Retry sector count : 0
Damaged sector count : 0

Track 06
Pre-gap length : 00:02:00

Track gain : -3.35 dB
Peak : 0.619476
CRC32 hash (test run) : 05FCB942
CRC32 hash : 05FCB942
CRC32 hash (skip zero) : 7E72EE1E
AccurateRip v1 signature : 8101A32B
AccurateRip v2 signature : E75E614C
->Accurately ripped (v1+v2, confidence 3+2/5)
Statistics
Read error : 0
Jitter error (maybe fixed) : 0
Retry sector count : 0
Damaged sector count : 0

Track 07
Pre-gap length : 00:02:00

Track gain : -2.86 dB
Peak : 0.645264
CRC32 hash (test run) : A6B2E585
CRC32 hash : A6B2E585
CRC32 hash (skip zero) : 3783CEFC
AccurateRip v1 signature : FDFD8058
AccurateRip v2 signature : E154B992
->Accurately ripped (v1+v2, confidence 3+2/5)
Statistics
Read error : 0
Jitter error (maybe fixed) : 0
Retry sector count : 0
Damaged sector count : 0

Track 08
Pre-gap length : 00:02:00

Track gain : -3.02 dB
Peak : 0.744324
CRC32 hash (test run) : B734BFDD
CRC32 hash : B734BFDD
CRC32 hash (skip zero) : 176FD0F8
AccurateRip v1 signature : 4079A2B2
AccurateRip v2 signature : B691E079
->Accurately ripped (v1+v2, confidence 3+2/5)
Statistics
Read error : 0
Jitter error (maybe fixed) : 0
Retry sector count : 0
Damaged sector count : 0

Track 09
Pre-gap length : 00:02:00

Track gain : -3.15 dB
Peak : 0.673553
CRC32 hash (test run) : FC6AB640
CRC32 hash : FC6AB640
CRC32 hash (skip zero) : 8FAAE006
AccurateRip v1 signature : B48E0B36
AccurateRip v2 signature : CC9A41AB
->Accurately ripped (v1+v2, confidence 3+2/5)
Statistics
Read error : 0
Jitter error (maybe fixed) : 0
Retry sector count : 0
Damaged sector count : 0

Track 10
Pre-gap length : 00:02:00

Track gain : -0.26 dB
Peak : 0.755432
CRC32 hash (test run) : D5EEBBE9
CRC32 hash : D5EEBBE9
CRC32 hash (skip zero) : 19E420C2
AccurateRip v1 signature : AAF3FFAA
AccurateRip v2 signature : 33FB5A4A
->Accurately ripped (v1+v2, confidence 3+2/5)
Statistics
Read error : 0
Jitter error (maybe fixed) : 0
Retry sector count : 0
Damaged sector count : 0

Track 11
Pre-gap length : 00:02:00

Track gain : -2.24 dB
Peak : 0.781982
CRC32 hash (test run) : D428D1E3
CRC32 hash : D428D1E3
CRC32 hash (skip zero) : 5472B6E5
AccurateRip v1 signature : 20512141
AccurateRip v2 signature : FD7087EF
->Accurately ripped (v1+v2, confidence 3+2/5)
Statistics
Read error : 0
Jitter error (maybe fixed) : 0
Retry sector count : 0
Damaged sector count : 0

Track 12
Pre-gap length : 00:02:00

Track gain : -2.76 dB
Peak : 0.851410
CRC32 hash (test run) : 80F9F8BA
CRC32 hash : 80F9F8BA
CRC32 hash (skip zero) : 2D4C5720
AccurateRip v1 signature : 6838E66E
AccurateRip v2 signature : C7707A8A
->Accurately ripped (v1+v2, confidence 3+2/5)
Statistics
Read error : 0
Jitter error (maybe fixed) : 0
Retry sector count : 0
Damaged sector count : 0

Track 13
Pre-gap length : 00:02:00

Track gain : -1.44 dB
Peak : 0.725403
CRC32 hash (test run) : 17CB9B46
CRC32 hash : 17CB9B46
CRC32 hash (skip zero) : 427A8F3B
AccurateRip v1 signature : D2FC0F0F
AccurateRip v2 signature : C983A726
->Accurately ripped (v1+v2, confidence 3+2/5)
Statistics
Read error : 0
Jitter error (maybe fixed) : 0
Retry sector count : 0
Damaged sector count : 0

Track 14
Pre-gap length : 00:02:00

Track gain : -1.66 dB
Peak : 0.688934
CRC32 hash (test run) : 4D5B2CB5
CRC32 hash : 4D5B2CB5
CRC32 hash (skip zero) : F7064E0D
AccurateRip v1 signature : 37839CCA
AccurateRip v2 signature : E30A44D8
->Accurately ripped (v1+v2, confidence 3+2/5)
Statistics
Read error : 0
Jitter error (maybe fixed) : 0
Retry sector count : 0
Damaged sector count : 0

Track 15
Pre-gap length : 00:02:00

Track gain : -3.00 dB
Peak : 0.744019
CRC32 hash (test run) : 25D707EF
CRC32 hash : 25D707EF
CRC32 hash (skip zero) : F1629DAA
AccurateRip v1 signature : D1C54A97
AccurateRip v2 signature : 76194340
->Accurately ripped (v1+v2, confidence 3+2/5)
Statistics
Read error : 0
Jitter error (maybe fixed) : 0
Retry sector count : 0
Damaged sector count : 0

Track 16
Pre-gap length : 00:02:00

Track gain : -2.79 dB
Peak : 0.664459
CRC32 hash (test run) : 41D51458
CRC32 hash : 41D51458
CRC32 hash (skip zero) : 44834B61
AccurateRip v1 signature : 21D03EDB
AccurateRip v2 signature : 471996BE
->Accurately ripped (v1+v2, confidence 3+2/5)
Statistics
Read error : 0
Jitter error (maybe fixed) : 0
Retry sector count : 0
Damaged sector count : 0

Track 17
Pre-gap length : 00:02:00

Track gain : -1.83 dB
Peak : 0.679749
CRC32 hash (test run) : D96F93A4
CRC32 hash : D96F93A4
CRC32 hash (skip zero) : 50CA84D9
AccurateRip v1 signature : 19135B89
AccurateRip v2 signature : 39BA9DB1
->Accurately ripped (v1+v2, confidence 3+2/5)
Statistics
Read error : 0
Jitter error (maybe fixed) : 0
Retry sector count : 0
Damaged sector count : 0

Track 18
Pre-gap length : 00:02:00

Track gain : -1.82 dB
Peak : 0.652008
CRC32 hash (test run) : D1BF833C
CRC32 hash : D1BF833C
CRC32 hash (skip zero) : C9E942AA
AccurateRip v1 signature : 4E89059A
AccurateRip v2 signature : 329A91F0
->Accurately ripped (v1+v2, confidence 3+2/5)
Statistics
Read error : 0
Jitter error (maybe fixed) : 0
Retry sector count : 0
Damaged sector count : 0

Track 19
Pre-gap length : 00:02:00

Track gain : -2.11 dB
Peak : 0.676331
CRC32 hash (test run) : 597BC3C2
CRC32 hash : 597BC3C2
CRC32 hash (skip zero) : 45C03EEE
AccurateRip v1 signature : 38517F4C
AccurateRip v2 signature : E9FB1A32
->Accurately ripped (v1+v2, confidence 3+2/5)
Statistics
Read error : 0
Jitter error (maybe fixed) : 0
Retry sector count : 0
Damaged sector count : 0

No errors occurred

End of status report

––-BEGIN XLD SIGNATURE––-
BLv17ozNQKDIQTuUDIv4pLDNLRrJ.Byr9mT6ZxDHm8kOEI2NEjs.SEVs40CPGXdu5ldS4fU1K2g0B0zdk0j5JrAWZ5DiwH4hGb_EsdW
––-END XLD SIGNATURE––-

foobar2000 1.2 / Dynamic Range Meter 1.1.1
log date: 2018-01-28 20:00:13

––––––––––––––––––––––––––––––––––––––––
Analyzed: Delaney Bramlett / Some Things Coming & Mobius Strip
––––––––––––––––––––––––––––––––––––––––

DR Peak RMS Duration Track
––––––––––––––––––––––––––––––––––––––––
DR10 -4.61 dB -16.52 dB 3:02 01-Over And Over
DR10 -3.68 dB -16.53 dB 3:22 02-Thank God
DR10 -2.99 dB -16.52 dB 3:23 03-Please Accept My Love
DR11 -2.39 dB -16.47 dB 4:29 04-Keep It Going
DR12 -1.88 dB -16.55 dB 3:07 05-Some Things Coming (Heartbeat)
DR9 -4.16 dB -16.56 dB 2:33 06-Down By The Riverside
DR10 -3.81 dB -16.53 dB 3:07 07-Sit Right Down
DR11 -2.56 dB -16.47 dB 4:33 08-I'm Not Your Lover, I'm Your Lovee
DR11 -3.43 dB -16.48 dB 6:13 09-Try A Little Harder
DR12 -2.44 dB -16.56 dB 3:25 10-Are You A Beatle Or A Rolling Stone
DR11 -2.14 dB -16.53 dB 3:01 11-What Am I Doin' (In A Place Like This)
DR11 -1.40 dB -16.55 dB 3:46 12-A Young Girl (In Her Garden)
DR11 -2.79 dB -16.54 dB 3:01 13-Big Ol' Piece Of Blues
DR10 -3.24 dB -16.50 dB 5:08 14-Circles
DR11 -2.57 dB -16.49 dB 3:27 15-When A Man Is In Need Of A Woman
DR11 -3.55 dB -16.47 dB 4:39 16-I'm A M-A-N
DR11 -3.35 dB -16.52 dB 3:44 17-B.B's Blues
DR11 -3.71 dB -16.55 dB 2:20 18-A Little Bit Of You In Me
DR10 -3.40 dB -16.50 dB 3:52 19-California Rain
––––––––––––––––––––––––––––––––––––––––

Number of tracks: 19
Official DR value: DR11

Samplerate: 44100 Hz
Channels: 2
Bits per sample: 16
Bitrate: 755 kbps
Codec: FLAC
================================================================================

Delaney Bramlett - 'Some Things Coming' (1972) + 'Mobius Strip' (1973) 2 LP in 1 CD, Remastered Compilation 2011

Delaney Bramlett - 'Some Things Coming' (1972) + 'Mobius Strip' (1973) 2 LP in 1 CD, Remastered Compilation 2011

All thanks to original releaser - squirr

More interesting music in My Blog