Tags
Language
Tags

Demis Roussos - Souvenirs (1975) Expanded Remastered Reissue 2016 [Re-Up]

Posted By: Designol
Demis Roussos - Souvenirs (1975) Expanded Remastered Reissue 2016 [Re-Up]

Demis Roussos - Souvenirs (1975) Expanded Remastered Reissue 2016
EAC | FLAC | Image (Cue&Log) ~ 366 Mb | Mp3 (CBR320) ~ 128 Mb | Scans included
Vocal Pop, Greek Pop, Disco, Chanson | Label: Universal | # 536 972-4 | Time: 00:48:27

Singer Demis Roussos, known for his dramatic, operatic vocal stylings, was born Artemios Ventouris Roussos in Alexandria, Egypt, on June 15, 1946, to Greek expatriate parents. In the early '60s, however, the family decided to return to their homeland, and once there, the young Roussos (who had studied trumpet and sung in the church choir in Egypt) began playing in local bands. One of these was Aphrodite's Child, which also featured Vangelis Papatanassiou and Lucas Sideras. A huge hit in Europe, especially France, the band released a handful of albums before breaking up in 1971. With his label contacts in place, however, Roussos was able to secure a deal as a solo recording artist, and later that same year issued the single "We Shall Dance," also included on the album On the Greek Side of My Mind. The 1970s were a prolific time for Roussos, and he released a number of singles and albums that charted highly on the European and Latin American charts. In 1978 the singer decided to retire, and moved to Malibu Beach, where he kept a lower profile. Eventually he moved back to Greece, however, and it was there from which he boarded TWA flight 847 to Rome on June 14, 1985. The plane was hijacked by members of Hezbollah and Islamic Jihad, and Roussos and his wife, along with the other passengers, were held captive for a few days. The experience changed his life, and he decided the best way he could help others and promote understanding in the world was by returning to music. The Story of Demis Roussos came out shortly thereafter, and for a short while the singer's career was reignited, especially in southern Europe. Demis Roussos died in Athens in January 2015; he was 68 years old.

Review by Marisa Brown, Allmusic.com

Demis Roussos at Wiki

Tracklist:

01. Sing An Ode To Love (04:09)
02. Midnight Is The Time I Need You (02:56)
03. I`ll Be Your Friend (04:07)
04. Action Lady (02:59)
05. Winter Rains (03:39)
06. From Souvenirs To Souvenirs (02:35)
07. Trying To Catch The Wind (03:16)
08. White Wings (03:29)
09. Tell Me Now (02:23)
10. Names (04:18)
11. Perdoname (02:58)
12. The Secret In Your Eyes (03:12)
13. A Flower`s All You Need (05:16)
14. I Like The World (03:04)


Exact Audio Copy V1.3 from 2. September 2016

Отчёт EAC об извлечении, выполненном 22. февраля 2017, 16:37

Demis Roussos / Souvenirs

Дисковод: ASUS DRW-24B3ST Adapter: 1 ID: 0

Режим чтения : Достоверность
Использование точного потока : Да
Отключение кэша аудио : Да
Использование указателей C2 : Нет

Коррекция смещения при чтении : 6
Способность читать области Lead-in и Lead-out : Нет
Заполнение пропущенных сэмплов тишиной : Да
Удаление блоков с тишиной в начале и конце : Нет
При вычислениях CRC использовались нулевые сэмплы : Да
Интерфейс : Встроенный Win32-интерфейс для Win NT/2000

Выходной формат : Пользовательский кодировщик
Выбранный битрейт : 128 kBit/s
Качество : Высокий
Добавление ID3-тега : Нет
Утилита сжатия : C:\Program Files (x86)\Exact Audio Copy\Flac\flac.exe
Дополнительные параметры : -V -8 -T "Date=%year%" -T "Genre=%genre%" %source%


TOC извлечённого CD

Трек | Старт | Длительность | Начальный сектор | Конечный сектор
––––––––––––––––––––––––––––––––––-
1 | 0:00.00 | 4:09.60 | 0 | 18734
2 | 4:09.60 | 2:56.61 | 18735 | 31995
3 | 7:06.46 | 4:07.00 | 31996 | 50520
4 | 11:13.46 | 2:59.24 | 50521 | 63969
5 | 14:12.70 | 3:39.08 | 63970 | 80402
6 | 17:52.03 | 2:35.39 | 80403 | 92066
7 | 20:27.42 | 3:16.00 | 92067 | 106766
8 | 23:43.42 | 3:29.47 | 106767 | 122488
9 | 27:13.14 | 2:23.17 | 122489 | 133230
10 | 29:36.31 | 4:18.56 | 133231 | 152636
11 | 33:55.12 | 2:58.61 | 152637 | 166047
12 | 36:53.73 | 3:12.65 | 166048 | 180512
13 | 40:06.63 | 5:16.39 | 180513 | 204251
14 | 45:23.27 | 3:04.15 | 204252 | 218066


Характеристики диапазона извлечения и сообщения об ошибках

Выбранный диапазон

Имя файла E:\Раздачи\Папки\Demis Roussos - Souvenirs\Demis Roussos - Souvenirs.wav

Пиковый уровень 100.0 %
Скорость извлечения 5.6 X
Качество диапазона 100.0 %
CRC теста CC6CECD8
CRC копии CC6CECD8
Копирование… OK

Ошибок не произошло


AccurateRip: сводка

Трек 1 : извлечено точно (доверие 1) [4078C3E2] (AR v2)
Трек 2 : извлечено точно (доверие 1) [534F5D70] (AR v2)
Трек 3 : извлечено точно (доверие 1) [7384483D] (AR v2)
Трек 4 : извлечено точно (доверие 1) [BBDEDD00] (AR v2)
Трек 5 : извлечено точно (доверие 1) [5F000E65] (AR v2)
Трек 6 : извлечено точно (доверие 1) [82CCFEC6] (AR v2)
Трек 7 : извлечено точно (доверие 1) [8685928B] (AR v2)
Трек 8 : извлечено точно (доверие 1) [63EC8AC5] (AR v2)
Трек 9 : извлечено точно (доверие 1) [529FEB01] (AR v2)
Трек 10 : извлечено точно (доверие 1) [10AB74A9] (AR v2)
Трек 11 : извлечено точно (доверие 1) [07160529] (AR v2)
Трек 12 : извлечено точно (доверие 1) [D23763BF] (AR v2)
Трек 13 : извлечено точно (доверие 1) [604731E5] (AR v2)
Трек 14 : извлечено точно (доверие 1) [D1B97786] (AR v2)

Все треки извлечены точно

Конец отчёта

==== Контрольная сумма отчёта 5FAF7FB422F22B74F76F614795FEA6F289D5942AE7CF91B69CFC14DA6BCBDDD4 ====

foobar2000 1.2 / Dynamic Range Meter 1.1.1
log date: 2017-02-24 00:25:54

––––––––––––––––––––––––––––––––––––––––
Analyzed: Demis Roussos / Souvenirs
––––––––––––––––––––––––––––––––––––––––

DR Peak RMS Duration Track
––––––––––––––––––––––––––––––––––––––––
DR10 -0.32 dB -13.78 dB 4:10 01-Sing An Ode To Love
DR12 0.00 dB -12.93 dB 2:57 02-Midnight Is The Time I Need You
DR11 0.00 dB -11.87 dB 4:07 03-I`ll Be Your Friend
DR13 0.00 dB -13.60 dB 2:59 04-Action Lady
DR11 0.00 dB -14.45 dB 3:39 05-Winter Rains
DR11 0.00 dB -12.65 dB 2:36 06-From Souvenirs To Souvenirs
DR11 0.00 dB -12.76 dB 3:16 07-Trying To Catch The Wind
DR10 0.00 dB -12.10 dB 3:30 08-White Wings
DR12 0.00 dB -13.07 dB 2:23 09-Tell Me Now
DR11 0.00 dB -12.24 dB 4:19 10-Names
DR11 0.00 dB -12.53 dB 2:59 11-Perdoname
DR11 -0.10 dB -13.67 dB 3:13 12-The Secret In Your Eyes
DR10 0.00 dB -11.80 dB 5:17 13-A Flower`s All You Need
DR10 0.00 dB -11.10 dB 3:04 14-I Like The World
––––––––––––––––––––––––––––––––––––––––

Number of tracks: 14
Official DR value: DR11

Samplerate: 44100 Hz
Channels: 2
Bits per sample: 16
Bitrate: 975 kbps
Codec: FLAC
================================================================================

Demis Roussos - Souvenirs (1975) Expanded Remastered Reissue 2016 [Re-Up]

Demis Roussos - Souvenirs (1975) Expanded Remastered Reissue 2016 [Re-Up]

All thanks to original releaser - eloychik

More interesting music in My Blog