Subcategories

Deniece Williams - My Melody (1981) [1986, 1st CD Issue]

Posted By: BlondStyle
Deniece Williams - My Melody (1981) [1986, 1st CD Issue]

Deniece Williams - My Melody (1981) [1986, 1st CD Issue]
R&B, Soul, Smooth Soul, Quiet Storm | EAC Rip | FLAC, Img+CUE+LOG+Scans (JPEG) | 39:10 | 263,03 Mb
Label: American Recording Company (ARC)/Columbia (USA) | Cat.# CK 37048 | Released: 1986 (1981-03-13)
Deniece Williams - My Melody (1981) [1986, 1st CD Issue]

"My Melody" is the 5th studio album by American singer Deniece Williams, released in March 1981 by ARC/Columbia Records. The album reached #13 on the Billboard Top Soul Albums chart. "My Melody" has been certified Gold in the US by the RIAA.
~Wikipedia

Deniece Williams - My Melody (1981) [1986, 1st CD Issue]

Deniece's heavenly soprano is as impressive as ever under the guidance of producer Thom Bell. The sweet Philly sound architect keeps Williams' expressive, high-range vocals under wraps, transforming her into a bel canto singer on eight delightful selections. Highlights include the R&B hit "Silly," "Strangers," and the lovely Stylistics-inflected "You're All That Matters." Bell departs from signature sound on the reggae-drenched "Suspicious," but Williams handles the jerk groove as well as she does the ethereal "Sweet Surrender."
~Review by Andrew Hamilton

Deniece Williams - My Melody (1981) [1986, 1st CD Issue]

Deniece Williams - My Melody (1981) [1986, 1st CD Issue]




Release of the album: 1981, March, 13 [LP American Recording Company (ARC)/Columbia, Cat.# FC 37048, USA]
Release of this CD: 1986 [CD American Recording Company (ARC)/Columbia (USA), Cat.# CK 37048 / UPC: 07464370482]

Credits:

Arranged By, Conductor – Thom Bell
Art Direction [Art Director] – Desmond Strobel
Backing Vocals – Carl Helm, George Merrill, Thom Bell
Bass – Bob Babbitt
Coordinator [Production] – Bo Ryan, JoDee Omer
Drums – Charles Collins
Guitar – Bill Neale, Bobby Eli
Keyboards – George Merrill, Thom Bell
Management – Alan Mink, Sherwin Bash
Mixed By [Engineer] – Don Murray
Percussion – Ed Shea, Larry Washington
Photography By – Charles Bush
Producer – Deniece Williams, Thom Bell
Recorded By [Engineers For Rhythm Tracks And Vocals] – Don Murray, Jim Gallagher
Recorded By [Engineers For Strings And Horns] – Arthur Stoppe, Jim Gallagher
Strings, Horns – Don Renaldo


Tracklist:

01. My Melody (04:11)
(Thom Bell, Deniece Williams)
02. It's Your Conscience (04:53)
(Thom Bell, Deniece Williams)
03. Silly (05:56)
(Fritz Baskett, Clarence McDonald, Deniece Williams)
04. Strangers (06:26)
(Fritz Baskett, Clarence McDonald, Deniece Williams)
05. What Two Can Do (03:54)
(Thom Bell, Deniece Williams)
06. You're All That Matters (05:17)
(Thom Bell, Preston Glass, Alan Glass, Deniece Williams)
07. Suspicious (04:14)
(Thom Bell, Deniece Williams)
08. Sweet Surrender (04:16)
(Thom Bell, Deniece Williams)

Exact Audio Copy V1.3 from 2. September 2016

EAC extraction logfile from 18. February 2020, 18:08

Deniece Williams / My Melody

Used drive : PIONEER BD-RW BDR-208D Adapter: 1 ID: 0

Read mode : Secure
Utilize accurate stream : Yes
Defeat audio cache : Yes
Make use of C2 pointers : No

Read offset correction : 667
Overread into Lead-In and Lead-Out : No
Fill up missing offset samples with silence : Yes
Delete leading and trailing silent blocks : No
Null samples used in CRC calculations : Yes
Used interface : Native Win32 interface for Win NT & 2000

Used output format : Internal WAV Routines
Sample format : 44.100 Hz; 16 Bit; Stereo


TOC of the extracted CD

Track | Start | Length | Start sector | End sector
––––––––––––––––––––––––––––-
1 | 0:00.00 | 4:11.70 | 0 | 18894
2 | 4:11.70 | 4:53.02 | 18895 | 40871
3 | 9:04.72 | 5:56.45 | 40872 | 67616
4 | 15:01.42 | 6:26.28 | 67617 | 96594
5 | 21:27.70 | 3:54.40 | 96595 | 114184
6 | 25:22.35 | 5:17.42 | 114185 | 138001
7 | 30:40.02 | 4:14.03 | 138002 | 157054
8 | 34:54.05 | 4:16.60 | 157055 | 176314


Range status and errors

Selected range

Filename D:\BlondStyle\Deniece Williams - My Melody.wav

Peak level 100.0 %
Extraction speed 6.3 X
Range quality 100.0 %
Test CRC E884C285
Copy CRC E884C285
Copy OK

No errors occurred


AccurateRip summary

Track 1 accurately ripped (confidence 3) [1858BD0D] (AR v2)
Track 2 accurately ripped (confidence 3) [722A3759] (AR v2)
Track 3 accurately ripped (confidence 3) [6F8FD0F1] (AR v2)
Track 4 accurately ripped (confidence 3) [3DB1A2FA] (AR v2)
Track 5 accurately ripped (confidence 3) [D6565BC3] (AR v2)
Track 6 accurately ripped (confidence 3) [4159FF24] (AR v2)
Track 7 accurately ripped (confidence 3) [2BE0F0F0] (AR v2)
Track 8 accurately ripped (confidence 3) [24202F66] (AR v2)

All tracks accurately ripped

End of status report

–– CUETools DB Plugin V2.1.6

[CTDB TOCID: yZoSPD7tvxYNgfK6MIRxERYzVLs-] found
Submit result: yZoSPD7tvxYNgfK6MIRxERYzVLs- has been confirmed
Track | CTDB Status
1 | (9/9) Accurately ripped
2 | (9/9) Accurately ripped
3 | (9/9) Accurately ripped
4 | (9/9) Accurately ripped
5 | (9/9) Accurately ripped
6 | (9/9) Accurately ripped
7 | (9/9) Accurately ripped
8 | (9/9) Accurately ripped


==== Log checksum ECD446C66D710A6F370E7AB20A3623491C9003B40795292394AE8F723A062EDF ====

––––––––––––––––––––––––––––––––––––––––
Analyzed: Deniece Williams / My Melody
––––––––––––––––––––––––––––––––––––––––

DR Peak RMS Duration Track
––––––––––––––––––––––––––––––––––––––––
DR13 -1.13 dB -16.50 dB 4:12 01-My Melody
DR12 -0.80 dB -15.81 dB 4:53 02-It's Your Conscience
DR13 0.00 dB -15.99 dB 5:57 03-Silly
DR11 -0.80 dB -14.91 dB 6:26 04-Strangers
DR13 -0.80 dB -15.17 dB 3:55 05-What Two Can Do
DR11 -1.32 dB -15.28 dB 5:18 06-You're All That Matters
DR13 -0.88 dB -16.57 dB 4:14 07-Suspicious
DR12 -1.37 dB -16.09 dB 4:17 08-Sweet Surrender
––––––––––––––––––––––––––––––––––––––––

Number of tracks: 8
Official DR value: DR12

Samplerate: 44100 Hz
Channels: 2
Bits per sample: 16
Bitrate: 822 kbps
Codec: FLAC
================================================================================

See also:
Deniece Williams - Song Bird (1977) [2010, Expanded]
Deniece Williams - When Love Comes Calling (1979) [2010, Expanded]

♫~Welcome To My Blog~♫

password: BlondStyle