Subcategories

Don Williams - Greatest Hit Best Audiophile (2011) SHM-CD, 2CDs

Posted By: Designol
Don Williams - Greatest Hit Best Audiophile (2011) SHM-CD, 2CDs

Don Williams - Greatest Hit Best Audiophile (2011) SHM-CD, 2CDs
EAC | FLAC | Image (Cue&Log) ~ 625 Mb | Mp3 (CBR320) ~ 158 Mb | Scans ~ 153 Mb
Country, Country-Pop, Ballads | Label: Beautiful Music | # BM-SHM-CP3055 | 01:52:00

Don Williams (born Donald Ray Williams; May 27, 1939 – September 8, 2017) was an American country singer, songwriter, and 2010 inductee to the Country Music Hall of Fame. He began his solo career in 1971, singing popular ballads and amassing 17 number one country hits. His straightforward yet smooth bass-baritone voice, soft tones, and imposing build earned him the nickname: "Gentle Giant" of country music.

With his laid-back, straightforward vocals and large, imposing build, Don Williams came to be known as "the Gentle Giant." That nickname was bestowed on him in the early '70s, when he began a string of countrypolitan hits that ran into the early '90s. Williams was never known as an innovator, but his ballads were immensely popular; in the course of his career, he had a total of 17 number one hits.

Williams began playing guitar when he was child, learning the instrument from his mother. As a teenager, he played in a variety of country, rockabilly, folk, and rock & roll bands. After completing high school, he formed his first band with a friend named Lofton Kline. Williams and Kline recruited another singer, Susan Taylor, and formed the Pozo-Seco Singers, a folk-pop group, in 1964. The following year, the band signed a contract with Columbia Records. In 1966, the Pozo-Seco Singers had a pop hit with "Time," which climbed into the Top 50. For the next two years, they had a series of minor hits, highlighted by two Top 40 hits in late 1966, "I Can Make It with You" and "Look What You've Done." The group stayed until 1971.

After the Pozo-Seco Singers disbanded, Williams decided to pursue a career as a songwriter in Nashville, since he wasn't convinced that he was suited for a solo career. He signed with Jack Clement's Jack Music, Inc., initially just as a songwriter. By the end of 1972, he had signed with JMI as a solo artist, releasing "Don't You Believe" as his debut. The song went nowhere, but "The Shelter of Your Eyes" climbed to number 14 at the beginning of 1973. For the next year, Williams scored a string of minor hits before he had his 1974 breakthrough, "We Should Be Together," which reached number five. The single led to a contract with ABC/Dot. "I Wouldn't Want to Live If You Didn't Love Me," his first single for ABC/Dot, reached number one in the summer 1974. The single launched a string of Top Ten hits that ran more or less uninterrupted until 1991; between 1974 and 1991, only four of his 46 charting singles didn't make the Top Ten. Instead of reaching the top of the charts with his original material, most of his big hits were covers of other songwriters, including John Prine, Bob McDill, Dave Loggins, and Wayland Holyfield.

During the '70s, Don Williams became the most successful country artist in the world. His country-pop not only crossed over into the American pop mainstream, it also gained him a large following in England and Europe. In addition to his Top Ten hits, Williams won several country music awards, highlighted by the Country Music Association naming him Male Vocalist of the Year in 1978, the same year his number one single, "Tulsa Time," was named Single of the Year. In the late '70s, he began acting, appearing primarily in the films of his friend Burt Reynolds, including W.W. & the Dixie Dancekings and Smokey & the Bandit II.

In the early '80s, Williams slowed down the pace of his career slightly, as he was suffering from back problems. Nevertheless, the hits continued to come and many of his singles reached number one. In 1986, he left MCA Records – which had acquired the ABC label while he was recording for it – and signed with Capitol. The change in labels didn't affect his career at all, as he continued to hit the Top Ten with regularity. In 1987, he underwent back surgery, which cured his problems. Williams signed with RCA Records in 1989. Initially, he continued to have hits, but his streak came to an end in early 1992, following his last Top Ten single, "Lord Have Mercy on a Country Boy." Although he continued to perform in the mid-'90s, he had effectively retired to his Nashville farm, returning to recording in 1998 with I Turn the Page.

After some limited touring, Williams resumed his recording career with My Heart to You on Sugar Hill/Compendium in 2004, followed in 2006 by his "Farewell Tour of the World," playing throughout the United States and Europe, and another retirement. This one lasted until 2012, when he re-emerged with the acclaimed And So It Goes on Sugar Hill. Williams continued recording and performing, and released Reflections in March of 2014. The year 2016 brought another retirement for Williams, who announced he was ready to "enjoy some quiet time at home." He died in September 2017 at the age of 78.

Biography by Stephen Thomas Erlewine, Allmusic.com

Don Williams - Greatest Hit Best Audiophile (2011) SHM-CD, 2CDs



Tracklist:

CD1:

01. I'm Just A Country Boy (3:06)
02. Where Are You (2:58)
03. When I'm With You (3:16)
04. Goodbye Isn't Really Good At All (2:56)
05. I'm Getting Good At Missing You (2:52)
06. It Must Be Love (2:26)
07. My Woman's Love (3:13)
08. Some Broken Hearts Never Mend (2:44)
09. Till The Rivers All Run Dry (3:27)
10. Turn Out The Lights (And Love Me Tonight) (2:21)
11. Don't You Think It's Time (3:22)
12. All I'm Missing Is You (3:22)
13. You're My Best Friend (2:49)
14. Reason To Be (3:01)
15. The Rose (3:32)
16. Listen To The Radio (3:14)
17. Nobody But You (2:42)
18. If I Need You (3:37)

CD2:

01. The Ties The Bind (2:40)
02. Tears of The Lonely (3:14)
03. I Sing For Joy (3:44)
04. She's A Heart Full (3:04)
05. What's The Score (3:19)
06. I Don't Wanna Let You Go (3:13)
07. Another Place, Another Time (3:15)
08. She Never Knew Me (2:54)
09. Rake & Rambin Man (2:53)
10. I Believe In You (4:07)
11. Lay Down Beside Me (2:56)
12. Love Me Over Again (3:01)
13. Good Ole Boys Like Me (4:12)
14. We're All The Way (2:25)
15. Your Sweet Love (2:43)
16. My Heart To You (3:16)
17. I Recall A Gypsy Woman (3:22)
18. Fall In Love Again (2:44)


Exact Audio Copy V1.0 beta 1 from 15. November 2010

EAC extraction logfile from 29. February 2012, 14:18

Don Williams / Greatest Hit Best Audiophile

Used drive : PIONEER DVD-RW DVR-118L Adapter: 4 ID: 0

Read mode : Secure
Utilize accurate stream : Yes
Defeat audio cache : Yes
Make use of C2 pointers : No

Read offset correction : 6
Overread into Lead-In and Lead-Out : No
Fill up missing offset samples with silence : Yes
Delete leading and trailing silent blocks : No
Null samples used in CRC calculations : Yes
Used interface : Native Win32 interface for Win NT & 2000

Used output format : Internal WAV Routines
Sample format : 44.100 Hz; 16 Bit; Stereo


TOC of the extracted CD

Track | Start | Length | Start sector | End sector
––––––––––––––––––––––––––––-
1 | 0:00.00 | 3:05.38 | 0 | 13912
2 | 3:05.38 | 2:58.35 | 13913 | 27297
3 | 6:03.73 | 3:16.17 | 27298 | 42014
4 | 9:20.15 | 2:55.50 | 42015 | 55189
5 | 12:15.65 | 2:52.34 | 55190 | 68123
6 | 15:08.24 | 2:26.07 | 68124 | 79080
7 | 17:34.31 | 3:12.45 | 79081 | 93525
8 | 20:47.01 | 2:44.00 | 93526 | 105825
9 | 23:31.01 | 3:27.00 | 105826 | 121350
10 | 26:58.01 | 2:21.19 | 121351 | 131944
11 | 29:19.20 | 3:22.35 | 131945 | 147129
12 | 32:41.55 | 3:22.27 | 147130 | 162306
13 | 36:04.07 | 2:49.33 | 162307 | 175014
14 | 38:53.40 | 3:00.47 | 175015 | 188561
15 | 41:54.12 | 3:31.48 | 188562 | 204434
16 | 45:25.60 | 3:13.54 | 204435 | 218963
17 | 48:39.39 | 2:42.33 | 218964 | 231146
18 | 51:21.72 | 3:37.04 | 231147 | 247425


Range status and errors

Selected range

Filename E:\YES ! We Speak Lossless @ ThailandTorrent\Don Williams - Greatest Hit Best Audiophile.wav

Peak level 96.6 %
Extraction speed 0.1 X
Range quality 100.0 %
Test CRC 3539A112
Copy CRC 3539A112
Copy OK

No errors occurred


AccurateRip summary

Track 1 not present in database
Track 2 not present in database
Track 3 not present in database
Track 4 not present in database
Track 5 not present in database
Track 6 not present in database
Track 7 not present in database
Track 8 not present in database
Track 9 not present in database
Track 10 not present in database
Track 11 not present in database
Track 12 not present in database
Track 13 not present in database
Track 14 not present in database
Track 15 not present in database
Track 16 not present in database
Track 17 not present in database
Track 18 not present in database

None of the tracks are present in the AccurateRip database

End of status report

==== Log checksum 4737AC3CA36D1E9C6870A21E82250952CA32C9AF74FB46B22836B70C853394F5 ====

[CUETools log; Date: 23.09.2017 16:21:36; Version: 2.1.4]
[CTDB TOCID: NKUxlTwQ3ciATOASijtHN4gR4Z0-] found.
Track | CTDB Status
1 | (2/2) Accurately ripped
2 | (2/2) Accurately ripped
3 | (2/2) Accurately ripped
4 | (2/2) Accurately ripped
5 | (2/2) Accurately ripped
6 | (2/2) Accurately ripped
7 | (2/2) Accurately ripped
8 | (2/2) Accurately ripped
9 | (2/2) Accurately ripped
10 | (2/2) Accurately ripped
11 | (2/2) Accurately ripped
12 | (2/2) Accurately ripped
13 | (2/2) Accurately ripped
14 | (2/2) Accurately ripped
15 | (2/2) Accurately ripped
16 | (2/2) Accurately ripped
17 | (2/2) Accurately ripped
18 | (2/2) Accurately ripped
[AccurateRip ID: 00234c27-01d75b74-f00ce312] found.
Track [ CRC | V2 ] Status
01 [34631819|bad8c43b] (0+1/2) Accurately ripped
02 [ee279d70|40e1d617] (0+1/2) Accurately ripped
03 [41629033|ad89925f] (0+1/3) Accurately ripped
04 [ca5957c3|29f2b0d8] (0+1/3) Accurately ripped
05 [256a4788|ea25e692] (0+1/3) Accurately ripped
06 [1db161f6|6982fa09] (0+1/3) Accurately ripped
07 [58b7a350|bcf0840a] (0+1/3) Accurately ripped
08 [6545607b|087cca28] (0+1/3) Accurately ripped
09 [942200bd|f0c0cf73] (0+1/3) Accurately ripped
10 [23db3590|513a7751] (0+1/2) Accurately ripped
11 [662f77dc|74a6c1d2] (0+1/2) Accurately ripped
12 [be4a7090|b860d008] (0+1/3) Accurately ripped
13 [e7c4fe66|72902ddb] (0+1/3) Accurately ripped
14 [00fbe99a|543855a9] (0+1/3) Accurately ripped
15 [a128ff1b|59580a74] (0+1/3) Accurately ripped
16 [93f2d085|5fb7d0e0] (0+1/3) Accurately ripped
17 [9761f5d9|6bdc8310] (0+1/3) Accurately ripped
18 [0453ecad|71915d90] (0+1/3) Accurately ripped

Track Peak [ CRC32 ] [W/O NULL] [ LOG ]
– 96,6 [3539A112] [1989AE19] CRC32
01 96,4 [2E71B3E7] [F1C4D56F]
02 96,6 [D3944D8B] [BCAE25F8]
03 96,0 [624F8403] [A5099E39]
04 96,1 [505E4D0B] [D79D9BFE]
05 95,9 [1535493D] [036DEEA7]
06 96,6 [FEA923EB] [05E8BCE8]
07 96,6 [B995F126] [03E61EA6]
08 96,1 [8A3DEAB6] [83977020]
09 96,6 [617E491E] [51A5AA54]
10 96,2 [6CF82340] [FB47311A]
11 96,6 [8081F448] [7EC43719]
12 96,6 [7207D7FB] [EC45C14D]
13 95,9 [0972BF31] [6BD669A1]
14 96,3 [93BEC931] [35E58E09]
15 96,6 [5D41EE22] [62F5B0B1]
16 95,6 [21DC7C18] [CDC7C61D]
17 96,6 [A2A7C937] [B57F51FE]
18 96,6 [21FF4C44] [4930045D]

foobar2000 1.2 / Dynamic Range Meter 1.1.1
log date: 2017-09-23 16:29:27

––––––––––––––––––––––––––––––––––––––––
Analyzed: Don Williams / Greatest Hit Best Audiophile
––––––––––––––––––––––––––––––––––––––––

DR Peak RMS Duration Track
––––––––––––––––––––––––––––––––––––––––
DR12 -0.31 dB -14.31 dB 3:06 01-I'm Just A Country Boy
DR11 -0.30 dB -13.17 dB 2:58 02-Where Are You
DR12 -0.35 dB -14.94 dB 3:16 03-When I'm With You
DR12 -0.35 dB -14.27 dB 2:56 04-Goodbye Isn't Really Good At All
DR13 -0.36 dB -14.89 dB 2:52 05-I'm Getting Good At Missing You
DR12 -0.30 dB -13.74 dB 2:26 06-It Must Be Love
DR11 -0.30 dB -12.91 dB 3:13 07-My Woman's Love
DR12 -0.34 dB -14.16 dB 2:44 08-Some Broken Hearts Never Mend
DR11 -0.30 dB -14.26 dB 3:27 09-Till The Rivers All Run Dry
DR12 -0.34 dB -14.98 dB 2:21 10-Turn Out The Lights (And Love Me Tonight)
DR12 -0.30 dB -14.55 dB 3:22 11-Don't You Think It's Time
DR13 -0.30 dB -14.77 dB 3:22 12-All I'm Missing Is You
DR11 -0.36 dB -13.97 dB 2:49 13-You're My Best Friend
DR13 -0.32 dB -15.83 dB 3:01 14-Reason To Be
DR11 -0.30 dB -14.67 dB 3:32 15-The Rose
DR9 -0.38 dB -11.99 dB 3:14 16-Listen To The Radio
DR10 -0.30 dB -11.87 dB 2:42 17-Nobody But You
DR9 -0.30 dB -10.86 dB 3:37 18-If I Need You
––––––––––––––––––––––––––––––––––––––––

Number of tracks: 18
Official DR value: DR12

Samplerate: 44100 Hz
Channels: 2
Bits per sample: 16
Bitrate: 782 kbps
Codec: FLAC
================================================================================


Exact Audio Copy V1.0 beta 1 from 15. November 2010

EAC extraction logfile from 29. February 2012, 15:49

Don Williams / Greatest Hit Best Audiophile

Used drive : PIONEER DVD-RW DVR-118L Adapter: 4 ID: 0

Read mode : Secure
Utilize accurate stream : Yes
Defeat audio cache : Yes
Make use of C2 pointers : No

Read offset correction : 6
Overread into Lead-In and Lead-Out : No
Fill up missing offset samples with silence : Yes
Delete leading and trailing silent blocks : No
Null samples used in CRC calculations : Yes
Used interface : Native Win32 interface for Win NT & 2000

Used output format : Internal WAV Routines
Sample format : 44.100 Hz; 16 Bit; Stereo


TOC of the extracted CD

Track | Start | Length | Start sector | End sector
––––––––––––––––––––––––––––-
1 | 0:00.00 | 2:39.46 | 0 | 11970
2 | 2:39.46 | 3:13.68 | 11971 | 26513
3 | 5:53.39 | 3:43.48 | 26514 | 43286
4 | 9:37.12 | 3:04.05 | 43287 | 57091
5 | 12:41.17 | 3:18.45 | 57092 | 71986
6 | 15:59.62 | 3:13.02 | 71987 | 86463
7 | 19:12.64 | 3:14.52 | 86464 | 101065
8 | 22:27.41 | 2:53.71 | 101066 | 114111
9 | 25:21.37 | 2:53.21 | 114112 | 127107
10 | 28:14.58 | 4:07.36 | 127108 | 145668
11 | 32:22.19 | 2:55.38 | 145669 | 158831
12 | 35:17.57 | 3:00.46 | 158832 | 172377
13 | 38:18.28 | 4:11.59 | 172378 | 191261
14 | 42:30.12 | 2:24.71 | 191262 | 202132
15 | 44:55.08 | 2:43.15 | 202133 | 214372
16 | 47:38.23 | 3:16.16 | 214373 | 229088
17 | 50:54.39 | 3:22.10 | 229089 | 244248
18 | 54:16.49 | 2:44.31 | 244249 | 256579


Range status and errors

Selected range

Filename E:\YES ! We Speak Lossless @ ThailandTorrent\Don Williams - Greatest Hit Best Audiophile.wav

Peak level 96.6 %
Extraction speed 0.0 X
Range quality 100.0 %
Test CRC 14343333
Copy CRC 14343333
Copy OK

No errors occurred


AccurateRip summary

Track 1 not present in database
Track 2 not present in database
Track 3 not present in database
Track 4 not present in database
Track 5 not present in database
Track 6 not present in database
Track 7 not present in database
Track 8 not present in database
Track 9 not present in database
Track 10 not present in database
Track 11 not present in database
Track 12 not present in database
Track 13 not present in database
Track 14 not present in database
Track 15 not present in database
Track 16 not present in database
Track 17 not present in database
Track 18 not present in database

None of the tracks are present in the AccurateRip database

End of status report

==== Log checksum C8E155E84BB62B7B1FB36FD6FD9184549CF0EAB897FAAFD3C06BFA0C58CAC12C ====

[CUETools log; Date: 23.09.2017 16:21:51; Version: 2.1.4]
[CTDB TOCID: aMGJ89ZslaALGSvccJtiag5Z_yQ-] found.
Track | CTDB Status
1 | (2/2) Accurately ripped
2 | (2/2) Accurately ripped
3 | (2/2) Accurately ripped
4 | (2/2) Accurately ripped
5 | (2/2) Accurately ripped
6 | (2/2) Accurately ripped
7 | (2/2) Accurately ripped
8 | (2/2) Accurately ripped
9 | (2/2) Accurately ripped
10 | (2/2) Accurately ripped
11 | (2/2) Accurately ripped
12 | (2/2) Accurately ripped
13 | (2/2) Accurately ripped
14 | (2/2) Accurately ripped
15 | (2/2) Accurately ripped
16 | (2/2) Accurately ripped
17 | (2/2) Accurately ripped
18 | (2/2) Accurately ripped
[AccurateRip ID: 00257296-01f3e3ce-040d5d12] found.
Track [ CRC | V2 ] Status
01 [2de4a321|e105cea6] (0+1/3) Accurately ripped
02 [e12aa70a|bdc8398e] (0+2/2) Accurately ripped
03 [549509a3|d5d3b119] (0+2/2) Accurately ripped
04 [9d928284|36bcc901] (0+2/2) Accurately ripped
05 [4d04e4f7|5b6c0243] (0+2/2) Accurately ripped
06 [de536d89|8347d9b0] (0+2/2) Accurately ripped
07 [f2bb4b00|3dedf798] (0+2/2) Accurately ripped
08 [acc36cc0|118b0543] (0+2/2) Accurately ripped
09 [70b44774|32796001] (0+2/2) Accurately ripped
10 [137eefc0|0531dcb3] (0+2/2) Accurately ripped
11 [826c1100|e8253f65] (0+2/2) Accurately ripped
12 [7d6d50c7|16233341] (0+2/2) Accurately ripped
13 [89b066c8|7a111ab7] (0+2/2) Accurately ripped
14 [2ee02f37|abd88002] (0+2/2) Accurately ripped
15 [d4d482dd|a69a800b] (0+2/2) Accurately ripped
16 [7f9692b8|bfe985df] (0+2/2) Accurately ripped
17 [0dcd8818|47b56201] (0+2/2) Accurately ripped
18 [6bc9eeed|2745fa0a] (0+2/2) Accurately ripped

Track Peak [ CRC32 ] [W/O NULL] [ LOG ]
– 96,6 [14343333] [44F86E38] CRC32
01 88,5 [3423D155] [193002AD]
02 92,4 [2B4195BB] [4E8838AF]
03 96,6 [7BB4FF96] [C2AB86FF]
04 96,3 [84687CEA] [E96BF743]
05 96,6 [ED62BD17] [B4B1F71C]
06 96,5 [96451969] [24DCBE99]
07 95,8 [43D437BB] [E55D0840]
08 94,9 [93AD00D5] [EB62E861]
09 95,6 [13E2E700] [6BD75475]
10 96,4 [D962A5FE] [FC9C0825]
11 95,5 [23E07CC8] [F92FE581]
12 96,0 [343FE99F] [C42C041F]
13 96,2 [8CA5C37E] [3B56E388]
14 96,2 [2B3EBD1C] [CE545B06]
15 96,5 [E428871A] [87D5AA31]
16 96,3 [C0FBA537] [30EFF2B4]
17 96,6 [002DD739] [8E869841]
18 95,7 [E8A5EFA3] [24D5D26C]

foobar2000 1.2 / Dynamic Range Meter 1.1.1
log date: 2017-09-23 16:30:00

––––––––––––––––––––––––––––––––––––––––
Analyzed: Don Williams / Greatest Hit Best Audiophile
––––––––––––––––––––––––––––––––––––––––

DR Peak RMS Duration Track
––––––––––––––––––––––––––––––––––––––––
DR11 -1.06 dB -14.74 dB 2:40 01-The Ties The Bind
DR10 -0.68 dB -13.49 dB 3:14 02-Tears of The Lonely
DR9 -0.30 dB -11.64 dB 3:44 03-I Sing For Joy
DR10 -0.32 dB -12.39 dB 3:04 04-She's A Heart Full
DR9 -0.30 dB -10.86 dB 3:19 05-What's The Score
DR10 -0.31 dB -12.27 dB 3:13 06-I Don't Wanna Let You Go
DR10 -0.37 dB -12.53 dB 3:15 07-Another Place, Another Time
DR10 -0.45 dB -13.10 dB 2:54 08-She Never Knew Me
DR10 -0.39 dB -12.32 dB 2:53 09-Rake & Rambin Man
DR11 -0.31 dB -13.03 dB 4:07 10-I Believe In You
DR12 -0.39 dB -14.21 dB 2:56 11-Lay Down Beside Me
DR10 -0.35 dB -13.56 dB 3:01 12-Love Me Over Again
DR11 -0.33 dB -13.55 dB 4:12 13-Good Ole Boys Like Me
DR10 -0.33 dB -13.12 dB 2:25 14-We're All The Way
DR10 -0.31 dB -13.17 dB 2:43 15-Your Sweet Love
DR10 -0.32 dB -12.21 dB 3:16 16-My Heart To You
DR12 -0.30 dB -14.53 dB 3:22 17-I Recall A Gypsy Woman
DR11 -0.38 dB -13.58 dB 2:44 18-Fall In Love Again
––––––––––––––––––––––––––––––––––––––––

Number of tracks: 18
Official DR value: DR10

Samplerate: 44100 Hz
Channels: 2
Bits per sample: 16
Bitrate: 777 kbps
Codec: FLAC
================================================================================

Don Williams - Greatest Hit Best Audiophile (2011) SHM-CD, 2CDs

Don Williams - Greatest Hit Best Audiophile (2011) SHM-CD, 2CDs

All thanks to original releaser - yo0507

More interesting music in My Blog