Tags
Language
Tags

Dong-Suk Kang, Pascal Devoyon - Debussy, Saint-Saëns, Ravel, Poulenc: Violin Sonatas (1989)

Posted By: tirexiss
Dong-Suk Kang, Pascal Devoyon - Debussy, Saint-Saëns, Ravel, Poulenc: Violin Sonatas (1989)

Dong-Suk Kang, Pascal Devoyon - Debussy, Saint-Saëns, Ravel, Poulenc: Violin Sonatas (1989)
EAC | FLAC (image+.cue, log) | Covers Included | 69:50 | 276 MB
Genre: Classical | Label: Naxos | Catalog: 8550276

This CD gives you a little slice of the restoration and development of quintessential French chamber music that gained momentum in the late 19th century and peaked around 1900 - the Golden Era of French art, music and culture. In opposition to the latest fads from Germany (Wagner's giantatism) and overzelous Parisian operas, the luminous pioneers of this vital movement in Paris were Frank, Faure, Saint Saens, Ravel, Massenet, Chausson and later the more modern "impressionist", Claude Debussy.

Violinist Kang has an affinity for the full-blooded passion of this highly romantic-era chamber music while French pianist Devoyen has been probably playing this music from childhood. They have a coherent and dynamic ensemble together.

This CD is a decent intro to this rich musical era (a favorite of mine in the classical repertoire) and can lead into even richer fields of gold (Faure's sontata in A also on Naxos with Kang, Frank's A major sonata, the piano trios of Faure, Debussy and Saint Saens - and most special of all, all the chamber music of Ravel which I find most fascinating.

Dong-Suk Kang, Pascal Devoyon - Debussy, Saint-Saëns, Ravel, Poulenc: Violin Sonatas (1989)

Track List:

Claude Debussy (1862-1918):
Violin Sonata
1. Allegro Vivo 4:52
2. Intermède: Fantasque Et Léger 4:16
3. Finale: Très Animé 3:56
Camille Saint-Saëns (1835-1921):
Violin Sonata No. 1 In D Minor
4. Allegro Agitato - Adagio 12:18
5. Allegretto Moderato - Allegro Molto 9:23
Maurice Ravel (1875-1937):
Violin Sonata
6. Allegretto 7:43
7. Blues: Moderato 5:24
8. Perpetuum Mobile 3:48
Francis Poulenc (1899-1963):
Violin Sonata
9. Allegro Con Fuoco 6:19
10. Intermezzo 6:20
11. Presto Tragico 5:31

Personnel:
Dong-Suk Kang - violin
Pascal Devoyon - piano


Exact Audio Copy V1.0 beta 3 from 29. August 2011

EAC extraction logfile from 14. March 2014, 12:50

Dong-Suk Kang / Debussy, Saint-Saëns, Ravel, Poulenc - Violin Sonatas - Dong-Suk Kang

Used drive : TSSTcorpCDDVDW SH-222BB Adapter: 2 ID: 1

Read mode : Secure
Utilize accurate stream : Yes
Defeat audio cache : Yes
Make use of C2 pointers : No

Read offset correction : 6
Overread into Lead-In and Lead-Out : No
Fill up missing offset samples with silence : Yes
Delete leading and trailing silent blocks : No
Null samples used in CRC calculations : Yes
Used interface : Native Win32 interface for Win NT & 2000

Used output format : User Defined Encoder
Selected bitrate : 896 kBit/s
Quality : High
Add ID3 tag : No
Command line compressor : C:\Program Files\Exact Audio Copy\FLAC\FLAC.EXE
Additional command line options : -8 -V -T "TITLE=%title%" -T "ARTIST=%artist%" -T "ALBUMARTIST=%albumartist%" -T "ALBUM=%albumtitle%" -T "DATE=%year%" -T "TRACKNUMBER=%tracknr%" -T "TRACKTOTAL=%numtracks%" -T "GENRE=%genre%" -T "COMMENT=%comment%" -T "PERFORMER=%albuminterpret%" -T "COMPOSER=%composer%" %source% -o %dest%


TOC of the extracted CD

Track | Start | Length | Start sector | End sector
––––––––––––––––––––––––––––-
1 | 0:00.00 | 4:52.35 | 0 | 21934
2 | 4:52.35 | 4:15.57 | 21935 | 41116
3 | 9:08.17 | 4:03.58 | 41117 | 59399
4 | 13:12.00 | 12:17.72 | 59400 | 114746
5 | 25:29.72 | 9:30.03 | 114747 | 157499
6 | 35:00.00 | 7:43.12 | 157500 | 192236
7 | 42:43.12 | 5:23.68 | 192237 | 216529
8 | 48:07.05 | 3:55.45 | 216530 | 234199
9 | 52:02.50 | 6:19.25 | 234200 | 262649
10 | 58:22.00 | 6:20.10 | 262650 | 291159
11 | 64:42.10 | 5:31.65 | 291160 | 316049


Range status and errors

Selected range

Filename E:\3000\[3432] Debussy, Saint-Saëns, Ravel, Poulenc – Violin Sonatas – Dong-Suk Kang\Debussy, Saint-Saëns, Ravel, Poulenc - Violin Sonatas - Dong-Suk Kang.wav

Peak level 99.9 %
Extraction speed 6.9 X
Range quality 100.0 %
Test CRC 868A1B7E
Copy CRC 868A1B7E
Copy OK

No errors occurred


AccurateRip summary

Track 1 cannot be verified as accurate (confidence 4) [95716DBF], AccurateRip returned [1147C291] (AR v2)
Track 2 cannot be verified as accurate (confidence 4) [228AC29B], AccurateRip returned [83A7F352] (AR v2)
Track 3 cannot be verified as accurate (confidence 4) [C7B0AA70], AccurateRip returned [58ADA842] (AR v2)
Track 4 cannot be verified as accurate (confidence 4) [B7472CC6], AccurateRip returned [4EA704D0] (AR v2)
Track 5 cannot be verified as accurate (confidence 4) [0545F486], AccurateRip returned [31D9D63F] (AR v2)
Track 6 cannot be verified as accurate (confidence 4) [ECEA2FC0], AccurateRip returned [B9FF6017] (AR v2)
Track 7 cannot be verified as accurate (confidence 4) [CCD822EB], AccurateRip returned [C7F6E31E] (AR v2)
Track 8 cannot be verified as accurate (confidence 3) [D26820E2], AccurateRip returned [013604FD] (AR v2)
Track 9 cannot be verified as accurate (confidence 4) [3F4C4C33], AccurateRip returned [98EF14C0] (AR v2)
Track 10 cannot be verified as accurate (confidence 4) [F6EBB04F], AccurateRip returned [4E6F0318] (AR v2)
Track 11 cannot be verified as accurate (confidence 4) [E01C5518], AccurateRip returned [AB3D0F07] (AR v2)

No tracks could be verified as accurate
You may have a different pressing from the one(s) in the database

End of status report

==== Log checksum D4A73828B3F79E675D587F9D12104F57B6F76E8F88D1F5998125389334C59230 ====

Thanks to the Original ripper (unknown)!

Welcome to my blog!

Download: