Subcategories

Dr. John - The Very Best Of Dr. John (1995)

Posted By: Designol
Dr. John - The Very Best Of Dr. John (1995)

Dr. John - The Very Best Of Dr. John (1995)
EAC | FLAC | Image (Cue&Log) ~ 441 Mb | Mp3 (CBR320) ~ 202 Mb | Scans included
Label: Rhino | # 9548-33553-2 | Time: 01:09:58
New Orleans R&B, Louisiana Blues, Bayou Funk, Blues-Rock, Psychedelic

Dr. John has recorded many great albums, but it's difficult to argue with such a perfect distillation of his catchy, grooving, slapdash pop work as this Rhino set. Coming out of the R&B studio subculture of New Orleans, the former Mac Rebennack possessed songwriting smarts and reams of recording expertise, each of which had reached their peak by the early '70s. Focused squarely on that prime era, 1970 through 1974, the collection begins with his only Top Ten hit, 1973's irrepressibly fatalistic "Right Place, Wrong Time." Two others come from his best album (1973's In the Right Place), the jaunty "Such a Night" and "Qualified." 1972's Dr. John's Gumbo also rates three tracks: the New Orleans classics "Iko Iko" and "Tipitina," plus "Junko Partner." The compilers were also wise to choose three songs from Gris-Gris, his unjustly neglected psychedelic debut, including "Mama Roux" and "I Walk on Guilded Splinters" (but unfortunately, not the glorious "Gris-Gris Gumbo Ya Ya"). A version of Jimmy Liggins' jump-blues classic "Honeydripper," from 1981's Dr. John Plays Mac Rebennack, spotlights his sparkling boogie-woogie piano, and the set closes with a pair of standards from his latter-day Warner Bros. years (one of which is the unofficial Mardi Gras theme "Goin' Back to New Orleans"). Whether it's for a first listen or the perfect road-trip disc, The Very Best of Dr. John has all of the New Orleans master's best recordings in one spot.

Review by John Bush, Allmusic.com

Dr. John - The Very Best Of Dr. John (1995)



Tracklist:

01. Right Place Wrong Time (2:56)
02. Such A Night (2:58)
03. Mama Roux (3:01)
04. Junko Partner (4:32)
05. Wash, Mama, Wash (3:44)
06. Loop Garoo (4:44)
07. Iko Iko (4:11)
08. Tipitina (2:12)
09. Jump Sturdy (2:22)
10. Qualified (4:49)
11. What Comes Around (Goes Around) (3:13)
12. Mos' Scocious (2:49)
13. I Walk On Guilded Splinters (7:46)
14. Honey Dripper (3:39)
15. Accentuate The Positive (3:55)
16. Goin' Back To New Orleans (4:13)
17. Makin' Whoopee (duet with Rickie Lee Jones) (4:10)
18. Litanie Des Saints (4:44)


X Lossless Decoder version 20120407 (140.0)

XLD extraction logfile from 2012-05-08 23:18:17 +0300

Dr. John / The Very Best Of Dr. John

Used drive : MATSHITA DVD-R UJ-898 (revision HC09)

Ripper mode : XLD Secure Ripper
Disable audio cache : OK for the drive with a cache less than 1375KiB
Make use of C2 pointers : NO
Read offset correction : 102
Max retry count : 20
Gap status : Analyzed, Appended

TOC of the extracted CD
Track | Start | Length | Start sector | End sector
––––––––––––––––––––––––––––-
1 | 00:00:00 | 02:56:25 | 0 | 13224
2 | 02:56:25 | 02:58:17 | 13225 | 26591
3 | 05:54:42 | 03:01:13 | 26592 | 40179
4 | 08:55:55 | 04:32:07 | 40180 | 60586
5 | 13:27:62 | 03:43:63 | 60587 | 77374
6 | 17:11:50 | 04:43:55 | 77375 | 98654
7 | 21:55:30 | 04:10:70 | 98655 | 117474
8 | 26:06:25 | 02:11:55 | 117475 | 127354
9 | 28:18:05 | 02:21:45 | 127355 | 137974
10 | 30:39:50 | 04:48:50 | 137975 | 159624
11 | 35:28:25 | 03:13:30 | 159625 | 174129
12 | 38:41:55 | 02:49:15 | 174130 | 186819
13 | 41:30:70 | 07:46:30 | 186820 | 221799
14 | 49:17:25 | 03:38:55 | 221800 | 238204
15 | 52:56:05 | 03:55:07 | 238205 | 255836
16 | 56:51:12 | 04:12:43 | 255837 | 274779
17 | 61:03:55 | 04:09:57 | 274780 | 293511
18 | 65:13:37 | 04:44:18 | 293512 | 314829

List of alternate offset correction values
# | Absolute | Relative | Confidence
–––––––––––––––––––––
1 | 1430 | 1328 | 40
2 | 749 | 647 | 5

AccurateRip Summary
Track 01 : OK (AR2, confidence 4, with different offset)
Track 02 : OK (confidence 2)
Track 03 : OK (confidence 2)
Track 04 : OK (confidence 2)
Track 05 : OK (confidence 2)
Track 06 : OK (confidence 2)
Track 07 : OK (confidence 2)
Track 08 : OK (confidence 2)
Track 09 : OK (confidence 2)
Track 10 : OK (confidence 2)
Track 11 : OK (confidence 2)
Track 12 : OK (confidence 2)
Track 13 : OK (confidence 2)
Track 14 : OK (confidence 2)
Track 15 : OK (confidence 2)
Track 16 : OK (confidence 2)
Track 17 : OK (confidence 2)
Track 18 : OK (confidence 2)
->All tracks accurately ripped.

All Tracks
Filename : /Users/macuser/Music/myRips/the very best of dr.john-1995/01 Dr. John - The Very Best Of Dr. John.flac
Album gain : -4.25 dB
Peak : 1.000000
CRC32 hash (test run) : 9778F128
CRC32 hash : 9778F128
CRC32 hash (skip zero) : C6D45A44
Statistics
Read error : 0
Jitter error (maybe fixed) : 0
Retry sector count : 0
Damaged sector count : 0

Track 01
Pre-gap length : 00:02:00

Track gain : -3.98 dB
Peak : 1.000000
CRC32 hash (test run) : C9BEB2AC
CRC32 hash : C9BEB2AC
CRC32 hash (skip zero) : 3863F8DD
AccurateRip signature : B674DD92
->Accurately ripped! (AR2, confidence 4)
(matched with the different offset correction value;
calculated using an additional offset of 1328;
the signature after correction is: 821249DB)
Statistics
Read error : 0
Jitter error (maybe fixed) : 0
Retry sector count : 0
Damaged sector count : 0

Track 02
Pre-gap length : 00:02:08

Track gain : -3.80 dB
Peak : 1.000000
CRC32 hash (test run) : 22629AAA
CRC32 hash : 22629AAA
CRC32 hash (skip zero) : D9DB9521
AccurateRip signature : 094A1092
->Accurately ripped! (confidence 2)
Statistics
Read error : 0
Jitter error (maybe fixed) : 0
Retry sector count : 0
Damaged sector count : 0

Track 03
Pre-gap length : 00:03:17

Track gain : -1.96 dB
Peak : 1.000000
CRC32 hash (test run) : 0C91E07B
CRC32 hash : 0C91E07B
CRC32 hash (skip zero) : C5F2F761
AccurateRip signature : AAD0CC55
->Accurately ripped! (confidence 2)
Statistics
Read error : 0
Jitter error (maybe fixed) : 0
Retry sector count : 0
Damaged sector count : 0

Track 04
Pre-gap length : 00:02:65

Track gain : -5.63 dB
Peak : 0.964111
CRC32 hash (test run) : 17DECDCD
CRC32 hash : 17DECDCD
CRC32 hash (skip zero) : CB41E919
AccurateRip signature : 20E6C163
->Accurately ripped! (confidence 2)
Statistics
Read error : 0
Jitter error (maybe fixed) : 0
Retry sector count : 0
Damaged sector count : 0

Track 05
Pre-gap length : 00:03:04

Track gain : -1.56 dB
Peak : 0.870209
CRC32 hash (test run) : 465E02E1
CRC32 hash : 465E02E1
CRC32 hash (skip zero) : 82B8DF87
AccurateRip signature : F1647C89
->Accurately ripped! (confidence 2)
Statistics
Read error : 0
Jitter error (maybe fixed) : 0
Retry sector count : 0
Damaged sector count : 0

Track 06
Pre-gap length : 00:03:33

Track gain : -1.01 dB
Peak : 0.899170
CRC32 hash (test run) : 06D8C469
CRC32 hash : 06D8C469
CRC32 hash (skip zero) : 06C4A319
AccurateRip signature : F6D60C6B
->Accurately ripped! (confidence 2)
Statistics
Read error : 0
Jitter error (maybe fixed) : 0
Retry sector count : 0
Damaged sector count : 0

Track 07
Pre-gap length : 00:02:55

Track gain : -5.46 dB
Peak : 1.000000
CRC32 hash (test run) : 2B0095A2
CRC32 hash : 2B0095A2
CRC32 hash (skip zero) : C8636848
AccurateRip signature : CB36E016
->Accurately ripped! (confidence 2)
Statistics
Read error : 0
Jitter error (maybe fixed) : 0
Retry sector count : 0
Damaged sector count : 0

Track 08
Pre-gap length : 00:02:43

Track gain : -4.82 dB
Peak : 0.869110
CRC32 hash (test run) : 65731F4F
CRC32 hash : 65731F4F
CRC32 hash (skip zero) : 0273FCAD
AccurateRip signature : 0104AB00
->Accurately ripped! (confidence 2)
Statistics
Read error : 0
Jitter error (maybe fixed) : 0
Retry sector count : 0
Damaged sector count : 0

Track 09
Pre-gap length : 00:03:25

Track gain : -4.59 dB
Peak : 1.000000
CRC32 hash (test run) : A211F8DB
CRC32 hash : A211F8DB
CRC32 hash (skip zero) : FBC77192
AccurateRip signature : D35E3C8C
->Accurately ripped! (confidence 2)
Statistics
Read error : 0
Jitter error (maybe fixed) : 0
Retry sector count : 0
Damaged sector count : 0

Track 10
Pre-gap length : 00:01:70

Track gain : -4.02 dB
Peak : 1.000000
CRC32 hash (test run) : 8A4CB5BA
CRC32 hash : 8A4CB5BA
CRC32 hash (skip zero) : 2330E12A
AccurateRip signature : A509A752
->Accurately ripped! (confidence 2)
Statistics
Read error : 0
Jitter error (maybe fixed) : 0
Retry sector count : 0
Damaged sector count : 0

Track 11
Pre-gap length : 00:01:35

Track gain : -5.49 dB
Peak : 1.000000
CRC32 hash (test run) : 022CD235
CRC32 hash : 022CD235
CRC32 hash (skip zero) : 11C46CDC
AccurateRip signature : 0E7C90C2
->Accurately ripped! (confidence 2)
Statistics
Read error : 0
Jitter error (maybe fixed) : 0
Retry sector count : 0
Damaged sector count : 0

Track 12
Pre-gap length : 00:02:10

Track gain : -6.69 dB
Peak : 1.000000
CRC32 hash (test run) : 87A03917
CRC32 hash : 87A03917
CRC32 hash (skip zero) : E184C67D
AccurateRip signature : E7E5DE7D
->Accurately ripped! (confidence 2)
Statistics
Read error : 0
Jitter error (maybe fixed) : 0
Retry sector count : 0
Damaged sector count : 0

Track 13
Pre-gap length : 00:02:53

Track gain : -0.89 dB
Peak : 1.000000
CRC32 hash (test run) : 4346BE36
CRC32 hash : 4346BE36
CRC32 hash (skip zero) : 63305387
AccurateRip signature : AEB8040F
->Accurately ripped! (confidence 2)
Statistics
Read error : 0
Jitter error (maybe fixed) : 0
Retry sector count : 0
Damaged sector count : 0

Track 14
Pre-gap length : 00:02:25

Track gain : -3.94 dB
Peak : 0.831055
CRC32 hash (test run) : EDBF5D0B
CRC32 hash : EDBF5D0B
CRC32 hash (skip zero) : DF03196C
AccurateRip signature : 9E167F51
->Accurately ripped! (confidence 2)
Statistics
Read error : 0
Jitter error (maybe fixed) : 0
Retry sector count : 0
Damaged sector count : 0

Track 15
Pre-gap length : 00:02:50

Track gain : -2.23 dB
Peak : 0.983307
CRC32 hash (test run) : 586A8430
CRC32 hash : 586A8430
CRC32 hash (skip zero) : CE8127FA
AccurateRip signature : 82851115
->Accurately ripped! (confidence 2)
Statistics
Read error : 0
Jitter error (maybe fixed) : 0
Retry sector count : 0
Damaged sector count : 0

Track 16
Pre-gap length : 00:00:42

Track gain : -4.24 dB
Peak : 1.000000
CRC32 hash (test run) : E7966AB8
CRC32 hash : E7966AB8
CRC32 hash (skip zero) : B9EAE4F2
AccurateRip signature : E9B876A9
->Accurately ripped! (confidence 2)
Statistics
Read error : 0
Jitter error (maybe fixed) : 0
Retry sector count : 0
Damaged sector count : 0

Track 17
Pre-gap length : 00:02:63

Track gain : -0.25 dB
Peak : 0.999969
CRC32 hash (test run) : 63998919
CRC32 hash : 63998919
CRC32 hash (skip zero) : F02583A4
AccurateRip signature : 33F10451
->Accurately ripped! (confidence 2)
Statistics
Read error : 0
Jitter error (maybe fixed) : 0
Retry sector count : 0
Damaged sector count : 0

Track 18
Pre-gap length : 00:02:30

Track gain : -3.54 dB
Peak : 0.923706
CRC32 hash (test run) : 51ACE3B6
CRC32 hash : 51ACE3B6
CRC32 hash (skip zero) : 8261B271
AccurateRip signature : BCBEFD90
->Accurately ripped! (confidence 2)
Statistics
Read error : 0
Jitter error (maybe fixed) : 0
Retry sector count : 0
Damaged sector count : 0

No errors occurred

End of status report

[CUETools log; Date: 01.06.2018 1:13:49; Version: 2.1.4]
[CTDB TOCID: YKC2MOyvtyRZTYOdWw8ah63d9cQ-] found.
Track | CTDB Status
1 | (107/108) Accurately ripped
2 | (108/108) Accurately ripped
3 | (107/108) Accurately ripped
4 | (108/108) Accurately ripped
5 | (108/108) Accurately ripped
6 | (108/108) Accurately ripped
7 | (107/108) Accurately ripped
8 | (108/108) Accurately ripped
9 | (105/108) Accurately ripped
10 | (107/108) Accurately ripped
11 | (108/108) Accurately ripped
12 | (108/108) Accurately ripped
13 | (106/108) Accurately ripped
14 | (107/108) Accurately ripped
15 | (107/108) Accurately ripped
16 | (108/108) Accurately ripped
17 | (106/108) Accurately ripped
18 | (106/108) Accurately ripped
[AccurateRip ID: 002b038e-02467736-fb106512] found.
Track [ CRC | V2 ] Status
01 [a982c7f7|b674dd92] (000+007/122) Accurately ripped
02 [094a1092|4b33869d] (002+007/122) Accurately ripped
03 [aad0cc55|a606d3c6] (002+007/122) Accurately ripped
04 [20e6c163|1c03c930] (002+007/123) Accurately ripped
05 [f1647c89|5e1f7535] (002+007/121) Accurately ripped
06 [f6d60c6b|7c45925d] (002+007/123) Accurately ripped
07 [cb36e016|13b6a418] (002+007/124) Accurately ripped
08 [0104ab00|0d2e1239] (002+007/123) Accurately ripped
09 [d35e3c8c|a3ce7855] (002+007/120) Accurately ripped
10 [a509a752|8daa09d1] (002+007/123) Accurately ripped
11 [0e7c90c2|e359dc52] (002+007/121) Accurately ripped
12 [e7e5de7d|92d6e0c1] (002+007/123) Accurately ripped
13 [aeb8040f|731b187a] (002+007/121) Accurately ripped
14 [9e167f51|2f046ac4] (002+007/123) Accurately ripped
15 [82851115|aee14aff] (002+007/123) Accurately ripped
16 [e9b876a9|100b772e] (002+007/122) Accurately ripped
17 [33f10451|e0164735] (002+007/123) Accurately ripped
18 [bcbefd90|62f392bf] (002+007/118) Accurately ripped
Offsetted by 647:
01 [2d4efaef] (003/122) Accurately ripped
02 [e7317f90] (003/122) Accurately ripped
03 [5c735bdd] (003/122) Accurately ripped
04 [ebeebc64] (003/123) Accurately ripped
05 [2daecc8f] (003/121) Accurately ripped
06 [d82ea5f4] (003/123) Accurately ripped
07 [4f48fc91] (003/124) Accurately ripped
08 [8bce40c0] (003/123) Accurately ripped
09 [77a83029] (003/120) Accurately ripped
10 [c8b1aa0b] (003/123) Accurately ripped
11 [a54e8e2f] (003/121) Accurately ripped
12 [378b6595] (003/123) Accurately ripped
13 [aa8151f5] (003/121) Accurately ripped
14 [3ade99f6] (003/123) Accurately ripped
15 [6b6a2cf4] (003/123) Accurately ripped
16 [6774500f] (003/122) Accurately ripped
17 [e6410c6e] (003/123) Accurately ripped
18 [492a2901] (002/118) Accurately ripped
Offsetted by 1328:
01 [aa944d77] (040/122) Accurately ripped
02 [01d265f2] (040/122) Accurately ripped
03 [74cc8ed5] (040/122) Accurately ripped
04 [39eadeb3] (040/123) Accurately ripped
05 [60158c69] (040/121) Accurately ripped
06 [6a5d9c3b] (040/123) Accurately ripped
07 [a9a0e586] (040/124) Accurately ripped
08 [64b63700] (040/123) Accurately ripped
09 [2629769c] (040/120) Accurately ripped
10 [cc978622] (040/123) Accurately ripped
11 [1b4c6bd2] (040/121) Accurately ripped
12 [ef7b4dfd] (040/123) Accurately ripped
13 [fde8c9ef] (040/121) Accurately ripped
14 [e1de53e1] (040/123) Accurately ripped
15 [894d79c5] (040/123) Accurately ripped
16 [91fa5489] (040/122) Accurately ripped
17 [ef7d2661] (040/123) Accurately ripped
18 [611dede0] (039/118) Accurately ripped
Offsetted by 1334:
01 [a96d7127] (000/122) No match (V2 was not tested)
02 [2aa7d55e] (000/122) No match (V2 was not tested)
03 [e1472425] (000/122) No match (V2 was not tested)
04 [ab613ffd] (000/123) No match (V2 was not tested)
05 [3129a025] (000/121) No match (V2 was not tested)
06 [f2fbe8d5] (000/123) No match (V2 was not tested)
07 [56f88214] (000/124) No match (V2 was not tested)
08 [dbe8c080] (000/123) No match (V2 was not tested)
09 [734248fe] (000/120) No match (V2 was not tested)
10 [c6fcca9c] (000/123) No match (V2 was not tested)
11 [42ae8454] (000/121) No match (V2 was not tested)
12 [5c3d22ed] (000/123) No match (V2 was not tested)
13 [e031e06b] (000/121) No match (V2 was not tested)
14 [01ca0693] (000/123) No match (V2 was not tested)
15 [657a553b] (000/123) No match (V2 was not tested)
16 [925a3e05] (000/122) No match (V2 was not tested)
17 [683d65c3] (000/123) No match (V2 was not tested)
18 [88cc9f8a] (000/118) No match (V2 was not tested)

Track Peak [ CRC32 ] [W/O NULL]
– 100,0 [9778F128] [C6D45A44]
01 100,0 [C9BEB2AC] [3863F8DD]
02 100,0 [22629AAA] [D9DB9521]
03 100,0 [0C91E07B] [C5F2F761]
04 96,4 [17DECDCD] [CB41E919]
05 87,0 [465E02E1] [82B8DF87]
06 89,9 [06D8C469] [06C4A319]
07 100,0 [2B0095A2] [C8636848]
08 86,9 [65731F4F] [0273FCAD]
09 100,0 [A211F8DB] [FBC77192]
10 100,0 [8A4CB5BA] [2330E12A]
11 100,0 [022CD235] [11C46CDC]
12 100,0 [87A03917] [E184C67D]
13 100,0 [4346BE36] [63305387]
14 83,1 [EDBF5D0B] [DF03196C]
15 98,3 [586A8430] [CE8127FA]
16 100,0 [E7966AB8] [B9EAE4F2]
17 100,0 [63998919] [F02583A4]
18 92,3 [51ACE3B6] [8261B271]

foobar2000 1.2 / Dynamic Range Meter 1.1.1
log date: 2018-06-01 01:13:25

––––––––––––––––––––––––––––––––––––––––
Analyzed: Dr. John / The Very Best Of Dr. John
––––––––––––––––––––––––––––––––––––––––

DR Peak RMS Duration Track
––––––––––––––––––––––––––––––––––––––––
DR13 0.00 dB -15.26 dB 2:56 01-Right Place Wrong Time
DR13 0.00 dB -15.85 dB 2:58 02-Such A Night
DR13 0.00 dB -16.39 dB 3:01 03-Mama Roux
DR11 -0.32 dB -13.47 dB 4:32 04-Junko Partner
DR12 -1.21 dB -15.84 dB 3:44 05-Wash, Mama, Wash
DR12 -0.92 dB -15.44 dB 4:44 06-Loop Garoo
DR12 0.00 dB -13.16 dB 4:11 07-Iko Iko
DR10 -1.22 dB -13.92 dB 2:12 08-Tipitina
DR12 0.00 dB -15.19 dB 2:22 09-Jump Sturdy
DR13 0.00 dB -15.08 dB 4:49 10-Qualified
DR12 0.00 dB -14.44 dB 3:13 11-What Comes Around (Goes Around)
DR11 0.00 dB -13.06 dB 2:49 12-Mos' Scocious
DR14 0.00 dB -18.41 dB 7:46 13-I Walk On Guilded Splinters
DR11 -1.61 dB -14.16 dB 3:39 14-Honey Dripper
DR14 -0.15 dB -17.73 dB 3:55 15-Accentuate The Positive
DR13 0.00 dB -15.11 dB 4:13 16-Goin' Back To New Orleans
DR16 0.00 dB -18.89 dB 4:10 17-Makin' Whoopee (duet with Rickie Lee Jones)
DR12 -0.69 dB -15.55 dB 4:44 18-Litanie Des Saints
––––––––––––––––––––––––––––––––––––––––

Number of tracks: 18
Official DR value: DR13

Samplerate: 44100 Hz
Channels: 2
Bits per sample: 16
Bitrate: 797 kbps
Codec: FLAC
================================================================================

Dr. John - The Very Best Of Dr. John (1995)

Dr. John - The Very Best Of Dr. John (1995)