Tags
Language
Tags

Dream 6 - Dream 6 (1983)

Posted By: v3122
Dream 6 - Dream 6 (1983)

Dream 6 - Dream 6 (1983)
Alternative Rock | EAC Rip | Flac (Image) + Cue + Log | MP3 CBR 320Kbps | 6 Tracks
2003 | Happy Hermit | CD8567 | ~205 + 79 Mb
Scans(jpg, 300dpi) Included | Scans(png, 600dpi) -> 275 Mb

Dream 6 is actually the original name for the band that would become Concrete Blonde, comprised of future Blonde members Johnette Napolitano and James Mankey (Michael Murphy handles drumming). They released this six-song EP in France four years before their self-titled debut and there's nothing very remarkable about it. The songs are straight-ahead, punk-tinged rock, although on songs like "Daddy Lied" Napolitano displays the vocal power that would endear her to fans later. There is also a version of "Rain," which would be redone for Concrete Blonde's 1993 Mexican Moon set. Never released domestically, Dream 6 is a curiosity for the more fervent fans of Concrete Blonde.

~ Tom Demalon, All Music Guide


Dream 6 - Dream 6 (1983)


The first thing Jim & I had recorded together was a little electronic dance tune called 'Heart Attack' for a compilation album put together by a 'zine called D.I.Y. We were psyched, something on a record meant we may be able to put a band together. In L.A., nobody would play with you unless you had a deal or a following. We had neither.

We called ourselves The Dreamers, then the L.A. Dreamers. I worked at a studio called Gold Star on the corner of Santa Monica and Vine. Formerly a legendary room that had produced hits by Herb Alpert & The Tijuana Brass, Phil Spector, The Beach Boys, Sonny & Cher and Lee Hazlewood and Nancy Sinatra, the aging studio now attracted a new breed of punk indie pioneers like The Cramps, Geza X, Posh Boy Records, Bomp Records and an ambitious young Bad Religion.

Having been passed on by various producers and majors and inspired by the wave of new labels, I asked for a weekend of down time at the studio and we brought in Jim's brother, Earle Mankey, and recorded our first EP. Drummer Michael Murphy, who years later would play on Dave Navarro's brilliant 'Deconstruction' album, had wandered in one day to fill out a job application. I called him up after work and we roped him in.

We slammed out the songs, but didn't have enough time to mix them all…but used the rough mixes anyway. We photographed the cover photo in the bedroom, and I cut and pasted the back cover together inspired by the cover of Genesis' 'The Lamb Lies Down On Broadway' where they reach into each other's frames. We photographed the insert at the cabin where we lived at the time, '70's rocker Dave Mason's old house in Benedict Canyon. I glued it all together and between the pressing plant and Max at G&M Graphics on Santa Monica Boulevard, who did the labels, were very proud to have a real record..now we were a real band. Since there were 6 songs, we became Dream 6: too many Dreamers, and it brought to mind John Lennon's Dream #9. So I bought a ton of cardboard and envelopes (which at the time costs more than the pressings themselves)and stayed up all night sending them out to papers and college radio stations…then one day I stopped at the Las Palmas newsstand off Hollywood Boulevard and opened up the English music paper Melody Maker and there it was.. a review of our little record by a woman named Helen Fitzgerald. And it was good.

Well I flew down the boulevard back to work, I doubt my feet touched the ground at all. I think we managed to press about 900 LP's, but couldn't afford the inserts after the first few hundred. There wasa CD made as a bonus promo by Capitol Records many years later when 'Mexican Moon' was released, but since then we've found an extra track from the original session that we hadn't used, 'It's My Life' which was a hit for Eric Burdon & The Animals. Also managed to find at the bottom of a dusty box outtakes from the original photo sessions and Jim being the archive king that he is, has scanned and saved the original insert.

Those were the days of Duran Duran and New Romantic synth-pop and no one understood what the hell we were doing.

Neither did we.

We still don't. I like it that way.

~ Johnette Napolitano, Mojave Desert February 2003

Dream 6 - Dream 6 (1983):

Dream 6 - Dream 6 (1983)

Tracklist:

1. Rain 3:19
2. Human Condition 3:33
3. Tomorrow May Never Come 5:48
4. Showdown 3:17
5. Secret Life 2:37
6. Daddy Lied 4:19
7. It's My Life 3:06

Exact Audio Copy V0.99 prebeta 5 from 4. May 2009

EAC extraction logfile from 26. October 2010, 14:13

Dream 6 / Dream 6

Used drive : ASUS DRW-2014L1T Adapter: 4 ID: 2

Read mode : Secure
Utilize accurate stream : Yes
Defeat audio cache : Yes
Make use of C2 pointers : No

Read offset correction : 6
Overread into Lead-In and Lead-Out : No
Fill up missing offset samples with silence : Yes
Delete leading and trailing silent blocks : No
Null samples used in CRC calculations : Yes
Used interface : Native Win32 interface for Win NT & 2000

Used output format : User Defined Encoder
Selected bitrate : 768 kBit/s
Quality : High
Add ID3 tag : No
Command line compressor : F:\Program Files\Exact Audio Copy\FLAC\FLAC.EXE
Additional command line options : -T "DATE=%y" -T "GENRE=%m" -8 -V %s


TOC of the extracted CD

Track | Start | Length | Start sector | End sector
––––––––––––––––––––––––––––-
1 | 0:00.00 | 3:19.32 | 0 | 14956
2 | 3:19.32 | 3:33.58 | 14957 | 30989
3 | 6:53.15 | 5:48.30 | 30990 | 57119
4 | 12:41.45 | 3:17.52 | 57120 | 71946
5 | 15:59.22 | 2:37.18 | 71947 | 83739
6 | 18:36.40 | 4:19.00 | 83740 | 103164
7 | 22:55.40 | 3:06.07 | 103165 | 117121


Range status and errors

Selected range

Filename W:\EAC\Dream 6 - Dream 6\Dream 6 - Dream 6.wav

Peak level 91.4 %
Range quality 100.0 %
Test CRC 66D3D146
Copy CRC 66D3D146
Copy OK

No errors occurred


AccurateRip summary

Track 1 accurately ripped (confidence 2) [502697E7]
Track 2 accurately ripped (confidence 2) [F1E55F3A]
Track 3 accurately ripped (confidence 2) [FCB5D8CA]
Track 4 accurately ripped (confidence 2) [D37160AC]
Track 5 accurately ripped (confidence 2) [CD8A4295]
Track 6 accurately ripped (confidence 2) [868F572A]
Track 7 accurately ripped (confidence 2) [6648B126]

All tracks accurately ripped

End of status report

AUDIOCHECKER v2.0 beta (build 457) - by Dester - opdester@freemail.hu
~~~~~~~~~~~~~~~~~~~~~~~~~~~~~~~~~~
-=== DO NOT EDIT THIS FILE! ===-

Path: …\Dream 6 - Dream 6

1 -=- Dream 6 - Dream 6.flac -=- CDDA (100%)

66892132

[Verification date: 02.11.2010 15:55:20]
[Disc ID: 00074f41-002bd55f-4c061907]
Track [ CRC ] Status
01 [502697e7] (02/02) Accurately ripped as in pressing(s) #1
02 [f1e55f3a] (02/02) Accurately ripped as in pressing(s) #1
03 [fcb5d8ca] (02/02) Accurately ripped as in pressing(s) #1
04 [d37160ac] (02/02) Accurately ripped as in pressing(s) #1
05 [cd8a4295] (02/02) Accurately ripped as in pressing(s) #1
06 [868f572a] (02/02) Accurately ripped as in pressing(s) #1
07 [6648b126] (02/02) Accurately ripped as in pressing(s) #1

Track [ CRC32 ] [W/O NULL] [ LOG ]
– [66D3D146] [92CA6F0F] CRC32
01 [A3F469B3] [78D669D3]
02 [72CAB5AE] [E01CADC3]
03 [F3078330] [052BCB6F]
04 [A720C40B] [7E196A24]
05 [A742476F] [CFA24997]
06 [5466CFD2] [196FCE5A]
07 [AA07DB85] [83B91A05]

Dream 6 - Dream 6 (1983)

Download Dream 6 - Dream 6 (1983):