Tags
Language
Tags
July 2024
Su Mo Tu We Th Fr Sa
30 1 2 3 4 5 6
7 8 9 10 11 12 13
14 15 16 17 18 19 20
21 22 23 24 25 26 27
28 29 30 31 1 2 3

VA - Driven By The 80s (5CD, 2018)

Posted By: ciklon5
VA - Driven By The 80s (5CD, 2018)

VA - Superhits Endless Summer 2017 (2017)
FLAC (tracks+.cue,log,scans) | 6:13:09 | 2,6 Gb
Genre: New Wave, Punk, Hip-Hop, Dance, Alternative, Pop, Synth-pop / Label: Driven By

"DRIVEN BY THE 80s serves up 100 tracks of pure 80s pleasure. The 1980s were a golden decade for popular music. Delivering an eclectic mix of styles, that spawned everything from electro and new wave to punk and hip-hop, dance to alternative. Driven By The 80s includes big hitters across 5 CDs; Pop classics from the likes of Kylie Minogue, Kim Wilde, Culture Club, Salt-n-Pepa through to Synth-pop from Human League, Heaven 17 and Japan. Who doesn’t love the 80s? So dust off those wayfarer sunglasses, and lose yourself in the decade that was, this is a must have collection for all those Driven by The 80s."

Track List:
Disc: 1
1. Alison Moyet - Love Resurection
2. Johnny Hates Jazz - Shattered Dreams
3. Soft Cell - Tainted Love
4. Vanilla Ice - Ice Ice Baby
5. Spagna - Call Me
6. Paula Abdul - Straight Up
7. Frankie Goes To Hollywood - Two Tribes
8. Colnel Abrahams - Trapped
9. Big Country - Big Country
10. The Stranglers - Skin Deep
11. Heart - These Dreams
12. Mike Oldfield - Moonlight Shadow
13. Culture Club - Church Of The Poison Mind
14. Au Pairs - Inconvenience
15. The Teardrop Explodes - Reward
16. Dexy's Midnight Runners - Come On Eileen
17. The Beat - Mirror In The Bathroom
18. The Style Council - Walls Come Tumbling Down
19. The Maisonettes - Heartache Avenue
20. Sophia George - Girlie, Girlie"

Disc: 2
1. Iggy Pop - Real Wild Child
2. Rainbow - Since You've Been Gone
3. Status Quo - In The Army Now
4. The Human League - Don't You Want Me
5. Passion Puppets - Voices
6. Animotion - Obsession
7. Salt 'n' Pepa - Push It
8. Mel & Kim - Respectable
9. Kim Wilde - You Keep Me Hanging On
10. Rick Astley - Never Gonna Give You Up
11. Jason Donovan - Too Many Broken Hearts
12. Flock OF Seagulls - I Ran (So Far Away)
13. The Belle Stars - The Clapping Song
14. Midnight Star - Midas Touch
15. Soul II Soul Feat. Caron Wheeler - Keep On Movin'
16. Ollie & Jerry - Breakin'… There's No Stoppin' Us
17. Mac Band Feat The McCampbell Brothers
18. Raze - Break 4 Luv
19. The Sugar Hill Gang - 8th Wonder
20. The Whispers - And The Beat Goes On"

Disc: 3
1. Tears For Fears - Everybody Wants To Rule The World
2. ABC - The Look Of Love
3. Thompson Twins - Love On Your Side
4. Glady's Knight - Licence To Kill
5. Grace Jones - Private Life
6. Propaganda - Duel
7. Japan - Quiet Life
8. Godley & Crème - Cry
9. Crowded House - Don't Dream It's Over
10. The Mint Juleps - Evr'y Kind Of People
11. The Blow Monkeys Featuring Kym Mazelle - Wait
12. Kool & The Gang - Celebration
13. Mary Jane Girls - All Night Long
14. Womack & Womack - Tear Drops
15. Mantronix Feat. Wondress - Got To Have Your Love
16. Shalamar - There It Is
17. Diana Ross - Upside Down
18. KC & The Sunshine Band - Give It Up
19. The Real Thing - Can't Get By Without You (Second Decade Mix)
20. Candido - Jingo"

Disc: 4
1. Cutting Crew - (I Just) Died In Your Arms Tonight
2. Robert Palmer - Addicted To Love
3. Level 42 - Running In The Family
4. The Blow Monkeys - Digging Your Scene
5. Madness - Our House
6. Blondie - Rapture
7. Jets - Crush On You
8. Nena - 99 Red Balloons
9. Katrina & The Waves - Walking On Sunshine
10. Kylie Minogue - Never To Late
11. Jane Wiedlin - Rush Hour
12. Kim Wilde - Kids In America
13. Carol Hitchcock - Get Ready
14. Samantha Fox - Touch Me (I Want Your Body)
15. Grandmaster Flash & The Furious Five - The Message
16. Eric B & Rakim - I Know You Got Soul
17. The Sugarhill Gang - Rappers Delight
18. Loose Ends - Hangin' On A String (Contemplating)
19. Oran Juice Jones - The Rain
20. Princess - Say I'm Your Number One"

Disc: 5
1. Madness - One Step Beyond
2. Bucks Fizz - Making Your Mind Up
3. The Stranglers - All Day And All Of The Night
4. Kiss - Crazy Crazy Nights
5. Transvison Vamp - I Want Your Love
6. Wang Chung - Dance Hall Days
7. Tracey Ullman - Sunglasses
8. Howard Jones - New Song
9. 808 State - Pacifc State
10. M - Pop Muzik '89 Remix
11. The Associates - Club Country
12. Huey Lewis & The News - The Power Of Love
13. Sydney Youngblood - If Only I Could
14. Heaven 17 - Temptation
15. john Waite - Missing You
16. Candi Staton - Suspicious Minds
17. Sam Brown - Stop
18. Phyllis Nelson - Move Closer
19. Ashford & Simpson - Solid
20. Angry Anderson - Suddenly

Exact Audio Copy V1.3 from 2. September 2016

EAC extraction logfile from 2. August 2018, 12:46

Various / Driven By - The 80s - CD1

Used drive : HL-DT-STDVDRAM GSA-E40N Adapter: 1 ID: 1

Read mode : Secure
Utilize accurate stream : Yes
Defeat audio cache : No
Make use of C2 pointers : Yes

Read offset correction : 667
Overread into Lead-In and Lead-Out : No
Fill up missing offset samples with silence : Yes
Delete leading and trailing silent blocks : No
Null samples used in CRC calculations : Yes
Used interface : Native Win32 interface for Win NT & 2000
Gap handling : Not detected, thus appended to previous track

Used output format : User Defined Encoder
Selected bitrate : 896 kBit/s
Quality : High
Add ID3 tag : No
Command line compressor : C:\Program Files (x86)\Exact Audio Copy\FLAC\FLAC.EXE
Additional command line options : -6 -V -T "ARTIST=%artist%" -T "TITLE=%title%" -T "ALBUM=%albumtitle%" -T "DATE=%year%" -T "TRACKNUMBER=%tracknr%" -T "GENRE=%genre%" -T "COMMENT=%comment%" -T "BAND=%albuminterpret%" -T "ALBUMARTIST=%albuminterpret%" -T "COMPOSER=%composer%" %haslyrics%–tag-from-file=LYRICS="%lyricsfile%"%haslyrics% -T "DISCNUMBER=%cdnumber%" -T "TOTALDISCS=%totalcds%" -T "TOTALTRACKS=%numtracks%" %hascover%–picture="%coverfile%"%hascover% %source% -o %dest%


TOC of the extracted CD

Track | Start | Length | Start sector | End sector
––––––––––––––––––––––––––––-
1 | 0:00.00 | 3:50.15 | 0 | 17264
2 | 3:50.15 | 3:25.57 | 17265 | 32696
3 | 7:15.72 | 2:40.27 | 32697 | 44723
4 | 9:56.24 | 3:48.72 | 44724 | 61895
5 | 13:45.21 | 4:05.46 | 61896 | 80316
6 | 17:50.67 | 4:08.65 | 80317 | 98981
7 | 21:59.57 | 3:23.47 | 98982 | 114253
8 | 25:23.29 | 3:57.45 | 114254 | 132073
9 | 29:20.74 | 3:52.42 | 132074 | 149515
10 | 33:13.41 | 3:52.51 | 149516 | 166966
11 | 37:06.17 | 4:13.37 | 166967 | 185978
12 | 41:19.54 | 3:34.66 | 185979 | 202094
13 | 44:54.45 | 3:30.35 | 202095 | 217879
14 | 48:25.05 | 2:54.59 | 217880 | 230988
15 | 51:19.64 | 2:42.29 | 230989 | 243167
16 | 54:02.18 | 4:11.26 | 243168 | 262018
17 | 58:13.44 | 3:05.48 | 262019 | 275941
18 | 61:19.17 | 3:23.02 | 275942 | 291168
19 | 64:42.19 | 2:50.70 | 291169 | 303988
20 | 67:33.14 | 3:04.14 | 303989 | 317802


Track 1

Filename A:\PsPBuRnOuT's MUSIC\SORTED BY YEAR\1980s\DRIVEN BY - THE 80s\DRIVEN BY - THE 80s - CD1\01.Alison Moyet - Love Resurection.wav

Peak level 85.3 %
Extraction speed 9.6 X
Track quality 99.5 %
Copy CRC 787BAD1B
Track not present in AccurateRip database
Copy OK

Track 2

Filename A:\PsPBuRnOuT's MUSIC\SORTED BY YEAR\1980s\DRIVEN BY - THE 80s\DRIVEN BY - THE 80s - CD1\02.Johnny Hates Jazz - Shattered Dreams.wav

Peak level 100.0 %
Extraction speed 14.9 X
Track quality 99.8 %
Copy CRC 16ACFC41
Track not present in AccurateRip database
Copy OK

Track 3

Filename A:\PsPBuRnOuT's MUSIC\SORTED BY YEAR\1980s\DRIVEN BY - THE 80s\DRIVEN BY - THE 80s - CD1\03.Soft Cell - Tainted Love.wav

Peak level 87.1 %
Extraction speed 21.3 X
Track quality 100.0 %
Copy CRC D36A7BA9
Track not present in AccurateRip database
Copy OK

Track 4

Filename A:\PsPBuRnOuT's MUSIC\SORTED BY YEAR\1980s\DRIVEN BY - THE 80s\DRIVEN BY - THE 80s - CD1\04.Vanilla Ice - Ice Ice Baby.wav

Peak level 100.0 %
Extraction speed 20.3 X
Track quality 100.0 %
Copy CRC 558F3F1B
Track not present in AccurateRip database
Copy OK

Track 5

Filename A:\PsPBuRnOuT's MUSIC\SORTED BY YEAR\1980s\DRIVEN BY - THE 80s\DRIVEN BY - THE 80s - CD1\05.Spagna - Call Me.wav

Peak level 96.6 %
Extraction speed 21.8 X
Track quality 100.0 %
Copy CRC 01C0EEE1
Track not present in AccurateRip database
Copy OK

Track 6

Filename A:\PsPBuRnOuT's MUSIC\SORTED BY YEAR\1980s\DRIVEN BY - THE 80s\DRIVEN BY - THE 80s - CD1\06.Paula Abdul - Straight Up.wav

Peak level 89.0 %
Extraction speed 22.2 X
Track quality 99.9 %
Copy CRC AC3A30BC
Track not present in AccurateRip database
Copy OK

Track 7

Filename A:\PsPBuRnOuT's MUSIC\SORTED BY YEAR\1980s\DRIVEN BY - THE 80s\DRIVEN BY - THE 80s - CD1\07.Frankie Goes To Hollywood - Two Tribes.wav

Peak level 93.2 %
Extraction speed 21.8 X
Track quality 99.8 %
Copy CRC 541D63F6
Track not present in AccurateRip database
Copy OK

Track 8

Filename A:\PsPBuRnOuT's MUSIC\SORTED BY YEAR\1980s\DRIVEN BY - THE 80s\DRIVEN BY - THE 80s - CD1\08.Colonel Abrams - Trapped.wav

Peak level 97.7 %
Extraction speed 24.5 X
Track quality 100.0 %
Copy CRC E9183562
Track not present in AccurateRip database
Copy OK

Track 9

Filename A:\PsPBuRnOuT's MUSIC\SORTED BY YEAR\1980s\DRIVEN BY - THE 80s\DRIVEN BY - THE 80s - CD1\09.Big Country - Big Country.wav

Peak level 100.0 %
Extraction speed 25.8 X
Track quality 100.0 %
Copy CRC 71A8EA84
Track not present in AccurateRip database
Copy OK

Track 10

Filename A:\PsPBuRnOuT's MUSIC\SORTED BY YEAR\1980s\DRIVEN BY - THE 80s\DRIVEN BY - THE 80s - CD1\10.The Stranglers - Skin Deep.wav

Peak level 100.0 %
Extraction speed 29.3 X
Track quality 100.0 %
Copy CRC 8E32A864
Track not present in AccurateRip database
Copy OK

Track 11

Filename A:\PsPBuRnOuT's MUSIC\SORTED BY YEAR\1980s\DRIVEN BY - THE 80s\DRIVEN BY - THE 80s - CD1\11.Heart - These Dreams.wav

Peak level 98.8 %
Extraction speed 28.1 X
Track quality 100.0 %
Copy CRC 7A51A6C0
Track not present in AccurateRip database
Copy OK

Track 12

Filename A:\PsPBuRnOuT's MUSIC\SORTED BY YEAR\1980s\DRIVEN BY - THE 80s\DRIVEN BY - THE 80s - CD1\12.Mike Oldfield - Moonlight Shadow.wav

Peak level 89.1 %
Extraction speed 31.6 X
Track quality 100.0 %
Copy CRC D26C9715
Track not present in AccurateRip database
Copy OK

Track 13

Filename A:\PsPBuRnOuT's MUSIC\SORTED BY YEAR\1980s\DRIVEN BY - THE 80s\DRIVEN BY - THE 80s - CD1\13.Culture Club - Church Of The Poison Mind.wav

Peak level 100.0 %
Extraction speed 33.3 X
Track quality 100.0 %
Copy CRC 59690B0C
Track not present in AccurateRip database
Copy OK

Track 14

Filename A:\PsPBuRnOuT's MUSIC\SORTED BY YEAR\1980s\DRIVEN BY - THE 80s\DRIVEN BY - THE 80s - CD1\14.Au Pairs - Inconvenience.wav

Peak level 100.0 %
Extraction speed 28.8 X
Track quality 100.0 %
Copy CRC 380AA4A0
Track not present in AccurateRip database
Copy OK

Track 15

Filename A:\PsPBuRnOuT's MUSIC\SORTED BY YEAR\1980s\DRIVEN BY - THE 80s\DRIVEN BY - THE 80s - CD1\15.The Teardrop Explodes - Reward.wav

Peak level 98.8 %
Extraction speed 28.1 X
Track quality 100.0 %
Copy CRC A17A8025
Track not present in AccurateRip database
Copy OK

Track 16

Filename A:\PsPBuRnOuT's MUSIC\SORTED BY YEAR\1980s\DRIVEN BY - THE 80s\DRIVEN BY - THE 80s - CD1\16.Dexy's Midnight Runners - Come On Eileen.wav

Peak level 96.5 %
Extraction speed 30.0 X
Track quality 100.0 %
Copy CRC A23FBDFB
Track not present in AccurateRip database
Copy OK

Track 17

Filename A:\PsPBuRnOuT's MUSIC\SORTED BY YEAR\1980s\DRIVEN BY - THE 80s\DRIVEN BY - THE 80s - CD1\17.The Beat - Mirror In The Bathroom.wav

Peak level 100.0 %
Extraction speed 29.3 X
Track quality 100.0 %
Copy CRC 6A503841
Track not present in AccurateRip database
Copy OK

Track 18

Filename A:\PsPBuRnOuT's MUSIC\SORTED BY YEAR\1980s\DRIVEN BY - THE 80s\DRIVEN BY - THE 80s - CD1\18.The Style Council - Walls Come Tumbling Down.wav

Peak level 94.4 %
Extraction speed 36.7 X
Track quality 100.0 %
Copy CRC 6065C378
Track not present in AccurateRip database
Copy OK

Track 19

Filename A:\PsPBuRnOuT's MUSIC\SORTED BY YEAR\1980s\DRIVEN BY - THE 80s\DRIVEN BY - THE 80s - CD1\19.The Maisonettes - Heartache Avenue.wav

Peak level 94.2 %
Extraction speed 35.1 X
Track quality 100.0 %
Copy CRC 9BF2EAEE
Track not present in AccurateRip database
Copy OK

Track 20

Filename A:\PsPBuRnOuT's MUSIC\SORTED BY YEAR\1980s\DRIVEN BY - THE 80s\DRIVEN BY - THE 80s - CD1\20.Sophia George - Girlie, Girlie.wav

Peak level 100.0 %
Extraction speed 31.7 X
Track quality 100.0 %
Copy CRC 30D9E856
Track not present in AccurateRip database
Copy OK


None of the tracks are present in the AccurateRip database

No errors occurred

End of status report

–– CUETools DB Plugin V2.1.6

[CTDB TOCID: ao8rw9eznHZ8s8OeT.7Pj9nAI3A-] disk not present in database
Submit result: ao8rw9eznHZ8s8OeT.7Pj9nAI3A- has been uploaded

Exact Audio Copy V1.3 from 2. September 2016

EAC extraction logfile from 2. August 2018, 13:25

Various / Driven By - The 80s - CD2

Used drive : HL-DT-STDVDRAM GSA-E40N Adapter: 1 ID: 1

Read mode : Secure
Utilize accurate stream : Yes
Defeat audio cache : No
Make use of C2 pointers : Yes

Read offset correction : 667
Overread into Lead-In and Lead-Out : No
Fill up missing offset samples with silence : Yes
Delete leading and trailing silent blocks : No
Null samples used in CRC calculations : Yes
Used interface : Native Win32 interface for Win NT & 2000
Gap handling : Not detected, thus appended to previous track

Used output format : User Defined Encoder
Selected bitrate : 896 kBit/s
Quality : High
Add ID3 tag : No
Command line compressor : C:\Program Files (x86)\Exact Audio Copy\FLAC\FLAC.EXE
Additional command line options : -6 -V -T "ARTIST=%artist%" -T "TITLE=%title%" -T "ALBUM=%albumtitle%" -T "DATE=%year%" -T "TRACKNUMBER=%tracknr%" -T "GENRE=%genre%" -T "COMMENT=%comment%" -T "BAND=%albuminterpret%" -T "ALBUMARTIST=%albuminterpret%" -T "COMPOSER=%composer%" %haslyrics%–tag-from-file=LYRICS="%lyricsfile%"%haslyrics% -T "DISCNUMBER=%cdnumber%" -T "TOTALDISCS=%totalcds%" -T "TOTALTRACKS=%numtracks%" %hascover%–picture="%coverfile%"%hascover% %source% -o %dest%


TOC of the extracted CD

Track | Start | Length | Start sector | End sector
––––––––––––––––––––––––––––-
1 | 0:00.00 | 3:32.24 | 0 | 15923
2 | 3:32.24 | 3:15.33 | 15924 | 30581
3 | 6:47.57 | 3:53.31 | 30582 | 48087
4 | 10:41.13 | 3:57.11 | 48088 | 65873
5 | 14:38.24 | 3:30.04 | 65874 | 81627
6 | 18:08.28 | 3:57.26 | 81628 | 99428
7 | 22:05.54 | 4:29.34 | 99429 | 119637
8 | 26:35.13 | 3:21.24 | 119638 | 134736
9 | 29:56.37 | 4:13.39 | 134737 | 153750
10 | 34:10.01 | 3:33.17 | 153751 | 169742
11 | 37:43.18 | 3:24.72 | 169743 | 185114
12 | 41:08.15 | 3:40.51 | 185115 | 201665
13 | 44:48.66 | 3:13.51 | 201666 | 216191
14 | 48:02.42 | 3:54.25 | 216192 | 233766
15 | 51:56.67 | 3:33.31 | 233767 | 249772
16 | 55:30.23 | 3:41.40 | 249773 | 266387
17 | 59:11.63 | 5:47.10 | 266388 | 292422
18 | 64:58.73 | 5:04.01 | 292423 | 315223
19 | 70:02.74 | 3:56.30 | 315224 | 332953
20 | 73:59.29 | 4:51.20 | 332954 | 354798


Track 1

Filename A:\PsPBuRnOuT's MUSIC\SORTED BY YEAR\1980s\DRIVEN BY - THE 80s\DRIVEN BY - THE 80s - CD2\01.Iggy Pop - Real Wild Child.wav

Peak level 100.0 %
Extraction speed 4.6 X
Track quality 100.0 %
Copy CRC 7787BD3F
Track not present in AccurateRip database
Copy OK

Track 2

Filename A:\PsPBuRnOuT's MUSIC\SORTED BY YEAR\1980s\DRIVEN BY - THE 80s\DRIVEN BY - THE 80s - CD2\02.Rainbow - Since You've Been Gone.wav

Peak level 100.0 %
Extraction speed 5.0 X
Track quality 100.0 %
Copy CRC D905BCC5
Track not present in AccurateRip database
Copy OK

Track 3

Filename A:\PsPBuRnOuT's MUSIC\SORTED BY YEAR\1980s\DRIVEN BY - THE 80s\DRIVEN BY - THE 80s - CD2\03.Status Quo - In The Army Now.wav

Peak level 99.9 %
Extraction speed 5.0 X
Track quality 100.0 %
Copy CRC 89D4E636
Track not present in AccurateRip database
Copy OK

Track 4

Filename A:\PsPBuRnOuT's MUSIC\SORTED BY YEAR\1980s\DRIVEN BY - THE 80s\DRIVEN BY - THE 80s - CD2\04.The Human League - Don't You Want Me.wav

Peak level 89.0 %
Extraction speed 5.8 X
Track quality 100.0 %
Copy CRC 60A87214
Track not present in AccurateRip database
Copy OK

Track 5

Filename A:\PsPBuRnOuT's MUSIC\SORTED BY YEAR\1980s\DRIVEN BY - THE 80s\DRIVEN BY - THE 80s - CD2\05.Passion Puppets - Voices.wav

Peak level 91.2 %
Extraction speed 3.7 X
Track quality 99.4 %
Copy CRC 6F60BA5F
Track not present in AccurateRip database
Copy OK

Track 6

Filename A:\PsPBuRnOuT's MUSIC\SORTED BY YEAR\1980s\DRIVEN BY - THE 80s\DRIVEN BY - THE 80s - CD2\06.Animotion - Obsession.wav

Peak level 100.0 %
Extraction speed 5.5 X
Track quality 99.9 %
Copy CRC 6BA1CD8A
Track not present in AccurateRip database
Copy OK

Track 7

Filename A:\PsPBuRnOuT's MUSIC\SORTED BY YEAR\1980s\DRIVEN BY - THE 80s\DRIVEN BY - THE 80s - CD2\07.Salt N Pepa - Push It.wav

Peak level 100.0 %
Extraction speed 4.7 X
Track quality 99.6 %
Copy CRC E5BF183D
Track not present in AccurateRip database
Copy OK

Track 8

Filename A:\PsPBuRnOuT's MUSIC\SORTED BY YEAR\1980s\DRIVEN BY - THE 80s\DRIVEN BY - THE 80s - CD2\08.Mel & Kim - Respectable.wav

Peak level 89.1 %
Extraction speed 5.3 X
Track quality 99.7 %
Copy CRC 24C8FDEB
Track not present in AccurateRip database
Copy OK

Track 9

Filename A:\PsPBuRnOuT's MUSIC\SORTED BY YEAR\1980s\DRIVEN BY - THE 80s\DRIVEN BY - THE 80s - CD2\09.Kim Wilde - You Keep Me Hanging On.wav

Peak level 100.0 %
Extraction speed 6.9 X
Track quality 100.0 %
Copy CRC 34B6F31E
Track not present in AccurateRip database
Copy OK

Track 10

Filename A:\PsPBuRnOuT's MUSIC\SORTED BY YEAR\1980s\DRIVEN BY - THE 80s\DRIVEN BY - THE 80s - CD2\10.Rick Astley - Never Gonna Give You Up.wav

Peak level 99.2 %
Extraction speed 5.8 X
Track quality 99.7 %
Copy CRC 527DF302
Track not present in AccurateRip database
Copy OK

Track 11

Filename A:\PsPBuRnOuT's MUSIC\SORTED BY YEAR\1980s\DRIVEN BY - THE 80s\DRIVEN BY - THE 80s - CD2\11.Jason Donovan - Too Many Broken Hearts.wav

Peak level 84.0 %
Extraction speed 7.9 X
Track quality 100.0 %
Copy CRC 4F8CC7BE
Track not present in AccurateRip database
Copy OK

Track 12

Filename A:\PsPBuRnOuT's MUSIC\SORTED BY YEAR\1980s\DRIVEN BY - THE 80s\DRIVEN BY - THE 80s - CD2\12.A Flock Of Seagulls - I Ran (So Far Away).wav

Peak level 88.1 %
Extraction speed 5.0 X
Track quality 99.4 %
Copy CRC 5076AD51
Track not present in AccurateRip database
Copy OK

Track 13

Filename A:\PsPBuRnOuT's MUSIC\SORTED BY YEAR\1980s\DRIVEN BY - THE 80s\DRIVEN BY - THE 80s - CD2\13.The Belle Stars - The Clapping Song.wav

Suspicious position 0:00:35
Suspicious position 0:02:32

Peak level 91.8 %
Extraction speed 2.9 X
Track quality 98.4 %
Copy CRC EDEA4FE5
Track not present in AccurateRip database
Copy finished

Track 14

Filename A:\PsPBuRnOuT's MUSIC\SORTED BY YEAR\1980s\DRIVEN BY - THE 80s\DRIVEN BY - THE 80s - CD2\14.Midnight Star - Midas Touch.wav

Suspicious position 0:03:53

Peak level 100.0 %
Extraction speed 4.2 X
Track quality 99.1 %
Copy CRC 6158D4E0
Track not present in AccurateRip database
Copy finished

Track 15

Filename A:\PsPBuRnOuT's MUSIC\SORTED BY YEAR\1980s\DRIVEN BY - THE 80s\DRIVEN BY - THE 80s - CD2\15.Soul II Soul Feat. Caron Wheeler - Keep On Movin'.wav

Suspicious position 0:03:22

Peak level 100.0 %
Extraction speed 5.3 X
Track quality 99.3 %
Copy CRC 768EFA87
Track not present in AccurateRip database
Copy finished

Track 16

Filename A:\PsPBuRnOuT's MUSIC\SORTED BY YEAR\1980s\DRIVEN BY - THE 80s\DRIVEN BY - THE 80s - CD2\16.Ollie & Jerry - Breakin'… There's No Stoppin' Us.wav

Peak level 100.0 %
Extraction speed 4.4 X
Track quality 99.2 %
Copy CRC 35B2BD04
Track not present in AccurateRip database
Copy OK

Track 17

Filename A:\PsPBuRnOuT's MUSIC\SORTED BY YEAR\1980s\DRIVEN BY - THE 80s\DRIVEN BY - THE 80s - CD2\17.Mac Band Feat. The McCampbell Brothers - Rose Are Red.wav

Peak level 84.1 %
Extraction speed 9.4 X
Track quality 100.0 %
Copy CRC 40B2C952
Track not present in AccurateRip database
Copy OK

Track 18

Filename A:\PsPBuRnOuT's MUSIC\SORTED BY YEAR\1980s\DRIVEN BY - THE 80s\DRIVEN BY - THE 80s - CD2\18.Raze - Break 4 Luv.wav

Peak level 89.1 %
Extraction speed 7.9 X
Track quality 99.8 %
Copy CRC DCC1ADE5
Track not present in AccurateRip database
Copy OK

Track 19

Filename A:\PsPBuRnOuT's MUSIC\SORTED BY YEAR\1980s\DRIVEN BY - THE 80s\DRIVEN BY - THE 80s - CD2\19.The Sugar Hill Gang - 8th Wonder.wav

Peak level 82.4 %
Extraction speed 7.7 X
Track quality 99.7 %
Copy CRC 0B2E4FDB
Track not present in AccurateRip database
Copy OK

Track 20

Filename A:\PsPBuRnOuT's MUSIC\SORTED BY YEAR\1980s\DRIVEN BY - THE 80s\DRIVEN BY - THE 80s - CD2\20.The Whispers - And The Beat Goes On.wav

Suspicious position 0:04:50

Peak level 92.7 %
Extraction speed 8.2 X
Track quality 99.7 %
Copy CRC C62EF876
Track not present in AccurateRip database
Copy finished


None of the tracks are present in the AccurateRip database

There were errors

End of status report

–– CUETools DB Plugin V2.1.6

[CTDB TOCID: ENEp5fO3FT4Fv7hqz9WymmL_xlc-] disk not present in database
Submit result: ENEp5fO3FT4Fv7hqz9WymmL_xlc- has been submitted

Exact Audio Copy V1.3 from 2. September 2016

EAC extraction logfile from 2. August 2018, 14:56

Various / Driven By - The 80s - CD3

Used drive : HL-DT-STDVDRAM GSA-E40N Adapter: 1 ID: 1

Read mode : Secure
Utilize accurate stream : Yes
Defeat audio cache : No
Make use of C2 pointers : Yes

Read offset correction : 667
Overread into Lead-In and Lead-Out : No
Fill up missing offset samples with silence : Yes
Delete leading and trailing silent blocks : No
Null samples used in CRC calculations : Yes
Used interface : Native Win32 interface for Win NT & 2000
Gap handling : Not detected, thus appended to previous track

Used output format : User Defined Encoder
Selected bitrate : 896 kBit/s
Quality : High
Add ID3 tag : No
Command line compressor : C:\Program Files (x86)\Exact Audio Copy\FLAC\FLAC.EXE
Additional command line options : -6 -V -T "ARTIST=%artist%" -T "TITLE=%title%" -T "ALBUM=%albumtitle%" -T "DATE=%year%" -T "TRACKNUMBER=%tracknr%" -T "GENRE=%genre%" -T "COMMENT=%comment%" -T "BAND=%albuminterpret%" -T "ALBUMARTIST=%albuminterpret%" -T "COMPOSER=%composer%" %haslyrics%–tag-from-file=LYRICS="%lyricsfile%"%haslyrics% -T "DISCNUMBER=%cdnumber%" -T "TOTALDISCS=%totalcds%" -T "TOTALTRACKS=%numtracks%" %hascover%–picture="%coverfile%"%hascover% %source% -o %dest%


TOC of the extracted CD

Track | Start | Length | Start sector | End sector
––––––––––––––––––––––––––––-
1 | 0:00.00 | 4:05.38 | 0 | 18412
2 | 4:05.38 | 3:27.59 | 18413 | 33996
3 | 7:33.22 | 3:30.71 | 33997 | 49817
4 | 11:04.18 | 5:11.36 | 49818 | 73178
5 | 16:15.54 | 4:36.23 | 73179 | 93901
6 | 20:52.02 | 4:39.25 | 93902 | 114851
7 | 25:31.27 | 3:51.54 | 114852 | 132230
8 | 29:23.06 | 3:54.14 | 132231 | 149794
9 | 33:17.20 | 3:47.15 | 149795 | 166834
10 | 37:04.35 | 4:16.74 | 166835 | 186108
11 | 41:21.34 | 3:08.63 | 186109 | 200271
12 | 44:30.22 | 3:38.35 | 200272 | 216656
13 | 48:08.57 | 4:04.15 | 216657 | 234971
14 | 52:12.72 | 3:50.10 | 234972 | 252231
15 | 56:03.07 | 3:59.00 | 252232 | 270156
16 | 60:02.07 | 4:21.16 | 270157 | 289747
17 | 64:23.23 | 3:37.68 | 289748 | 306090
18 | 68:01.16 | 4:01.48 | 306091 | 324213
19 | 72:02.64 | 3:16.61 | 324214 | 338974
20 | 75:19.50 | 3:26.56 | 338975 | 354480


Track 1

Filename A:\PsPBuRnOuT's MUSIC\SORTED BY YEAR\1980s\DRIVEN BY - THE 80s\DRIVEN BY - THE 80s - CD3\01.Tears For Fears - Everybody Wants To Rule The World.wav

Peak level 92.2 %
Extraction speed 16.1 X
Track quality 99.9 %
Copy CRC D1F45A1C
Track not present in AccurateRip database
Copy OK

Track 2

Filename A:\PsPBuRnOuT's MUSIC\SORTED BY YEAR\1980s\DRIVEN BY - THE 80s\DRIVEN BY - THE 80s - CD3\02.ABC - The Look Of Love.wav

Peak level 88.1 %
Extraction speed 12.9 X
Track quality 99.8 %
Copy CRC 5E50D5F7
Track not present in AccurateRip database
Copy OK

Track 3

Filename A:\PsPBuRnOuT's MUSIC\SORTED BY YEAR\1980s\DRIVEN BY - THE 80s\DRIVEN BY - THE 80s - CD3\03.Thompson Twins - Love On Your Side.wav

Peak level 100.0 %
Extraction speed 18.3 X
Track quality 99.8 %
Copy CRC 999BDD8E
Track not present in AccurateRip database
Copy OK

Track 4

Filename A:\PsPBuRnOuT's MUSIC\SORTED BY YEAR\1980s\DRIVEN BY - THE 80s\DRIVEN BY - THE 80s - CD3\04.Gladys Knight - Licence To Kill.wav

Peak level 97.4 %
Extraction speed 18.0 X
Track quality 99.8 %
Copy CRC 86F0524D
Track not present in AccurateRip database
Copy OK

Track 5

Filename A:\PsPBuRnOuT's MUSIC\SORTED BY YEAR\1980s\DRIVEN BY - THE 80s\DRIVEN BY - THE 80s - CD3\05.Grace Jones - Private Life.wav

Peak level 100.0 %
Extraction speed 24.2 X
Track quality 100.0 %
Copy CRC 1B426FFC
Track not present in AccurateRip database
Copy OK

Track 6

Filename A:\PsPBuRnOuT's MUSIC\SORTED BY YEAR\1980s\DRIVEN BY - THE 80s\DRIVEN BY - THE 80s - CD3\06.Propaganda - Duel.wav

Peak level 97.7 %
Extraction speed 24.0 X
Track quality 100.0 %
Copy CRC C8A74165
Track not present in AccurateRip database
Copy OK

Track 7

Filename A:\PsPBuRnOuT's MUSIC\SORTED BY YEAR\1980s\DRIVEN BY - THE 80s\DRIVEN BY - THE 80s - CD3\07.Japan - Quite Life.wav

Peak level 100.0 %
Extraction speed 27.7 X
Track quality 100.0 %
Copy CRC C6C95357
Track not present in AccurateRip database
Copy OK

Track 8

Filename A:\PsPBuRnOuT's MUSIC\SORTED BY YEAR\1980s\DRIVEN BY - THE 80s\DRIVEN BY - THE 80s - CD3\08.Godley & Creme - Cry.wav

Peak level 100.0 %
Extraction speed 25.3 X
Track quality 100.0 %
Copy CRC 930562CF
Track not present in AccurateRip database
Copy OK

Track 9

Filename A:\PsPBuRnOuT's MUSIC\SORTED BY YEAR\1980s\DRIVEN BY - THE 80s\DRIVEN BY - THE 80s - CD3\09.Crowded House - Don't Dream It's Over.wav

Peak level 94.4 %
Extraction speed 24.6 X
Track quality 99.9 %
Copy CRC DFFC7DD9
Track not present in AccurateRip database
Copy OK

Track 10

Filename A:\PsPBuRnOuT's MUSIC\SORTED BY YEAR\1980s\DRIVEN BY - THE 80s\DRIVEN BY - THE 80s - CD3\10.The Mint Juleps - Evr'y Kind Of People.wav

Peak level 92.2 %
Extraction speed 26.9 X
Track quality 100.0 %
Copy CRC E109F56D
Track not present in AccurateRip database
Copy OK

Track 11

Filename A:\PsPBuRnOuT's MUSIC\SORTED BY YEAR\1980s\DRIVEN BY - THE 80s\DRIVEN BY - THE 80s - CD3\11.The Blow Monkeys Feat. Kym Mazelle - Wait.wav

Peak level 100.0 %
Extraction speed 27.3 X
Track quality 100.0 %
Copy CRC 6D845DA6
Track not present in AccurateRip database
Copy OK

Track 12

Filename A:\PsPBuRnOuT's MUSIC\SORTED BY YEAR\1980s\DRIVEN BY - THE 80s\DRIVEN BY - THE 80s - CD3\12.Kool & The Gang - Celebration.wav

Peak level 100.0 %
Extraction speed 28.3 X
Track quality 100.0 %
Copy CRC F40DE153
Track not present in AccurateRip database
Copy OK

Track 13

Filename A:\PsPBuRnOuT's MUSIC\SORTED BY YEAR\1980s\DRIVEN BY - THE 80s\DRIVEN BY - THE 80s - CD3\13.Mary Jane Girls - All Night Long.wav

Peak level 100.0 %
Extraction speed 33.4 X
Track quality 100.0 %
Copy CRC BB724D5D
Track not present in AccurateRip database
Copy OK

Track 14

Filename A:\PsPBuRnOuT's MUSIC\SORTED BY YEAR\1980s\DRIVEN BY - THE 80s\DRIVEN BY - THE 80s - CD3\14.Womack & Womack - Tear Drops.wav

Peak level 100.0 %
Extraction speed 33.6 X
Track quality 100.0 %
Copy CRC 898BF07F
Track not present in AccurateRip database
Copy OK

Track 15

Filename A:\PsPBuRnOuT's MUSIC\SORTED BY YEAR\1980s\DRIVEN BY - THE 80s\DRIVEN BY - THE 80s - CD3\15.Mantronix Feat. Wondress - Got To Have Your Love.wav

Peak level 89.1 %
Extraction speed 28.7 X
Track quality 99.9 %
Copy CRC 4AD13523
Track not present in AccurateRip database
Copy OK

Track 16

Filename A:\PsPBuRnOuT's MUSIC\SORTED BY YEAR\1980s\DRIVEN BY - THE 80s\DRIVEN BY - THE 80s - CD3\16.Shalamar - There It Is.wav

Peak level 100.0 %
Extraction speed 30.7 X
Track quality 100.0 %
Copy CRC B7DFD08A
Track not present in AccurateRip database
Copy OK

Track 17

Filename A:\PsPBuRnOuT's MUSIC\SORTED BY YEAR\1980s\DRIVEN BY - THE 80s\DRIVEN BY - THE 80s - CD3\17.Diana Ross - Upside Down.wav

Peak level 100.0 %
Extraction speed 30.0 X
Track quality 100.0 %
Copy CRC 32744105
Track not present in AccurateRip database
Copy OK

Track 18

Filename A:\PsPBuRnOuT's MUSIC\SORTED BY YEAR\1980s\DRIVEN BY - THE 80s\DRIVEN BY - THE 80s - CD3\18.KC & The Sunshine Band - Give It Up.wav

Peak level 87.1 %
Extraction speed 36.5 X
Track quality 100.0 %
Copy CRC 31079F8C
Track not present in AccurateRip database
Copy OK

Track 19

Filename A:\PsPBuRnOuT's MUSIC\SORTED BY YEAR\1980s\DRIVEN BY - THE 80s\DRIVEN BY - THE 80s - CD3\19.The Real Thing - Can't Get By Without You (Second Decade Mix).wav

Peak level 96.6 %
Extraction speed 31.0 X
Track quality 100.0 %
Copy CRC 4094623F
Track not present in AccurateRip database
Copy OK

Track 20

Filename A:\PsPBuRnOuT's MUSIC\SORTED BY YEAR\1980s\DRIVEN BY - THE 80s\DRIVEN BY - THE 80s - CD3\20.Candido - Jingo.wav

Peak level 85.6 %
Extraction speed 31.8 X
Track quality 100.0 %
Copy CRC D0B10DB2
Track not present in AccurateRip database
Copy OK


None of the tracks are present in the AccurateRip database

No errors occurred

End of status report

–– CUETools DB Plugin V2.1.6

[CTDB TOCID: 7IpFpMySbvPcyx90a3MEjIogiY4-] disk not present in database
Submit result: 7IpFpMySbvPcyx90a3MEjIogiY4- has been uploaded

Exact Audio Copy V1.3 from 2. September 2016

EAC extraction logfile from 2. August 2018, 15:31

Various / Driven By - The 80s - CD4

Used drive : HL-DT-STDVDRAM GSA-E40N Adapter: 1 ID: 1

Read mode : Secure
Utilize accurate stream : Yes
Defeat audio cache : No
Make use of C2 pointers : Yes

Read offset correction : 667
Overread into Lead-In and Lead-Out : No
Fill up missing offset samples with silence : Yes
Delete leading and trailing silent blocks : No
Null samples used in CRC calculations : Yes
Used interface : Native Win32 interface for Win NT & 2000
Gap handling : Not detected, thus appended to previous track

Used output format : User Defined Encoder
Selected bitrate : 896 kBit/s
Quality : High
Add ID3 tag : No
Command line compressor : C:\Program Files (x86)\Exact Audio Copy\FLAC\FLAC.EXE
Additional command line options : -6 -V -T "ARTIST=%artist%" -T "TITLE=%title%" -T "ALBUM=%albumtitle%" -T "DATE=%year%" -T "TRACKNUMBER=%tracknr%" -T "GENRE=%genre%" -T "COMMENT=%comment%" -T "BAND=%albuminterpret%" -T "ALBUMARTIST=%albuminterpret%" -T "COMPOSER=%composer%" %haslyrics%–tag-from-file=LYRICS="%lyricsfile%"%haslyrics% -T "DISCNUMBER=%cdnumber%" -T "TOTALDISCS=%totalcds%" -T "TOTALTRACKS=%numtracks%" %hascover%–picture="%coverfile%"%hascover% %source% -o %dest%


TOC of the extracted CD

Track | Start | Length | Start sector | End sector
––––––––––––––––––––––––––––-
1 | 0:00.00 | 4:33.47 | 0 | 20521
2 | 4:33.47 | 3:56.18 | 20522 | 38239
3 | 8:29.65 | 3:56.66 | 38240 | 56005
4 | 12:26.56 | 4:03.71 | 56006 | 74301
5 | 16:30.52 | 3:10.31 | 74302 | 88582
6 | 19:41.08 | 4:57.35 | 88583 | 110892
7 | 24:38.43 | 4:30.09 | 110893 | 131151
8 | 29:08.52 | 3:50.19 | 131152 | 148420
9 | 32:58.71 | 3:57.55 | 148421 | 166250
10 | 36:56.51 | 3:22.13 | 166251 | 181413
11 | 40:18.64 | 4:00.43 | 181414 | 199456
12 | 44:19.32 | 3:10.38 | 199457 | 213744
13 | 47:29.70 | 3:30.73 | 213745 | 229567
14 | 51:00.68 | 3:44.60 | 229568 | 246427
15 | 54:45.53 | 3:11.72 | 246428 | 260824
16 | 57:57.50 | 4:44.21 | 260825 | 282145
17 | 62:41.71 | 3:58.18 | 282146 | 300013
18 | 66:40.14 | 3:34.59 | 300014 | 316122
19 | 70:14.73 | 5:07.22 | 316123 | 339169
20 | 75:22.20 | 3:39.00 | 339170 | 355594


Track 1

Filename A:\PsPBuRnOuT's MUSIC\SORTED BY YEAR\1980s\DRIVEN BY - THE 80s\DRIVEN BY - THE 80s - CD4\01.Cutting Crew - (I Just) Died In Your Arms Tonight.wav

Peak level 98.8 %
Extraction speed 4.7 X
Track quality 99.2 %
Copy CRC 28A3D4F0
Track not present in AccurateRip database
Copy OK

Track 2

Filename A:\PsPBuRnOuT's MUSIC\SORTED BY YEAR\1980s\DRIVEN BY - THE 80s\DRIVEN BY - THE 80s - CD4\02.Robert Palmer - Addicted To Love.wav

Peak level 99.9 %
Extraction speed 7.1 X
Track quality 99.4 %
Copy CRC F1F40D8B
Track not present in AccurateRip database
Copy OK

Track 3

Filename A:\PsPBuRnOuT's MUSIC\SORTED BY YEAR\1980s\DRIVEN BY - THE 80s\DRIVEN BY - THE 80s - CD4\03.Level 42 - Running In The Family.wav

Peak level 100.0 %
Extraction speed 12.4 X
Track quality 99.7 %
Copy CRC 7795D50D
Track not present in AccurateRip database
Copy OK

Track 4

Filename A:\PsPBuRnOuT's MUSIC\SORTED BY YEAR\1980s\DRIVEN BY - THE 80s\DRIVEN BY - THE 80s - CD4\04.The Blow Monkeys - Digging Your Scene.wav

Peak level 100.0 %
Extraction speed 20.9 X
Track quality 100.0 %
Copy CRC 3C36B555
Track not present in AccurateRip database
Copy OK

Track 5

Filename A:\PsPBuRnOuT's MUSIC\SORTED BY YEAR\1980s\DRIVEN BY - THE 80s\DRIVEN BY - THE 80s - CD4\05.Madness - Our House.wav

Peak level 88.5 %
Extraction speed 19.8 X
Track quality 100.0 %
Copy CRC FA704D30
Track not present in AccurateRip database
Copy OK

Track 6

Filename A:\PsPBuRnOuT's MUSIC\SORTED BY YEAR\1980s\DRIVEN BY - THE 80s\DRIVEN BY - THE 80s - CD4\06.Blondie - Rapture.wav

Peak level 100.0 %
Extraction speed 23.1 X
Track quality 100.0 %
Copy CRC 657A8D74
Track not present in AccurateRip database
Copy OK

Track 7

Filename A:\PsPBuRnOuT's MUSIC\SORTED BY YEAR\1980s\DRIVEN BY - THE 80s\DRIVEN BY - THE 80s - CD4\07.Jets - Crush On You.wav

Peak level 100.0 %
Extraction speed 24.0 X
Track quality 100.0 %
Copy CRC F9837534
Track not present in AccurateRip database
Copy OK

Track 8

Filename A:\PsPBuRnOuT's MUSIC\SORTED BY YEAR\1980s\DRIVEN BY - THE 80s\DRIVEN BY - THE 80s - CD4\08.Nena - 99 Red Balloons.wav

Peak level 98.5 %
Extraction speed 24.7 X
Track quality 100.0 %
Copy CRC FA653F7D
Track not present in AccurateRip database
Copy OK

Track 9

Filename A:\PsPBuRnOuT's MUSIC\SORTED BY YEAR\1980s\DRIVEN BY - THE 80s\DRIVEN BY - THE 80s - CD4\09.Katrina & The Waves - Walking On Sunshine.wav

Peak level 88.8 %
Extraction speed 23.8 X
Track quality 99.9 %
Copy CRC F1D5B2E7
Track not present in AccurateRip database
Copy OK

Track 10

Filename A:\PsPBuRnOuT's MUSIC\SORTED BY YEAR\1980s\DRIVEN BY - THE 80s\DRIVEN BY - THE 80s - CD4\10.Kylie Minogue - Never To Late.wav

Peak level 89.1 %
Extraction speed 30.5 X
Track quality 100.0 %
Copy CRC 0001D516
Track not present in AccurateRip database
Copy OK

Track 11

Filename A:\PsPBuRnOuT's MUSIC\SORTED BY YEAR\1980s\DRIVEN BY - THE 80s\DRIVEN BY - THE 80s - CD4\11.Jane Wiedlin - Rush Hour.wav

Peak level 100.0 %
Extraction speed 26.2 X
Track quality 99.9 %
Copy CRC BF87638F
Track not present in AccurateRip database
Copy OK

Track 12

Filename A:\PsPBuRnOuT's MUSIC\SORTED BY YEAR\1980s\DRIVEN BY - THE 80s\DRIVEN BY - THE 80s - CD4\12.Kim Wilde - Kids In America.wav

Peak level 90.1 %
Extraction speed 26.6 X
Track quality 100.0 %
Copy CRC DB2BCDBB
Track not present in AccurateRip database
Copy OK

Track 13

Filename A:\PsPBuRnOuT's MUSIC\SORTED BY YEAR\1980s\DRIVEN BY - THE 80s\DRIVEN BY - THE 80s - CD4\13.Carol Hitchcock - Get Ready.wav

Peak level 94.4 %
Extraction speed 31.5 X
Track quality 100.0 %
Copy CRC 2DC6B620
Track not present in AccurateRip database
Copy OK

Track 14

Filename A:\PsPBuRnOuT's MUSIC\SORTED BY YEAR\1980s\DRIVEN BY - THE 80s\DRIVEN BY - THE 80s - CD4\14.Samantha Fox - Touch Me (I Want Your Body).wav

Peak level 99.9 %
Extraction speed 29.8 X
Track quality 100.0 %
Copy CRC 635680E5
Track not present in AccurateRip database
Copy OK

Track 15

Filename A:\PsPBuRnOuT's MUSIC\SORTED BY YEAR\1980s\DRIVEN BY - THE 80s\DRIVEN BY - THE 80s - CD4\15.Grandmaster Flash & The Furious Five - The Message.wav

Peak level 97.7 %
Extraction speed 33.3 X
Track quality 100.0 %
Copy CRC 18954CE1
Track not present in AccurateRip database
Copy OK

Track 16

Filename A:\PsPBuRnOuT's MUSIC\SORTED BY YEAR\1980s\DRIVEN BY - THE 80s\DRIVEN BY - THE 80s - CD4\16.Eric B & Rakim - I Know You Got Soul.wav

Peak level 87.3 %
Extraction speed 35.6 X
Track quality 100.0 %
Copy CRC 0136EE9A
Track not present in AccurateRip database
Copy OK

Track 17

Filename A:\PsPBuRnOuT's MUSIC\SORTED BY YEAR\1980s\DRIVEN BY - THE 80s\DRIVEN BY - THE 80s - CD4\17.The Sugar Hill Gang - Rappers Delight.wav

Peak level 95.5 %
Extraction speed 32.1 X
Track quality 100.0 %
Copy CRC DFD873A7
Track not present in AccurateRip database
Copy OK

Track 18

Filename A:\PsPBuRnOuT's MUSIC\SORTED BY YEAR\1980s\DRIVEN BY - THE 80s\DRIVEN BY - THE 80s - CD4\18.Loose Ends - Hangin' On A String (Contemplating).wav

Peak level 85.1 %
Extraction speed 29.5 X
Track quality 99.9 %
Copy CRC 34B3A0EF
Track not present in AccurateRip database
Copy OK

Track 19

Filename A:\PsPBuRnOuT's MUSIC\SORTED BY YEAR\1980s\DRIVEN BY - THE 80s\DRIVEN BY - THE 80s - CD4\19.Oran Juice Jones - The Rain.wav

Peak level 100.0 %
Extraction speed 35.2 X
Track quality 100.0 %
Copy CRC 731EED2F
Track not present in AccurateRip database
Copy OK

Track 20

Filename A:\PsPBuRnOuT's MUSIC\SORTED BY YEAR\1980s\DRIVEN BY - THE 80s\DRIVEN BY - THE 80s - CD4\20.Princess - Say I'm Your Number One.wav

Peak level 100.0 %
Extraction speed 33.1 X
Track quality 100.0 %
Copy CRC B2EF5DE5
Track not present in AccurateRip database
Copy OK


None of the tracks are present in the AccurateRip database

No errors occurred

End of status report

–– CUETools DB Plugin V2.1.6

[CTDB TOCID: CsDL8T6H7uCKiPk2NC2jvxhFbR0-] disk not present in database
Submit result: CsDL8T6H7uCKiPk2NC2jvxhFbR0- has been uploaded

Exact Audio Copy V1.3 from 2. September 2016

EAC extraction logfile from 2. August 2018, 16:13

Various / Driven By - The 80s - CD5

Used drive : HL-DT-STDVDRAM GSA-E40N Adapter: 1 ID: 1

Read mode : Secure
Utilize accurate stream : Yes
Defeat audio cache : No
Make use of C2 pointers : Yes

Read offset correction : 667
Overread into Lead-In and Lead-Out : No
Fill up missing offset samples with silence : Yes
Delete leading and trailing silent blocks : No
Null samples used in CRC calculations : Yes
Used interface : Native Win32 interface for Win NT & 2000
Gap handling : Not detected, thus appended to previous track

Used output format : User Defined Encoder
Selected bitrate : 896 kBit/s
Quality : High
Add ID3 tag : No
Command line compressor : C:\Program Files (x86)\Exact Audio Copy\FLAC\FLAC.EXE
Additional command line options : -6 -V -T "ARTIST=%artist%" -T "TITLE=%title%" -T "ALBUM=%albumtitle%" -T "DATE=%year%" -T "TRACKNUMBER=%tracknr%" -T "GENRE=%genre%" -T "COMMENT=%comment%" -T "BAND=%albuminterpret%" -T "ALBUMARTIST=%albuminterpret%" -T "COMPOSER=%composer%" %haslyrics%–tag-from-file=LYRICS="%lyricsfile%"%haslyrics% -T "DISCNUMBER=%cdnumber%" -T "TOTALDISCS=%totalcds%" -T "TOTALTRACKS=%numtracks%" %hascover%–picture="%coverfile%"%hascover% %source% -o %dest%


TOC of the extracted CD

Track | Start | Length | Start sector | End sector
––––––––––––––––––––––––––––-
1 | 0:00.00 | 2:19.13 | 0 | 10437
2 | 2:19.13 | 2:38.40 | 10438 | 22327
3 | 4:57.53 | 2:30.33 | 22328 | 33610
4 | 7:28.11 | 3:45.40 | 33611 | 50525
5 | 11:13.51 | 3:29.69 | 50526 | 66269
6 | 14:43.45 | 3:58.51 | 66270 | 84170
7 | 18:42.21 | 2:58.69 | 84171 | 97589
8 | 21:41.15 | 4:15.16 | 97590 | 116730
9 | 25:56.31 | 5:50.42 | 116731 | 143022
10 | 31:46.73 | 3:47.38 | 143023 | 160085
11 | 35:34.36 | 4:06.69 | 160086 | 178604
12 | 39:41.30 | 3:52.49 | 178605 | 196053
13 | 43:34.04 | 3:19.57 | 196054 | 211035
14 | 46:53.61 | 3:00.40 | 211036 | 224575
15 | 49:54.26 | 3:30.61 | 224576 | 240386
16 | 53:25.12 | 3:50.04 | 240387 | 257640
17 | 57:15.16 | 3:59.03 | 257641 | 275568
18 | 61:14.19 | 4:34.10 | 275569 | 296128
19 | 65:48.29 | 3:43.61 | 296129 | 312914
20 | 69:32.15 | 4:07.35 | 312915 | 331474


Track 1

Filename A:\PsPBuRnOuT's MUSIC\SORTED BY YEAR\1980s\DRIVEN BY - THE 80s\DRIVEN BY - THE 80s - CD5\01.Madness - One Step Beyond.wav

Peak level 87.1 %
Extraction speed 12.3 X
Track quality 100.0 %
Copy CRC DB4AF4D7
Track not present in AccurateRip database
Copy OK

Track 2

Filename A:\PsPBuRnOuT's MUSIC\SORTED BY YEAR\1980s\DRIVEN BY - THE 80s\DRIVEN BY - THE 80s - CD5\02.Bucks Fizz - Making Your Mind Up.wav

Peak level 91.2 %
Extraction speed 13.5 X
Track quality 100.0 %
Copy CRC CB2BE21C
Track not present in AccurateRip database
Copy OK

Track 3

Filename A:\PsPBuRnOuT's MUSIC\SORTED BY YEAR\1980s\DRIVEN BY - THE 80s\DRIVEN BY - THE 80s - CD5\03.The Stranglers - All Day And All Of The Night.wav

Peak level 100.0 %
Extraction speed 16.1 X
Track quality 100.0 %
Copy CRC 9815C1CF
Track not present in AccurateRip database
Copy OK

Track 4

Filename A:\PsPBuRnOuT's MUSIC\SORTED BY YEAR\1980s\DRIVEN BY - THE 80s\DRIVEN BY - THE 80s - CD5\04.Kiss - Crazy Crazy Nights.wav

Peak level 100.0 %
Extraction speed 16.0 X
Track quality 100.0 %
Copy CRC EF9552AE
Track not present in AccurateRip database
Copy OK

Track 5

Filename A:\PsPBuRnOuT's MUSIC\SORTED BY YEAR\1980s\DRIVEN BY - THE 80s\DRIVEN BY - THE 80s - CD5\05.Transvision Vamp - I Want Your Love.wav

Peak level 100.0 %
Extraction speed 16.6 X
Track quality 100.0 %
Copy CRC 86B72125
Track not present in AccurateRip database
Copy OK

Track 6

Filename A:\PsPBuRnOuT's MUSIC\SORTED BY YEAR\1980s\DRIVEN BY - THE 80s\DRIVEN BY - THE 80s - CD5\06.Wang Chung - Dance Hall Days.wav

Peak level 100.0 %
Extraction speed 16.6 X
Track quality 99.9 %
Copy CRC F6DEF10A
Track not present in AccurateRip database
Copy OK

Track 7

Filename A:\PsPBuRnOuT's MUSIC\SORTED BY YEAR\1980s\DRIVEN BY - THE 80s\DRIVEN BY - THE 80s - CD5\07.Tracey Ullman - Sunglasses.wav

Peak level 92.5 %
Extraction speed 17.7 X
Track quality 100.0 %
Copy CRC 1A81B267
Track not present in AccurateRip database
Copy OK

Track 8

Filename A:\PsPBuRnOuT's MUSIC\SORTED BY YEAR\1980s\DRIVEN BY - THE 80s\DRIVEN BY - THE 80s - CD5\08.Howard Jones - New Song.wav

Peak level 99.4 %
Extraction speed 19.6 X
Track quality 100.0 %
Copy CRC 2960368D
Track not present in AccurateRip database
Copy OK

Track 9

Filename A:\PsPBuRnOuT's MUSIC\SORTED BY YEAR\1980s\DRIVEN BY - THE 80s\DRIVEN BY - THE 80s - CD5\09.808 State - Pacific State.wav

Peak level 99.4 %
Extraction speed 22.9 X
Track quality 100.0 %
Copy CRC 9438EB4D
Track not present in AccurateRip database
Copy OK

Track 10

Filename A:\PsPBuRnOuT's MUSIC\SORTED BY YEAR\1980s\DRIVEN BY - THE 80s\DRIVEN BY - THE 80s - CD5\10.M - Pop Muzik ('89 Remix).wav

Peak level 100.0 %
Extraction speed 20.3 X
Track quality 99.9 %
Copy CRC AE2416F0
Track not present in AccurateRip database
Copy OK

Track 11

Filename A:\PsPBuRnOuT's MUSIC\SORTED BY YEAR\1980s\DRIVEN BY - THE 80s\DRIVEN BY - THE 80s - CD5\11.The Associates - Club Country.wav

Peak level 100.0 %
Extraction speed 22.1 X
Track quality 100.0 %
Copy CRC F9FFAF63
Track not present in AccurateRip database
Copy OK

Track 12

Filename A:\PsPBuRnOuT's MUSIC\SORTED BY YEAR\1980s\DRIVEN BY - THE 80s\DRIVEN BY - THE 80s - CD5\12.Huey Lewis & The News - The Power Of Love.wav

Peak level 100.0 %
Extraction speed 25.5 X
Track quality 100.0 %
Copy CRC B2AD9E31
Track not present in AccurateRip database
Copy OK

Track 13

Filename A:\PsPBuRnOuT's MUSIC\SORTED BY YEAR\1980s\DRIVEN BY - THE 80s\DRIVEN BY - THE 80s - CD5\13.Sydney Youngblood - If Only I Could.wav

Peak level 97.7 %
Extraction speed 23.4 X
Track quality 100.0 %
Copy CRC 6A378CE2
Track not present in AccurateRip database
Copy OK

Track 14

Filename A:\PsPBuRnOuT's MUSIC\SORTED BY YEAR\1980s\DRIVEN BY - THE 80s\DRIVEN BY - THE 80s - CD5\14.Heaven 17 - Temptation.wav

Peak level 99.9 %
Extraction speed 19.8 X
Track quality 100.0 %
Copy CRC CE321921
Track not present in AccurateRip database
Copy OK

Track 15

Filename A:\PsPBuRnOuT's MUSIC\SORTED BY YEAR\1980s\DRIVEN BY - THE 80s\DRIVEN BY - THE 80s - CD5\15.John Waite - Missing You.wav

Peak level 98.0 %
Extraction speed 24.5 X
Track quality 100.0 %
Copy CRC 383569B4
Track not present in AccurateRip database
Copy OK

Track 16

Filename A:\PsPBuRnOuT's MUSIC\SORTED BY YEAR\1980s\DRIVEN BY - THE 80s\DRIVEN BY - THE 80s - CD5\16.Candi Staton - Suspicious Minds.wav

Peak level 100.0 %
Extraction speed 23.8 X
Track quality 99.9 %
Copy CRC 59645E44
Track not present in AccurateRip database
Copy OK

Track 17

Filename A:\PsPBuRnOuT's MUSIC\SORTED BY YEAR\1980s\DRIVEN BY - THE 80s\DRIVEN BY - THE 80s - CD5\17.Sam Brown - Stop.wav

Peak level 100.0 %
Extraction speed 28.5 X
Track quality 100.0 %
Copy CRC D2658F57
Track not present in AccurateRip database
Copy OK

Track 18

Filename A:\PsPBuRnOuT's MUSIC\SORTED BY YEAR\1980s\DRIVEN BY - THE 80s\DRIVEN BY - THE 80s - CD5\18.Phyllis Nelson - Move Closer.wav

Peak level 92.2 %
Extraction speed 30.4 X
Track quality 100.0 %
Copy CRC E5CF7951
Track not present in AccurateRip database
Copy OK

Track 19

Filename A:\PsPBuRnOuT's MUSIC\SORTED BY YEAR\1980s\DRIVEN BY - THE 80s\DRIVEN BY - THE 80s - CD5\19.Ashford & Simpson - Solid.wav

Peak level 100.0 %
Extraction speed 30.2 X
Track quality 100.0 %
Copy CRC 9194ED7C
Track not present in AccurateRip database
Copy OK

Track 20

Filename A:\PsPBuRnOuT's MUSIC\SORTED BY YEAR\1980s\DRIVEN BY - THE 80s\DRIVEN BY - THE 80s - CD5\20.Angry Anderson - Suddenly.wav

Peak level 100.0 %
Extraction speed 28.9 X
Track quality 100.0 %
Copy CRC 680CB0C9
Track not present in AccurateRip database
Copy OK


None of the tracks are present in the AccurateRip database

No errors occurred

End of status report

–– CUETools DB Plugin V2.1.6

[CTDB TOCID: GDwqKMy7LfhlmPGhP82IBMl6XWQ-] disk not present in database
Submit result: GDwqKMy7LfhlmPGhP82IBMl6XWQ- has been uploaded