Subcategories

Various Artists - Eurovision Song Contest Tel Aviv 2019

Posted By: Aregak
Various Artists - Eurovision Song Contest Tel Aviv 2019

Various Artists - Eurovision Song Contest Tel Aviv 2019
EAC Rip | FLAC, TRACKS+CUE, LOG, Covers) | 02:03:52 | 851.83 MB
Score | Universal Music Group / UNI 7751439

The 64th Eurovision Song Contest will take place at the Expo Tel Aviv (International Convention Center). The first Semi-Final will be held on Tuesday, 14th of May, the second Semi-Final on Thursday, 16th of May and the Grand Final will take place on Saturday, 18th of May..
Track list - CD 1:
01. Jonida Maliqi / Ktheju tokës (Albania) [0:03:07.14]
02. Srbuk / Walking Out (Armenia) [0:02:58.02]
03. PÆNDA / Limits (Austria) [0:03:02.00]
04. Kate Miller-Heidke / Zero Gravity (Australia) [0:02:58.71]
05. Chingiz / Truth (Azerbaijan) [0:03:06.17]
06. Eliot / Wake Up (Belgium) [0:03:01.05]
07. ZENA / Like It (Belarus) [0:03:03.41]
08. Luca Hänni / She Got Me (Switzerland) [0:03:02.37]
09. Tamta / Replay (Cyprus) [0:02:54.51]
10. Lake Malawi / Friend of a Friend (Czech Republic) [0:03:00.37]
11. S!sters / Sister (Germany) [0:03:00.40]
12. Leonora / Love Is Forever (Denmark) [0:03:02.00]
13. Victor Crone / Storm (Estonia) [0:03:06.00]
14. Miki Núñez / La Venda (Spain) [0:02:59.74]
15. Darude feat. Sebastian Rejman / Look Away (Finland) [0:03:01.15]
16. Bilal Hassani / Roi (France) [0:02:56.63]
17. Michael Rice / Bigger Than Us (United Kingdom) [0:02:58.74]
18. Oto Nemsadze / Keep On Going (Georgia) [0:03:06.66]
19. Katerine Duska / Better Love (Greece) [0:03:00.50]
20. Roko / The Dream (Croatia) [0:03:01.53]
21. Joci Pápai / Az én Apám (Hungary) [0:02:58.58]

Track list - CD 2:
01. Sarah McTernan / 22 (Ireland) [0:02:55.17]
02. Kobi Marimi / Home (Israel) [0:02:59.50]
03. Hatari / Hatrið mun sigra (Iceland) [0:02:59.31]
04. Mahmood / Soldi (Italy) [0:03:08.01]
05. Jurij Veklenko / Run With the Lions (Lithuania) [0:03:02.28]
06. Carousel / That Night (Latvia) [0:03:04.50]
07. Anna Odobescu / Stay (Moldova) [0:03:02.66]
08. D mol / Heaven (Montenegro) [0:02:56.59]
09. Tamara Todevska / Proud (North Macedonia) [0:02:57.09]
10. Michela / Chameleon (Malta) [0:03:01.25]
11. Duncan Laurence / Arcade (The Netherlands) [0:03:04.64]
12. KEiiNO / Spirit in the Sky (Norway) [0:03:06.29]
13. Tulia / Fire of Love (Pali się) (Poland) [0:02:47.48]
14. Conan Osiris / Telemóveis (Portugal) [0:03:04.00]
15. Ester Peony / On a Sunday (Romania) [0:03:05.39]
16. Nevena Božović / Kruna (Serbia) [0:03:07.40]
17. Sergey Lazarev / Scream (Russia) [0:02:59.58]
18. John Lundvik / Too Late for Love (Sweden) [0:02:58.59]
19. Zala Kralj & Gašper Šantl / Sebi (Slovenia) [0:03:01.03]
20. Serhat / Say Na Na Na (San Marino) [0:02:58.68]

Exact Audio Copy V1.3 from 2. September 2016

EAC extraction logfile from 27. April 2019, 12:04

Various Artists / Eurovision Song Contest Tel Aviv 2019

Used drive : PLEXTOR CD-R PX-230A Adapter: 1 ID: 1

Read mode : Secure
Utilize accurate stream : Yes
Defeat audio cache : Yes
Make use of C2 pointers : No

Read offset correction : 738
Overread into Lead-In and Lead-Out : No
Fill up missing offset samples with silence : Yes
Delete leading and trailing silent blocks : No
Null samples used in CRC calculations : Yes
Used interface : Native Win32 interface for Win NT & 2000
Gap handling : Appended to previous track

Used output format : User Defined Encoder
Selected bitrate : 1024 kBit/s
Quality : High
Add ID3 tag : No
Command line compressor : C:\Program Files\Exact Audio Copy\Flac\flac.exe
Additional command line options : -6 -V -T "ARTIST=%artist%" -T "TITLE=%title%" -T "ALBUM=%albumtitle%" -T "DATE=%year%" -T "TRACKNUMBER=%tracknr%" -T "GENRE=%genre%" -T "COMMENT=%comment%" -T "ALBUMARTIST=%albuminterpret%" -T "COMPOSER=%composer%" -T "DISCNUMBER=%cdnumber%" -T "TOTALDISCS=%totalcds%" -T "TOTALTRACKS=%numtracks%" %source% -o %dest%


TOC of the extracted CD

Track | Start | Length | Start sector | End sector
––––––––––––––––––––––––––––-
1 | 0:00.00 | 3:07.14 | 0 | 14038
2 | 3:07.14 | 2:58.02 | 14039 | 27390
3 | 6:05.16 | 3:02.00 | 27391 | 41040
4 | 9:07.16 | 2:58.71 | 41041 | 54461
5 | 12:06.12 | 3:06.17 | 54462 | 68428
6 | 15:12.29 | 3:01.05 | 68429 | 82008
7 | 18:13.34 | 3:03.41 | 82009 | 95774
8 | 21:17.00 | 3:02.37 | 95775 | 109461
9 | 24:19.37 | 2:54.51 | 109462 | 122562
10 | 27:14.13 | 3:00.37 | 122563 | 136099
11 | 30:14.50 | 3:00.40 | 136100 | 149639
12 | 33:15.15 | 3:02.00 | 149640 | 163289
13 | 36:17.15 | 3:06.00 | 163290 | 177239
14 | 39:23.15 | 2:59.74 | 177240 | 190738
15 | 42:23.14 | 3:01.15 | 190739 | 204328
16 | 45:24.29 | 2:56.63 | 204329 | 217591
17 | 48:21.17 | 2:58.74 | 217592 | 231015
18 | 51:20.16 | 3:06.66 | 231016 | 245031
19 | 54:27.07 | 3:00.50 | 245032 | 258581
20 | 57:27.57 | 3:01.53 | 258582 | 272209
21 | 60:29.35 | 2:58.58 | 272210 | 285617


Track 1

Filename C:\Ripped by Filex\01 - Jonida Maliqi - Ktheju Tokës (Albania).wav

Pre-gap length 0:00:02.00

Peak level 100.0 %
Extraction speed 7.6 X
Track quality 100.0 %
Test CRC 605C6829
Copy CRC 605C6829
Track not present in AccurateRip database
Copy OK

Track 2

Filename C:\Ripped by Filex\02 - Srbuk - Walking Out (Armenia).wav

Pre-gap length 0:00:02.00

Peak level 100.0 %
Extraction speed 7.4 X
Track quality 100.0 %
Test CRC 99E43D3B
Copy CRC 99E43D3B
Track not present in AccurateRip database
Copy OK

Track 3

Filename C:\Ripped by Filex\03 - Paenda - Limits (Austria).wav

Pre-gap length 0:00:02.00

Peak level 98.8 %
Extraction speed 7.4 X
Track quality 100.0 %
Test CRC 0AAC0C20
Copy CRC 0AAC0C20
Track not present in AccurateRip database
Copy OK

Track 4

Filename C:\Ripped by Filex\04 - Kate Miller-Heidke - Zero Gravity (Australia).wav

Pre-gap length 0:00:02.00

Peak level 94.4 %
Extraction speed 6.4 X
Track quality 99.9 %
Test CRC 45D5C039
Copy CRC 45D5C039
Track not present in AccurateRip database
Copy OK

Track 5

Filename C:\Ripped by Filex\05 - Chingiz - Truth (Azerbaijan).wav

Pre-gap length 0:00:02.00

Peak level 86.7 %
Extraction speed 6.7 X
Track quality 99.9 %
Test CRC F3AE5ECF
Copy CRC F3AE5ECF
Track not present in AccurateRip database
Copy OK

Track 6

Filename C:\Ripped by Filex\06 - Eliot - Wake Up (Belgium).wav

Pre-gap length 0:00:02.00

Peak level 98.8 %
Extraction speed 7.8 X
Track quality 100.0 %
Test CRC 78AD88DD
Copy CRC 78AD88DD
Track not present in AccurateRip database
Copy OK

Track 7

Filename C:\Ripped by Filex\07 - ZENA - Like It (Belarus).wav

Pre-gap length 0:00:02.00

Peak level 98.8 %
Extraction speed 8.2 X
Track quality 100.0 %
Test CRC 0CF81293
Copy CRC 0CF81293
Track not present in AccurateRip database
Copy OK

Track 8

Filename C:\Ripped by Filex\08 - Luca Hänni - She Got Me (Switzerland).wav

Pre-gap length 0:00:02.00

Peak level 94.4 %
Extraction speed 8.6 X
Track quality 100.0 %
Test CRC 7CE6A142
Copy CRC 7CE6A142
Track not present in AccurateRip database
Copy OK

Track 9

Filename C:\Ripped by Filex\09 - Tamta - Replay (Cyprus).wav

Pre-gap length 0:00:02.00

Peak level 98.8 %
Extraction speed 8.7 X
Track quality 100.0 %
Test CRC 04DF682B
Copy CRC 04DF682B
Track not present in AccurateRip database
Copy OK

Track 10

Filename C:\Ripped by Filex\10 - Lake Malawi - Friend of a Friend (Czech Republic).wav

Pre-gap length 0:00:02.00

Peak level 94.4 %
Extraction speed 8.9 X
Track quality 100.0 %
Test CRC B36BCD9A
Copy CRC B36BCD9A
Track not present in AccurateRip database
Copy OK

Track 11

Filename C:\Ripped by Filex\11 - S!sters - Sister (Germany).wav

Pre-gap length 0:00:02.00

Peak level 100.0 %
Extraction speed 9.1 X
Track quality 100.0 %
Test CRC 40670325
Copy CRC 40670325
Track not present in AccurateRip database
Copy OK

Track 12

Filename C:\Ripped by Filex\12 - Leonora - Love Is Forever (Denmark).wav

Pre-gap length 0:00:02.00

Peak level 93.3 %
Extraction speed 9.5 X
Track quality 100.0 %
Test CRC 9A796EE3
Copy CRC 9A796EE3
Track not present in AccurateRip database
Copy OK

Track 13

Filename C:\Ripped by Filex\13 - Victor Crone - Storm (Estonia).wav

Pre-gap length 0:00:02.00

Peak level 97.0 %
Extraction speed 9.8 X
Track quality 100.0 %
Test CRC 771984A7
Copy CRC 771984A7
Track not present in AccurateRip database
Copy OK

Track 14

Filename C:\Ripped by Filex\14 - Miki Núñez - La Venda (Spain).wav

Pre-gap length 0:00:02.00

Peak level 100.0 %
Extraction speed 9.9 X
Track quality 100.0 %
Test CRC 10BCFF96
Copy CRC 10BCFF96
Track not present in AccurateRip database
Copy OK

Track 15

Filename C:\Ripped by Filex\15 - Darude feat. Sebastian Rejman - Look Away (Finland).wav

Pre-gap length 0:00:02.00

Peak level 93.3 %
Extraction speed 10.1 X
Track quality 100.0 %
Test CRC C35633F4
Copy CRC C35633F4
Track not present in AccurateRip database
Copy OK

Track 16

Filename C:\Ripped by Filex\16 - Bilal Hassani - Roi (France).wav

Pre-gap length 0:00:02.00

Peak level 100.0 %
Extraction speed 10.3 X
Track quality 100.0 %
Test CRC E86C86B6
Copy CRC E86C86B6
Track not present in AccurateRip database
Copy OK

Track 17

Filename C:\Ripped by Filex\17 - Michael Rice - Bigger Than Us (United Kingdom).wav

Pre-gap length 0:00:02.00

Peak level 99.9 %
Extraction speed 10.5 X
Track quality 100.0 %
Test CRC 7151A296
Copy CRC 7151A296
Track not present in AccurateRip database
Copy OK

Track 18

Filename C:\Ripped by Filex\18 - Oto Nemsadze - Keep On Going (Georgia).wav

Pre-gap length 0:00:02.00

Peak level 93.3 %
Extraction speed 9.5 X
Track quality 99.9 %
Test CRC D8039B96
Copy CRC D8039B96
Track not present in AccurateRip database
Copy OK

Track 19

Filename C:\Ripped by Filex\19 - Katerine Duska - Better Love (Greece).wav

Pre-gap length 0:00:02.00

Peak level 98.8 %
Extraction speed 10.9 X
Track quality 100.0 %
Test CRC 2EB5034B
Copy CRC 2EB5034B
Track not present in AccurateRip database
Copy OK

Track 20

Filename C:\Ripped by Filex\20 - Roko - The Dream (Croatia).wav

Pre-gap length 0:00:02.00

Peak level 100.0 %
Extraction speed 11.1 X
Track quality 100.0 %
Test CRC 56182F6F
Copy CRC 56182F6F
Track not present in AccurateRip database
Copy OK

Track 21

Filename C:\Ripped by Filex\21 - Joci Papai - Az En Apàm (Hungary).wav

Pre-gap length 0:00:02.00

Peak level 100.0 %
Extraction speed 11.1 X
Track quality 100.0 %
Test CRC A7C855FD
Copy CRC A7C855FD
Track not present in AccurateRip database
Copy OK


None of the tracks are present in the AccurateRip database

No errors occurred

End of status report

–– CUETools DB Plugin V2.1.6

[CTDB TOCID: 12YqI1CyWl1GSpvShEIuJ33T2no-] found
Submit result: 12YqI1CyWl1GSpvShEIuJ33T2no- has been confirmed
Track | CTDB Status
1 | (7/7) Accurately ripped
2 | (7/7) Accurately ripped
3 | (7/7) Accurately ripped
4 | (7/7) Accurately ripped
5 | (7/7) Accurately ripped
6 | (7/7) Accurately ripped
7 | (7/7) Accurately ripped
8 | (7/7) Accurately ripped
9 | (7/7) Accurately ripped
10 | (7/7) Accurately ripped
11 | (7/7) Accurately ripped
12 | (7/7) Accurately ripped
13 | (7/7) Accurately ripped
14 | (7/7) Accurately ripped
15 | (7/7) Accurately ripped
16 | (7/7) Accurately ripped
17 | (7/7) Accurately ripped
18 | (7/7) Accurately ripped
19 | (7/7) Accurately ripped
20 | (7/7) Accurately ripped
21 | (7/7) Accurately ripped


==== Log checksum 894F83F1D4E677FA7FAA656105BDBAD982F8ED32D5679C9B62FAB67BCCF02E96 ====

Exact Audio Copy V1.3 from 2. September 2016

EAC extraction logfile from 27. April 2019, 12:46

Various Artists / Eurovision Song Contest Tel Aviv 2019 (CD 2)

Used drive : PLEXTOR CD-R PX-230A Adapter: 1 ID: 1

Read mode : Secure
Utilize accurate stream : Yes
Defeat audio cache : Yes
Make use of C2 pointers : No

Read offset correction : 738
Overread into Lead-In and Lead-Out : No
Fill up missing offset samples with silence : Yes
Delete leading and trailing silent blocks : No
Null samples used in CRC calculations : Yes
Used interface : Native Win32 interface for Win NT & 2000
Gap handling : Appended to previous track

Used output format : User Defined Encoder
Selected bitrate : 1024 kBit/s
Quality : High
Add ID3 tag : No
Command line compressor : C:\Program Files\Exact Audio Copy\Flac\flac.exe
Additional command line options : -6 -V -T "ARTIST=%artist%" -T "TITLE=%title%" -T "ALBUM=%albumtitle%" -T "DATE=%year%" -T "TRACKNUMBER=%tracknr%" -T "GENRE=%genre%" -T "COMMENT=%comment%" -T "ALBUMARTIST=%albuminterpret%" -T "COMPOSER=%composer%" -T "DISCNUMBER=%cdnumber%" -T "TOTALDISCS=%totalcds%" -T "TOTALTRACKS=%numtracks%" %source% -o %dest%


TOC of the extracted CD

Track | Start | Length | Start sector | End sector
––––––––––––––––––––––––––––-
1 | 0:00.00 | 2:55.17 | 0 | 13141
2 | 2:55.17 | 2:59.50 | 13142 | 26616
3 | 5:54.67 | 2:59.31 | 26617 | 40072
4 | 8:54.23 | 3:08.01 | 40073 | 54173
5 | 12:02.24 | 3:02.28 | 54174 | 67851
6 | 15:04.52 | 3:04.50 | 67852 | 81701
7 | 18:09.27 | 3:02.66 | 81702 | 95417
8 | 21:12.18 | 2:56.59 | 95418 | 108676
9 | 24:09.02 | 2:57.09 | 108677 | 121960
10 | 27:06.11 | 3:01.25 | 121961 | 135560
11 | 30:07.36 | 3:04.64 | 135561 | 149424
12 | 33:12.25 | 3:06.29 | 149425 | 163403
13 | 36:18.54 | 2:47.48 | 163404 | 175976
14 | 39:06.27 | 3:04.00 | 175977 | 189776
15 | 42:10.27 | 3:05.39 | 189777 | 203690
16 | 45:15.66 | 3:07.40 | 203691 | 217755
17 | 48:23.31 | 2:59.58 | 217756 | 231238
18 | 51:23.14 | 2:58.59 | 231239 | 244647
19 | 54:21.73 | 3:01.03 | 244648 | 258225
20 | 57:23.01 | 2:58.68 | 258226 | 271643


Track 1

Filename C:\Ripped by Filex\01 - Sarah McTernan - 22 (Ireland).wav

Pre-gap length 0:00:02.00

Peak level 69.4 %
Extraction speed 5.1 X
Track quality 100.0 %
Test CRC 4FEF3C42
Copy CRC 4FEF3C42
Track not present in AccurateRip database
Copy OK

Track 2

Filename C:\Ripped by Filex\02 - Kobi Marimi - Home (Israel).wav

Pre-gap length 0:00:02.00

Peak level 68.6 %
Extraction speed 5.4 X
Track quality 100.0 %
Test CRC A2EBDAE7
Copy CRC A2EBDAE7
Track not present in AccurateRip database
Copy OK

Track 3

Filename C:\Ripped by Filex\03 - Hatari - Hatrið mun sigra (Iceland).wav

Pre-gap length 0:00:02.00

Peak level 68.6 %
Extraction speed 5.4 X
Track quality 100.0 %
Test CRC 0DD49ADB
Copy CRC 0DD49ADB
Track not present in AccurateRip database
Copy OK

Track 4

Filename C:\Ripped by Filex\04 - Mahmood - Soldi (Italy).wav

Pre-gap length 0:00:02.00

Peak level 69.4 %
Extraction speed 5.4 X
Track quality 100.0 %
Test CRC 01834AE0
Copy CRC 01834AE0
Track not present in AccurateRip database
Copy OK

Track 5

Filename C:\Ripped by Filex\05 - Jurij Veklenko - Run With the Lions (Lithuania).wav

Pre-gap length 0:00:02.00

Peak level 68.6 %
Extraction speed 5.4 X
Track quality 100.0 %
Test CRC 4A00BD3D
Copy CRC 4A00BD3D
Track not present in AccurateRip database
Copy OK

Track 6

Filename C:\Ripped by Filex\06 - Carousel - That Night (Latvia).wav

Pre-gap length 0:00:02.00

Peak level 68.6 %
Extraction speed 5.4 X
Track quality 100.0 %
Test CRC D5592D0A
Copy CRC D5592D0A
Track not present in AccurateRip database
Copy OK

Track 7

Filename C:\Ripped by Filex\07 - Anna Odobescu - Stay (Moldova).wav

Pre-gap length 0:00:02.00

Peak level 69.4 %
Extraction speed 5.4 X
Track quality 100.0 %
Test CRC 5082961F
Copy CRC 5082961F
Track not present in AccurateRip database
Copy OK

Track 8

Filename C:\Ripped by Filex\08 - D mol - Heaven (Montenegro).wav

Pre-gap length 0:00:02.00

Peak level 64.7 %
Extraction speed 5.3 X
Track quality 100.0 %
Test CRC FDBCC943
Copy CRC FDBCC943
Track not present in AccurateRip database
Copy OK

Track 9

Filename C:\Ripped by Filex\09 - Tamara Todevska - Proud (North Macedonia).wav

Pre-gap length 0:00:02.00

Peak level 69.4 %
Extraction speed 5.3 X
Track quality 100.0 %
Test CRC 3E647D7A
Copy CRC 3E647D7A
Track not present in AccurateRip database
Copy OK

Track 10

Filename C:\Ripped by Filex\10 - Michela - Chameleon (Malta).wav

Pre-gap length 0:00:02.00

Peak level 68.4 %
Extraction speed 5.4 X
Track quality 100.0 %
Test CRC 29440D5F
Copy CRC 29440D5F
Track not present in AccurateRip database
Copy OK

Track 11

Filename C:\Ripped by Filex\11 - Duncan Laurence - Arcade (The Netherlands).wav

Pre-gap length 0:00:02.00

Peak level 69.4 %
Extraction speed 5.4 X
Track quality 100.0 %
Test CRC 6B3E9F52
Copy CRC 6B3E9F52
Track not present in AccurateRip database
Copy OK

Track 12

Filename C:\Ripped by Filex\12 - KEiiNO - Spirit in the Sky (Norway).wav

Pre-gap length 0:00:02.00

Peak level 67.8 %
Extraction speed 5.3 X
Track quality 100.0 %
Test CRC 704E9045
Copy CRC 704E9045
Track not present in AccurateRip database
Copy OK

Track 13

Filename C:\Ripped by Filex\13 - Tulia - Fire of Love (Pali się) (Poland).wav

Pre-gap length 0:00:02.00

Peak level 68.7 %
Extraction speed 3.3 X
Track quality 99.9 %
Test CRC F86980A7
Copy CRC F86980A7
Track not present in AccurateRip database
Copy OK

Track 14

Filename C:\Ripped by Filex\14 - Conan Osíris - Telemóveis (Portugal).wav

Pre-gap length 0:00:02.00

Peak level 61.8 %
Extraction speed 5.3 X
Track quality 100.0 %
Test CRC E14BF603
Copy CRC E14BF603
Track not present in AccurateRip database
Copy OK

Track 15

Filename C:\Ripped by Filex\15 - Ester Peony - On a Sunday (Romania).wav

Pre-gap length 0:00:02.00

Peak level 68.6 %
Extraction speed 5.3 X
Track quality 100.0 %
Test CRC 72365075
Copy CRC 72365075
Track not present in AccurateRip database
Copy OK

Track 16

Filename C:\Ripped by Filex\16 - Nevena Božović - Kruna (Serbia).wav

Pre-gap length 0:00:02.00

Peak level 68.6 %
Extraction speed 4.7 X
Track quality 99.9 %
Test CRC B1BBC14F
Copy CRC B1BBC14F
Track not present in AccurateRip database
Copy OK

Track 17

Filename C:\Ripped by Filex\17 - Sergey Lazarev - Scream (Russia).wav

Pre-gap length 0:00:02.00

Peak level 68.6 %
Extraction speed 5.3 X
Track quality 100.0 %
Test CRC 75F5F0A1
Copy CRC 75F5F0A1
Track not present in AccurateRip database
Copy OK

Track 18

Filename C:\Ripped by Filex\18 - John Lundvik - Too Late for Love (Sweden).wav

Pre-gap length 0:00:02.00

Peak level 61.1 %
Extraction speed 5.3 X
Track quality 100.0 %
Test CRC 6C1AAF7E
Copy CRC 6C1AAF7E
Track not present in AccurateRip database
Copy OK

Track 19

Filename C:\Ripped by Filex\19 - Zala Kralj & Gašper Šantl - Sebi (Slovenia).wav

Pre-gap length 0:00:01.35

Peak level 64.5 %
Extraction speed 5.3 X
Track quality 100.0 %
Test CRC FE5BF61C
Copy CRC FE5BF61C
Track not present in AccurateRip database
Copy OK

Track 20

Filename C:\Ripped by Filex\20 - Serhat - Say Na Na Na (San Marino).wav

Pre-gap length 0:00:02.00

Peak level 57.0 %
Extraction speed 4.9 X
Track quality 100.0 %
Test CRC A0647A36
Copy CRC A0647A36
Track not present in AccurateRip database
Copy OK


None of the tracks are present in the AccurateRip database

No errors occurred

End of status report

–– CUETools DB Plugin V2.1.6

[CTDB TOCID: cwk6Hu59kmrLhE113uDkI6FDTPw-] found
Submit result: cwk6Hu59kmrLhE113uDkI6FDTPw- has been confirmed
Track | CTDB Status
1 | (8/8) Accurately ripped
2 | (8/8) Accurately ripped
3 | (8/8) Accurately ripped
4 | (8/8) Accurately ripped
5 | (8/8) Accurately ripped
6 | (8/8) Accurately ripped
7 | (8/8) Accurately ripped
8 | (8/8) Accurately ripped
9 | (8/8) Accurately ripped
10 | (8/8) Accurately ripped
11 | (8/8) Accurately ripped
12 | (8/8) Accurately ripped
13 | (8/8) Accurately ripped
14 | (8/8) Accurately ripped
15 | (8/8) Accurately ripped
16 | (8/8) Accurately ripped
17 | (8/8) Accurately ripped
18 | (8/8) Accurately ripped
19 | (8/8) Accurately ripped
20 | (8/8) Accurately ripped


==== Log checksum 4FB14B0C4081DEFE8B421A1B171B16D59636E1B76BDF432261066BDE4D19974A ====