Subcategories

Eddie and the Hot Rods - Teenage Depression (1976) Expanded Remastered 2000

Posted By: Designol
Eddie and the Hot Rods - Teenage Depression (1976) Expanded Remastered 2000

Eddie and the Hot Rods - Teenage Depression (1976) Expanded Remastered 2000
EAC | FLAC | Tracks (Cue&Log) ~ 532 Mb | Mp3 (CBR320) ~ 169 Mb | Scans ~ 94 Mb | 01:13:56
Pub-Rock, Punk-Rock, Rock & Roll, Rhythm & Blues | Label: Captain Oi! | # AHOY DPX 132

Teenage Depression is the debut studio album by English rock band Eddie and the Hot Rods. It reached number 43 on the UK Albums Chart. The album's title track reached number 35 on the UK Singles Chart and was featured in the 1979 film Rock 'n' Roll High School. Teenage Depression has been cited as a "missing link" between pub rock and punk rock, owing to its fast and hard-hitting R&B sound showing the attitude of a punk band. In 2000, a reissue was released with 12 additional tracks.

History records Eddie & the Hot Rods as the missing link between pub rock and punk, and their debut album, released at the tail end of 1976, proves that every word is true. Young, loud, snotty and incredibly fast, the riffs and rhythms are fuel-injected R&B, but the lyrics are teenaged disaffection with a forest on its shoulders. Even the album's covers, the Who's "The Kids Are Alright," Joe Tex's "Show Me," and Sam Cooke's "Shake," were selected for their swagger, while the title track is a proto-punk cry of anguish that makes the later new-wavers sound like a room full of spoiled children. The six-minute finale, "On the Run," is even stronger, a dead-end kid-style anthem about the ultimate outsider – "the boy should be pitied, but they're getting me committed." The FX that drench the song's closing minutes, meanwhile, capture all the rage and confusion of the lyric, and give a hint of the sheer brutal power that was the Hot Rods when they really let loose – a treat normally reserved for the live show. Isolated tastes of that particular beast do surface elsewhere on the album – both "The Kids Are Alright" and "Been So Long" were recorded live at the Marquee on a baking-hot night in July 1976; the dozen bonus tracks appended to the CD reissue include four more from that memorable night, in the form of the legendary Live at the Marquee EP. Mach 10 versions of Van Morrison's "Gloria," Bob Seger's "Get Out of Denver," ? Mark's "96 Tears," and the Rolling Stones' "Satisfaction" further amplify the linkage between '60s garage and '70s punk, but, far more importantly, they give at least a hint of why witnesses still describe that particular show among the greatest gigs they ever attended. Five further tracks date from a Rainbow show nine months later, previously immortalized on the aptly named Live at the Speed of Sound EP; the CD is completed by the band's first two singles, including a crunchy cover of "Wooly Bully," produced by Roxy Music's Andy Mackay. They, however, are simply the icing on the cake. In late 1976, with punk still a flood of records waiting to happen, Teenage Depression was one of the only things that made it worthwhile to get up in the morning. And the Hot Rods live was the only thing that stopped you from getting straight back into bed.

Review by Dave Thompson, Allmusic.com

Eddie and the Hot Rods - Teenage Depression (1976) Expanded Remastered 2000



Tracklist:

01. Get Across To You (2:44)
02. Why Can't It Be_ (2:30)
03. Show Me (2:00)
04. All I Need Is Money (2:18)
05. Double Checkin' Woman (2:28)
06. The Kids Are Alright (2:37)
07. Teenage Depression (2:56)
08. Horseplay (Wearier Of The Schmaltz) (2:18)
09. Been So Long (3:21)
10. Shake (1:29)
11. On The Run (6:29)
12. Writing On The Wall [Bonus track] (2:42)
13. Crusin' (In The Lincoln) [Bonus track] (3:33)
14. Wooly Bully [Bonus track] (2:37)
15. Horseplay [Single Version] [Bonus track] (2:24)
16. 96 Tears [Live] [Bonus track] (2:58)
17. Get Out Of Denver [Live] [Bonus track] (3:51)
18. Medley, Gloria - Satisfaction [Live] [Bonus track] (5:24)
19. On The Run [Live] [Bonus track] (9:02)
20. Hard Drivin' Man [Live] [Bonus track] (2:11)
21. Horseplay [Live] [Bonus track] (2:30)
22. Double Checkin' Woman [Live] [Bonus track] (2:37)
23. All I Need Is Money [Live] [Bonus track] (2:58)


Exact Audio Copy V1.0 beta 3 from 29. August 2011

EAC extraction logfile from 1. May 2013, 12:07

Eddie and the Hot Rods / Teenage Depression [Expanded Re-issue]

Used drive : HL-DT-STDVDRAM GT51N Adapter: 0 ID: 1

Read mode : Secure
Utilize accurate stream : Yes
Defeat audio cache : Yes
Make use of C2 pointers : No

Read offset correction : 103
Overread into Lead-In and Lead-Out : No
Fill up missing offset samples with silence : Yes
Delete leading and trailing silent blocks : No
Null samples used in CRC calculations : Yes
Used interface : Native Win32 interface for Win NT & 2000
Gap handling : Appended to previous track

Used output format : User Defined Encoder
Selected bitrate : 32 kBit/s
Quality : High
Add ID3 tag : No
Command line compressor : C:\Exact Audio Copy\FLAC\FLAC.EXE
Additional command line options : -5 -V -T "ARTIST=%artist%" -T "TITLE=%title%" -T "ALBUM=%albumtitle%" -T "DATE=%year%" -T "TRACKNUMBER=%tracknr%" -T "TOTALTRACKS=%numtracks%" -T "GENRE=%genre%" -T "ALBUM ARTIST=%albumartist%" -T "ALBUMARTIST=%albumartist%" -T "COMMENT=Secure Mode, Test and Copy, AccurateRip, FLAC -5" %source%


TOC of the extracted CD

Track | Start | Length | Start sector | End sector
––––––––––––––––––––––––––––-
1 | 0:00.00 | 2:43.68 | 0 | 12292
2 | 2:43.68 | 2:29.55 | 12293 | 23522
3 | 5:13.48 | 1:59.43 | 23523 | 32490
4 | 7:13.16 | 2:18.04 | 32491 | 42844
5 | 9:31.20 | 2:27.54 | 42845 | 53923
6 | 11:58.74 | 2:37.22 | 53924 | 65720
7 | 14:36.21 | 2:55.67 | 65721 | 78912
8 | 17:32.13 | 2:18.33 | 78913 | 89295
9 | 19:50.46 | 3:21.19 | 89296 | 104389
10 | 23:11.65 | 1:29.12 | 104390 | 111076
11 | 24:41.02 | 6:28.55 | 111077 | 140231
12 | 31:09.57 | 2:41.46 | 140232 | 152352
13 | 33:51.28 | 3:32.46 | 152353 | 168298
14 | 37:23.74 | 2:37.22 | 168299 | 180095
15 | 40:01.21 | 2:24.34 | 180096 | 190929
16 | 42:25.55 | 2:57.47 | 190930 | 204251
17 | 45:23.27 | 3:50.60 | 204252 | 221561
18 | 49:14.12 | 5:23.42 | 221562 | 245828
19 | 54:37.54 | 9:02.09 | 245829 | 286487
20 | 63:39.63 | 2:11.02 | 286488 | 296314
21 | 65:50.65 | 2:30.18 | 296315 | 307582
22 | 68:21.08 | 2:37.12 | 307583 | 319369
23 | 70:58.20 | 2:57.52 | 319370 | 332696


Track 1

Filename C:\temp\01 - Get Across To You.wav

Pre-gap length 0:00:02.00

Peak level 97.7 %
Extraction speed 2.7 X
Track quality 100.0 %
Test CRC B8092225
Copy CRC B8092225
Accurately ripped (confidence 2) [F99FCEB3] (AR v1)
Copy OK

Track 2

Filename C:\temp\02 - Why Can't It Be_.wav

Peak level 97.7 %
Extraction speed 2.2 X
Track quality 99.9 %
Test CRC F8B7B146
Copy CRC F8B7B146
Accurately ripped (confidence 2) [89493703] (AR v1)
Copy OK

Track 3

Filename C:\temp\03 - Show Me.wav

Peak level 97.7 %
Extraction speed 2.9 X
Track quality 100.0 %
Test CRC DEA46EC5
Copy CRC DEA46EC5
Accurately ripped (confidence 2) [9EA29EB7] (AR v1)
Copy OK

Track 4

Filename C:\temp\04 - All I Need Is Money.wav

Peak level 97.7 %
Extraction speed 3.1 X
Track quality 100.0 %
Test CRC 23938AB1
Copy CRC 23938AB1
Accurately ripped (confidence 2) [E9A196DE] (AR v1)
Copy OK

Track 5

Filename C:\temp\05 - Double Checkin' Woman.wav

Peak level 97.7 %
Extraction speed 2.4 X
Track quality 99.9 %
Test CRC A1DA24AF
Copy CRC A1DA24AF
Accurately ripped (confidence 2) [27231D15] (AR v1)
Copy OK

Track 6

Filename C:\temp\06 - The Kids Are Alright.wav

Peak level 97.7 %
Extraction speed 3.4 X
Track quality 100.0 %
Test CRC A6B7AA44
Copy CRC A6B7AA44
Accurately ripped (confidence 2) [7CB38C1E] (AR v1)
Copy OK

Track 7

Filename C:\temp\07 - Teenage Depression.wav

Peak level 97.7 %
Extraction speed 3.6 X
Track quality 100.0 %
Test CRC 118AFF81
Copy CRC 118AFF81
Accurately ripped (confidence 2) [3B753811] (AR v1)
Copy OK

Track 8

Filename C:\temp\08 - Horseplay (Wearier Of The Schmaltz).wav

Peak level 97.7 %
Extraction speed 2.7 X
Track quality 99.9 %
Test CRC 6834A828
Copy CRC 6834A828
Accurately ripped (confidence 2) [2EF3D5BC] (AR v1)
Copy OK

Track 9

Filename C:\temp\09 - Been So Long.wav

Peak level 97.7 %
Extraction speed 4.1 X
Track quality 100.0 %
Test CRC F7FACF96
Copy CRC F7FACF96
Accurately ripped (confidence 2) [C3399557] (AR v1)
Copy OK

Track 10

Filename C:\temp\10 - Shake.wav

Peak level 97.7 %
Extraction speed 3.4 X
Track quality 100.0 %
Test CRC 5FA00ACC
Copy CRC 5FA00ACC
Accurately ripped (confidence 2) [9C3D5205] (AR v1)
Copy OK

Track 11

Filename C:\temp\11 - On The Run.wav

Peak level 97.7 %
Extraction speed 4.1 X
Track quality 99.9 %
Test CRC 50BAFA79
Copy CRC 50BAFA79
Accurately ripped (confidence 2) [2CF04356] (AR v1)
Copy OK

Track 12

Filename C:\temp\12 - Writing On The Wall [Bonus track].wav

Peak level 97.7 %
Extraction speed 4.3 X
Track quality 100.0 %
Test CRC C30BE0FB
Copy CRC C30BE0FB
Accurately ripped (confidence 2) [33ABC3B5] (AR v1)
Copy OK

Track 13

Filename C:\temp\13 - Crusin' (In The Lincoln) [Bonus track].wav

Peak level 97.7 %
Extraction speed 4.8 X
Track quality 100.0 %
Test CRC AF480352
Copy CRC AF480352
Accurately ripped (confidence 2) [8ED2873C] (AR v1)
Copy OK

Track 14

Filename C:\temp\14 - Wooly Bully [Bonus track].wav

Peak level 97.7 %
Extraction speed 4.6 X
Track quality 100.0 %
Test CRC 8F6F4943
Copy CRC 8F6F4943
Accurately ripped (confidence 2) [1005C8B1] (AR v1)
Copy OK

Track 15

Filename C:\temp\15 - Horseplay [Single Version] [Bonus track].wav

Peak level 97.7 %
Extraction speed 4.6 X
Track quality 100.0 %
Test CRC A3F0E828
Copy CRC A3F0E828
Accurately ripped (confidence 2) [CF2AE68D] (AR v1)
Copy OK

Track 16

Filename C:\temp\16 - 96 Tears [Live] [Bonus track].wav

Peak level 97.7 %
Extraction speed 3.8 X
Track quality 99.9 %
Test CRC E8D9972B
Copy CRC E8D9972B
Accurately ripped (confidence 3) [7E4C4E88] (AR v1)
Copy OK

Track 17

Filename C:\temp\17 - Get Out Of Denver [Live] [Bonus track].wav

Peak level 97.7 %
Extraction speed 5.3 X
Track quality 100.0 %
Test CRC AB082BBD
Copy CRC AB082BBD
Accurately ripped (confidence 3) [44CFD66F] (AR v1)
Copy OK

Track 18

Filename C:\temp\18 - Medley, Gloria - Satisfaction [Live] [Bonus track].wav

Peak level 97.7 %
Extraction speed 5.7 X
Track quality 100.0 %
Test CRC 9C35935C
Copy CRC 9C35935C
Accurately ripped (confidence 3) [DAF6F0DB] (AR v1)
Copy OK

Track 19

Filename C:\temp\19 - On The Run [Live] [Bonus track].wav

Peak level 97.7 %
Extraction speed 5.6 X
Track quality 99.9 %
Test CRC 368F2C32
Copy CRC 368F2C32
Accurately ripped (confidence 2) [55643EEF] (AR v1)
Copy OK

Track 20

Filename C:\temp\20 - Hard Drivin' Man [Live] [Bonus track].wav

Peak level 97.7 %
Extraction speed 5.2 X
Track quality 100.0 %
Test CRC 8144EE89
Copy CRC 8144EE89
Accurately ripped (confidence 2) [725ED8AD] (AR v1)
Copy OK

Track 21

Filename C:\temp\21 - Horseplay [Live] [Bonus track].wav

Peak level 97.7 %
Extraction speed 5.5 X
Track quality 100.0 %
Test CRC 2F9D30A4
Copy CRC 2F9D30A4
Accurately ripped (confidence 2) [E8134521] (AR v1)
Copy OK

Track 22

Filename C:\temp\22 - Double Checkin' Woman [Live] [Bonus track].wav

Peak level 97.7 %
Extraction speed 5.8 X
Track quality 100.0 %
Test CRC 5CAB379F
Copy CRC 5CAB379F
Accurately ripped (confidence 2) [C1EAC0D0] (AR v1)
Copy OK

Track 23

Filename C:\temp\23 - All I Need Is Money [Live] [Bonus track].wav

Peak level 97.7 %
Extraction speed 6.0 X
Track quality 100.0 %
Test CRC 465CA911
Copy CRC 465CA911
Accurately ripped (confidence 2) [5197B61D] (AR v1)
Copy OK


All tracks accurately ripped

No errors occurred

End of status report

==== Log checksum 4928D0A68A1C387C197CB2D7C179403029F7ACE2356268BF9D79996CA9112531 ====

foobar2000 1.2 / Dynamic Range Meter 1.1.1
log date: 2018-08-01 17:00:01

––––––––––––––––––––––––––––––––––––––––
Analyzed: Eddie and the Hot Rods / Teenage Depression [Expanded Re-issue]
––––––––––––––––––––––––––––––––––––––––

DR Peak RMS Duration Track
––––––––––––––––––––––––––––––––––––––––
DR6 -0.20 dB -7.27 dB 2:44 01-Get Across To You
DR7 -0.20 dB -7.81 dB 2:30 02-Why Can't It Be_
DR7 -0.20 dB -8.28 dB 2:00 03-Show Me
DR8 -0.20 dB -9.17 dB 2:18 04-All I Need Is Money
DR8 -0.20 dB -9.34 dB 2:28 05-Double Checkin' Woman
DR8 -0.20 dB -8.86 dB 2:37 06-The Kids Are Alright
DR7 -0.20 dB -8.66 dB 2:56 07-Teenage Depression
DR7 -0.20 dB -8.31 dB 2:18 08-Horseplay (Wearier Of The Schmaltz)
DR8 -0.20 dB -9.37 dB 3:21 09-Been So Long
DR8 -0.20 dB -9.30 dB 1:29 10-Shake
DR7 -0.20 dB -9.25 dB 6:29 11-On The Run
DR5 -0.20 dB -6.60 dB 2:42 12-Writing On The Wall [Bonus track]
DR5 -0.20 dB -6.72 dB 3:33 13-Crusin' (In The Lincoln) [Bonus track]
DR7 -0.20 dB -8.64 dB 2:37 14-Wooly Bully [Bonus track]
DR7 -0.20 dB -8.83 dB 2:24 15-Horseplay [Single Version] [Bonus track]
DR7 -0.20 dB -8.40 dB 2:58 16-96 Tears [Live] [Bonus track]
DR7 -0.20 dB -8.60 dB 3:51 17-Get Out Of Denver [Live] [Bonus track]
DR6 -0.20 dB -7.54 dB 5:24 18-Medley, Gloria - Satisfaction [Live] [Bonus track]
DR6 -0.20 dB -6.85 dB 9:02 19-On The Run [Live] [Bonus track]
DR6 -0.20 dB -7.67 dB 2:11 20-Hard Drivin' Man [Live] [Bonus track]
DR7 -0.20 dB -8.39 dB 2:30 21-Horseplay [Live] [Bonus track]
DR7 -0.20 dB -8.07 dB 2:37 22-Double Checkin' Woman [Live] [Bonus track]
DR7 -0.20 dB -8.32 dB 2:58 23-All I Need Is Money [Live] [Bonus track]
––––––––––––––––––––––––––––––––––––––––

Number of tracks: 23
Official DR value: DR7

Samplerate: 44100 Hz
Channels: 2
Bits per sample: 16
Bitrate: 1060 kbps
Codec: FLAC
================================================================================

Eddie and the Hot Rods - Teenage Depression (1976) Expanded Remastered 2000

Eddie and the Hot Rods - Teenage Depression (1976) Expanded Remastered 2000

All thanks to original releaser - Knoxx

More interesting music in My Blog