Subcategories

Electronic - Get The Message: The Best Of Electronic (2006) CD+DVD Edition [Re-Up]

Posted By: Designol
Electronic - Get The Message: The Best Of Electronic (2006) CD+DVD Edition [Re-Up]

Electronic - Get The Message: The Best Of Electronic (2006) CD+DVD Edition
EAC | FLAC | Image (Cue&Log) ~ 514 Mb | Mp3 (CBR320) ~ 161 Mb | Time: 01:10:20
DVD5 | VIDEO_TS | PAL | 4:3 (720x576) VBR | LPCM, 2ch, 1536 kbps | Time: 00:28:47 | ~ 1.9 Gb
Alternative Pop/Rock, Alternative Dance | Label: EMI | # 0946 3 71404 2 0 | Scans ~ 72 Mb

British supergroup Electronic was the intermittent collaboration formed by Joy Division/New Order vocalist Bernard Sumner and ex-Smiths guitarist Johnny Marr. Also featuring the Pet Shop Boys' Neil Tennant, the band was an influential taste-making force that released three groundbreaking albums throughout the '90s before its members moved on creatively. For the time that these dynamic artists came together as Electronic, their dance-flavored sound pulsed with the freedom they experienced making music outside of their other, higher profile groups. Though their first gig was performing for 70,000 people at L.A.'s Dodger Stadium, Electronic's collective spirit was personal and independent-minded. Infused with spirit and innovation, it made for some of the '90s most compelling U.K.-centric altrock.

When New Order's Bernard Sumner joined the Smiths' Johnny Marr to form Electronic in 1989, some called it a dream collaboration. Marr's gifted guitar work made him a star musician on top of making the Smiths one of the greatest bands to emerge from post-punk. Sumner and his coolly boyish vocals stepped up to fill the shoes of his old friend, the late Ian Curtis, upon the end of Joy Division in 1980. New Order and the Smiths were two bands that matched one another in appeal and importance. Both groups also defined what would be known as alternative rock, so Marr and Sumner coming together just made sense. Get the Message: The Best of Electronic is a definitive look at how the super duo succeeded in making cohesive and appealing dance-rock and became one of the greatest alt-rock bands. All three albums – 1991's self-titled masterpiece, 1996's Raise the Pressue, and their 1999 hidden treasure, Twisted Tenderness – are represented throughout along with an assortment of outtakes and remixes. Their various collaborations, including their very memorable work done with the Pet Shop Boys' Neil Tennant, cannot be forgotten, either. Their U.K. Top 20 hit "Getting Away with It," the fluid acoustic guitars of "Get the Message," and the previously unavailable single mix of "Disappointed," all of which feature Tennant on vocals, remain timeless standouts for Electronic. Other highlights include the sexy synth beats of "Imitation of Life" (B-side to "Forbidden City") and "All That I Need" (B-side to the Karl Bartos-penned hit from Raise the Pressure's "For You"). With Rhino's meticulous selection of tracks, Get the Message is definitely one of those collections tailored for both longtime fans who already own everything and for new fans seeking a great prelude.

Review by MacKenzie Wilson, Allmusic.com

Electronic - Get The Message: The Best Of Electronic (2006) CD+DVD Edition [Re-Up]

Electronic - Get The Message: The Best Of Electronic (2006) CD+DVD Edition [Re-Up]



Tracklist:

01. Forbidden City (04:03)
02. Getting Away With It (05:15)
03. Get The Message (UK 7' Mix) (03:51)
04. Feel Every Beat (05:09)
05. Disappointed (Single Mix) (04:23)
06. Vivid (Radio Edit) (03:49)
07. Second Nature (04:55)
08. All That I Need (04:17)
09. Prodigal Son (07:10)
10. For You (04:53)
11. Imitation Of Life (New Edit) (03:46)
12. Out Of My League (04:36)
13. Like No Other (04:39)
14. Twisted Tenderness (05:30)
15. Late At Night (Radio Edit) (03:58)


Exact Audio Copy V1.0 beta 3 from 29. August 2011

Отчёт EAC об извлечении, выполненном 10. мая 2017, 18:08

Electronic / Get The Message - The Best Of Electronic

Дисковод: HL-DT-STDVDRAM GH24NSB0 Adapter: 0 ID: 0

Режим чтения : Достоверность
Использование точного потока : Да
Отключение кэша аудио : Да
Использование указателей C2 : Нет

Коррекция смещения при чтении : 6
Способность читать области Lead-in и Lead-out : Нет
Заполнение пропущенных сэмплов тишиной : Да
Удаление блоков с тишиной в начале и конце : Нет
При вычислениях CRC использовались нулевые сэмплы : Да
Интерфейс : Встроенный Win32-интерфейс для Win NT/2000

Выходной формат : Пользовательский кодировщик
Выбранный битрейт : 128 kBit/s
Качество : Высокий
Добавление ID3-тега : Нет
Утилита сжатия : C:\Program Files (x86)\Exact Audio Copy\Flac\flac.exe
Дополнительные параметры : -V -8 -T "Date=%year%" -T "Genre=%genre%" %source%


TOC извлечённого CD

Трек | Старт | Длительность | Начальный сектор | Конечный сектор
––––––––––––––––––––––––––––––––––-
1 | 0:00.00 | 4:03.35 | 0 | 18259
2 | 4:03.35 | 5:15.23 | 18260 | 41907
3 | 9:18.58 | 3:51.08 | 41908 | 59240
4 | 13:09.66 | 5:09.16 | 59241 | 82431
5 | 18:19.07 | 4:23.05 | 82432 | 102161
6 | 22:42.12 | 3:49.23 | 102162 | 119359
7 | 26:31.35 | 4:55.54 | 119360 | 141538
8 | 31:27.14 | 4:17.16 | 141539 | 160829
9 | 35:44.30 | 7:10.17 | 160830 | 193096
10 | 42:54.47 | 4:53.33 | 193097 | 215104
11 | 47:48.05 | 3:46.20 | 215105 | 232074
12 | 51:34.25 | 4:36.66 | 232075 | 252840
13 | 56:11.16 | 4:39.27 | 252841 | 273792
14 | 60:50.43 | 5:30.27 | 273793 | 298569
15 | 66:20.70 | 3:58.56 | 298570 | 316475


Характеристики диапазона извлечения и сообщения об ошибках

Выбранный диапазон

Имя файла C:\Users\blackriver\Desktop\эл4\Electronic - Get The Message - The Best Of Electronic.wav

Пиковый уровень 99.8 %
Скорость извлечения 1.9 X
Качество диапазона 100.0 %
CRC теста F0E7FCB3
CRC копии F0E7FCB3
Копирование… OK

Ошибок не произошло


AccurateRip: сводка

Трек 1 : извлечено точно (доверие 23) [BE4B9E21] (AR v2)
Трек 2 : извлечено точно (доверие 23) [1BB5C411] (AR v2)
Трек 3 : извлечено точно (доверие 23) [3C997B5F] (AR v2)
Трек 4 : извлечено точно (доверие 23) [27EC48F9] (AR v2)
Трек 5 : извлечено точно (доверие 24) [DB2DFB69] (AR v2)
Трек 6 : извлечено точно (доверие 24) [EB537BBB] (AR v2)
Трек 7 : извлечено точно (доверие 23) [235DB2ED] (AR v2)
Трек 8 : извлечено точно (доверие 24) [A286F5C3] (AR v2)
Трек 9 : извлечено точно (доверие 23) [02BFB5D7] (AR v2)
Трек 10 : извлечено точно (доверие 23) [AE53A80E] (AR v2)
Трек 11 : извлечено точно (доверие 24) [61EEBF72] (AR v2)
Трек 12 : извлечено точно (доверие 23) [57D9E6B1] (AR v2)
Трек 13 : извлечено точно (доверие 23) [3B0E12BF] (AR v2)
Трек 14 : извлечено точно (доверие 23) [2EF1FA04] (AR v2)
Трек 15 : извлечено точно (доверие 25) [959FBE4B] (AR v2)

Все треки извлечены точно

Конец отчёта

==== Контрольная сумма отчёта E036AF090D6F299522458A7F5ACCF007EFD6508B56C1AA353631E6EE5707269E ====

[CUETools log; Date: 13.09.2018 16:10:12; Version: 2.1.4]
[CTDB TOCID: wQwHaDcWVyySU91onNYPiVXXlmE-] found.
Track | CTDB Status
1 | (36/46) Accurately ripped
2 | (36/46) Accurately ripped
3 | (36/46) Accurately ripped
4 | (36/46) Accurately ripped
5 | (36/46) Accurately ripped
6 | (36/46) Accurately ripped
7 | (36/46) Accurately ripped
8 | (36/46) Accurately ripped
9 | (36/46) Accurately ripped
10 | (36/46) Accurately ripped
11 | (36/46) Accurately ripped
12 | (36/46) Accurately ripped
13 | (36/46) Accurately ripped
14 | (36/46) Accurately ripped
15 | (36/46) Accurately ripped
[AccurateRip ID: 002643a9-01b427bd-e0107b0f] found.
Track [ CRC | V2 ] Status
01 [b87dd862|be4b9e21] (15+26/78) Accurately ripped
02 [cf6fd4c7|1bb5c411] (15+26/78) Accurately ripped
03 [cb6e327c|3c997b5f] (15+26/78) Accurately ripped
04 [b9884942|27ec48f9] (14+26/77) Accurately ripped
05 [a032624a|db2dfb69] (16+27/80) Accurately ripped
06 [dbf336da|eb537bbb] (14+27/79) Accurately ripped
07 [6b3d22ec|235db2ed] (15+26/78) Accurately ripped
08 [21caff99|a286f5c3] (14+27/78) Accurately ripped
09 [cd014e99|02bfb5d7] (14+26/77) Accurately ripped
10 [f64c8743|ae53a80e] (14+26/77) Accurately ripped
11 [2a584e0b|61eebf72] (14+27/78) Accurately ripped
12 [04f7feb2|57d9e6b1] (14+26/77) Accurately ripped
13 [55064265|3b0e12bf] (15+26/78) Accurately ripped
14 [e7783085|2ef1fa04] (15+26/78) Accurately ripped
15 [bfa2dc0d|959fbe4b] (14+28/80) Accurately ripped
Offsetted by -24:
01 [882e9eaa] (05/78) Accurately ripped
02 [d4760157] (05/78) Accurately ripped
03 [18b1303e] (05/78) Accurately ripped
04 [5fa40150] (05/77) Accurately ripped
05 [1286af7a] (05/80) Accurately ripped
06 [9d028eea] (05/79) Accurately ripped
07 [826dd0b4] (05/78) Accurately ripped
08 [fb271b31] (05/78) Accurately ripped
09 [d0285471] (05/77) Accurately ripped
10 [88b8fe73] (05/77) Accurately ripped
11 [240aa62b] (05/78) Accurately ripped
12 [c992272a] (05/77) Accurately ripped
13 [324e5f35] (05/78) Accurately ripped
14 [30ebbbbd] (05/78) Accurately ripped
15 [765ec025] (05/80) Accurately ripped
Offsetted by -646:
01 [b97eb174] (00/78) No match (V2 was not tested)
02 [ec00aeeb] (00/78) No match
03 [9a75bfdc] (00/78) No match (V2 was not tested)
04 [ac542762] (00/77) No match
05 [103a2a96] (00/80) No match
06 [687ae3de] (00/79) No match
07 [1b70bdde] (00/78) No match
08 [270f90ff] (00/78) No match
09 [0c86568f] (00/77) No match
10 [f0deba0f] (00/77) No match
11 [c0ae1213] (00/78) No match
12 [70d81550] (00/77) No match
13 [ee85f499] (00/78) No match
14 [4b3393d3] (00/78) No match
15 [36399793] (00/80) No match
Offsetted by 18:
01 [9cb943ac] (00/78) No match
02 [0bab335b] (00/78) No match
03 [13035ac0] (00/78) No match (V2 was not tested)
04 [3d7cbf02] (00/77) No match
05 [0a732866] (00/80) No match
06 [8b27b4ce] (00/79) No match
07 [99d8a096] (00/78) No match
08 [fec5eae7] (00/78) No match
09 [0aa40a37] (00/77) No match
10 [c87b2ddf] (00/77) No match
11 [6f128bf3] (00/78) No match
12 [31846058] (00/77) No match
13 [af102cc9] (00/78) No match
14 [b061881b] (00/78) No match
15 [7695f0fb] (00/80) No match (V2 was not tested)

Track Peak [ CRC32 ] [W/O NULL] [ LOG ]
– 99,8 [F0E7FCB3] [30697A3B] CRC32
01 99,8 [3050F752] [B4266B03]
02 99,8 [7133EE9F] [9A91D6ED]
03 96,7 [C30EBCA4] [8730A082]
04 99,8 [D686B7B2] [E2D69575]
05 99,8 [B119158E] [2483DA86]
06 97,3 [F5D43A0D] [2EC15674]
07 91,7 [5E5AEFD0] [AC853D57]
08 95,9 [ACB5CA03] [310C210B]
09 99,1 [B45E40E5] [862BB3C9]
10 91,0 [31DB0B92] [6A65AC6E]
11 93,8 [24888D99] [726BC154]
12 97,6 [97D0FC67] [E07DDF72]
13 86,0 [DEB0A0D1] [2D6695A3]
14 99,2 [4DB54850] [FFC695D8]
15 90,8 [321DFD04] [6F176DF6]

foobar2000 1.2 / Dynamic Range Meter 1.1.1
log date: 2018-09-13 16:13:42

––––––––––––––––––––––––––––––––––––––––
Analyzed: Electronic / Get The Message - The Best Of Electronic
––––––––––––––––––––––––––––––––––––––––

DR Peak RMS Duration Track
––––––––––––––––––––––––––––––––––––––––
DR7 -0.01 dB -8.21 dB 4:03 01-Forbidden City
DR8 -0.01 dB -9.81 dB 5:15 02-Getting Away With It
DR8 -0.29 dB -9.54 dB 3:51 03-Get the Message (Single Remix)
DR9 -0.01 dB -11.12 dB 5:09 04-Feel Every Beat
DR9 -0.01 dB -10.56 dB 4:23 05-Disappointed (Single Mix)
DR6 -0.23 dB -7.51 dB 3:49 06-Vivid (Radio Edit)
DR7 -0.75 dB -9.08 dB 4:56 07-Second Nature
DR7 -0.36 dB -8.77 dB 4:17 08-All That I Need
DR5 -0.07 dB -7.60 dB 7:10 09-Prodigal Son
DR7 -0.81 dB -8.37 dB 4:53 10-For You
DR7 -0.55 dB -9.02 dB 3:46 11-Imitation Of Life (New Edit)
DR6 -0.21 dB -7.55 dB 4:37 12-Out Of My League
DR6 -1.30 dB -8.34 dB 4:39 13-Like No Other
DR6 -0.06 dB -7.82 dB 5:30 14-Twisted Tenderness
DR7 -0.83 dB -8.47 dB 3:59 15-Late At Night (Radio Edit)
––––––––––––––––––––––––––––––––––––––––

Number of tracks: 15
Official DR value: DR7

Samplerate: 44100 Hz
Channels: 2
Bits per sample: 16
Bitrate: 1021 kbps
Codec: FLAC
================================================================================

Electronic - Get The Message: The Best Of Electronic (2006) CD+DVD Edition [Re-Up]

Electronic - Get The Message: The Best Of Electronic (2006) CD+DVD Edition [Re-Up]

Electronic - Get The Message: The Best Of Electronic (2006) CD+DVD Edition [Re-Up]

Electronic - Get The Message: The Best Of Electronic (2006) CD+DVD Edition [Re-Up]

Electronic - Get The Message: The Best Of Electronic (2006) CD+DVD Edition [Re-Up]

Electronic - Get The Message: The Best Of Electronic (2006) CD+DVD Edition [Re-Up]

Electronic - Get The Message: The Best Of Electronic (2006) CD+DVD Edition [Re-Up]

DVD Content:

1. Getting Away With It (American version) [feat. Neil Tennant]
2. Get The Message
3. Feel Every Beat
4. Disappointed [feat. Neil Tennant]
5. Forbidden City
6. For You
7. Vivid


Electronic - Get The Message: The Best Of Electronic (2006) CD+DVD Edition [Re-Up]

Electronic - Get The Message: The Best Of Electronic (2006) CD+DVD Edition [Re-Up]