Tags
Language
Tags

Eleni Karaindrou - Trilogy: The Weeping Meadow (Film by Theo Angelopoulos) (2004) [Re-Up]

Posted By: Designol
Eleni Karaindrou - Trilogy: The Weeping Meadow (Film by Theo Angelopoulos) (2004) [Re-Up]

Eleni Karaindrou - Trilogy: The Weeping Meadow (Film by Theo Angelopoulos) (2004)
EAC | FLAC | Image (Cue&Log) ~ 194 Mb | Mp3 (CBR320) ~ 102 Mb | Scans included
Label: ECM | # ECM New Series 1885 | Time: 00:44:03
Soundtrack, Score, Contemporary Classical

Film and orchestral music composer Eleni Karaindrou has made a beautiful and moving statement with THE WEEPING MEADOW. A native of Greece, Karaindrou's influences are decidedly European, and within the music, one can hear the stamp of impressionistic composers like Erik Satie, avant garde innovators like Bartok, as well as Greek and Balkan folk forms. Karaindrou's music also traffics in 20th-century minimalism, creating tense, atmospheric spaces that feel empty and dense at once (one of the composer's frequently used motifs involves "patterns" that recall the tingling, polyphonic gestures of Phillip Glass).

Although several themes are reprised throughout the album, the combination of ambient textures, folk phrasing (accordions, guitars, and violins figure prominently into several pieces), and lush orchestral work keep the music consistently interesting. The pieces are often set in a minor key, so a somber, melancholic mood prevails yet never feels forced or melodramatic, and the spacious, tasteful arrangements are in keeping with the ECM aesthetic. THE WEEPING MEADOW is largely instrumental, but also features several choral pieces, adding to the variety and depth of the overall palette on this impressive achievement.

Allmusic.com

Eleni Karainrou’s music for film is more than incidental; it is genetically enmeshed in celluloid. Melodies come to her before she sees a single frame, when migrations are still conceptual, dreamed of. This explains the rawness she elicits from Theo Angelopoulos’s swaths of mist, water, and dirt in The Weeping Meadow. “She speaks the same language that I am when making a film,” the late Greek director once said, for indeed her soundtrack is anything but paraphrase. It is as much the film as the film itself, as broad of sweep and as inward of emotion as the characters in whose skin the music resonates.

The Weeping Meadow is Part I of Angelopoulos’s uncompleted trilogy on modern Greece and spans the years 1919 through 1949. It is the portrait of a pivotal century, a coroner’s report on the body of Greece.

Behind the camera is a nation ravaged by the Bolshevik Revolution—a force of displacement that cuts the bonds of countless citizens and sets them flying into whatever currents they can catch toward safety. The Red Army’s march on Odessa looses our main characters from the rock and goads them onward.

Like the hand-colored postcards in the title sequence, their beloved city exists only as it was, frozen at the height of its opulence by the touch of memory.

Writhing on the other side of Angelopoulos’s lens is interwar America, which was for many refugees a Promised Land. People believed such things out of innocence, notes Angelopoulos in a related interview, looking as they were for a way out of their poverty. The Weeping Meadow thus unfolds as a threnody of discovery, an awakening to the mutually exclusive powers of earth and sky.

It follows the coming of age of Eleni, an orphaned foundling who falls in love with her adoptive brother Alexis, with whom she elopes after marrying his widowed father, Spyros. In the years leading up to World War II, Alexis goes to America to pursue his dreams of becoming a renowned musician, leaving Eleni to wash her tired, solemn feet in the basin of fascist repression.

As is de rigueur in Angelopoulos’s cinema, the way he tells his stories is just as significant as the stories themselves. This is nowhere truer than in the soundtrack.

What Karaindrou has done is to treat the film’s events as births and nurture them into being. Thus animated, they take on new flesh and politics. In this regard, the titular main theme is among the most representative of all she has written. Its seesawing melodies and river-run exposition move like the eternal dance that is her spirit. In the accordion we can hear Alexis’s aspirations, can feel a lure that stretches across the Atlantic and into the heart of his as-yet-unrequited passage.

“Theme of the uprooting” shines harp with cello through a prism of deeper hue. It is one of many intimate pairings throughout the program, each an expression of Eleni and Alexis splashed across the atlas of time to which they are ever subordinate.

This sensation of helplessness turns visceral through the voiceover, which marks what we are about to see as choreography on a vast stage. “Scene 1,” the voice begins, establishing a self-aware, non-diegetic world in which we are but fleeting, curious spectators. Along the banks of Thessaloniki—“a wound that will not heal”—a mass of humanity approaches, torn yet regardful. Life as they once knew it is gone, as threadbare and uncertain as they are.

“Waiting” holds true to this tension, wrapping its wings around Eleni’s unfathomable resolve, which liquefies in her arrest. As water drips from her hands like tears (an image that recurs in the trilogy’s second part, The Dust of Time), she becomes life itself, percolating through crack of stone and pocket of soil into the earth’s molten core.

Eleni’s twin soul resides in “The tree,” another recurring melody that stands as the only reminder of community. Its lachrymose branches have shed their leaves long ago. In their place are strains of accordion, piano, and lyra…fish swimming in murky waters. The single tree is a living cipher, a leitmotif akin to the sapling in Tarkovsky’s The Sacrifice. Although more often looming in the distance of the refugees’ makeshift settlement…

…up close it is ornamented with animal carcasses: not an omen of what will be, but of what might have been.

When the settlement is flooded and puts those nomadic hearts back on the line, it weeps in their absence. For as democracy commits suicide all around them, its roots are the only ones left.

“Young man’s theme” is another of the soundtrack’s more character-driven pieces. Its interlocking circles of accordion, lyra, and harp weave a thinly veiled portrait of the film’s love triangle, which like an all-seeing eye penetrates the viewer in return. That gaze is as prolific as it is omnipresent. From the long pan over riverbanks worn by wheel of cart and sole of shoe to the silent epidemic that offers Alexis’s mother to the talons of a bird of deathly shade, it watches until things drown. It reminds us that Alexis has already wounded Eleni with a family she can never have (when we encounter her as a teenager her twin boys, born in secret, have already been adopted out). Upon her return, Alexis goes to Eleni in the night and asks her, “Remember when we used to say we’d follow the river to the find the source?” He is too young to realize that Eleni has been that source all along. Although they have shared a moment through the window, separated by songs of men, being together means that some form of shattering is inevitable.

That each of the above themes has its variations reminds us that constellations are never fixed. They are the changing of the guard from day into dusk, an enigmatic realization of that unflagging gaze. All of which makes the standalone pieces glow with their potency of message.

Anchored by a violin solo that invokes Karaindrou’s theme for Ulysses’ Gaze, “Memories” caresses the garments of a loved one who has passed. Here we find pause and reflection for the wayfaring mind. The quiet tide of strings barely touches the shore before an emotional sponge dabs it away as if it were but a tear on the face of an immeasurable deity.

“On the road” spins an even more reflective pathos, its wheels turning in search of traction and finding it only the choir of “Prayer.” Therein lies the film’s most abrasive benediction. It weeps neither for itself nor for us, but for those who do not know, those we can never know, those without name in places without time. It encompasses Eleni’s resilience tenfold: her spying on the twin boys, drawn into a web at conservatory; her flight with Alexis into the shelter of a sympathetic theater troupe, and Spyros’s vengeful shame at knowing his pride is lost; the final dance before Spyros collapses, never to breathe again; his watery pyre, floating somewhere between the fantasy he could never endure and the reality that substitutes his existence with sticks and decay.

Simply calling Karaindrou’s sound-world “cinematic” is as misguided as calling the sky blue, for it too fades to black when the day is over. Despite its fictional ties, its shapes are as real as the musicians who bring it to life. It is, rather, an amorphous body of tears and gestures, the departing ship that pulls Alexis and Eleni apart.

A red thread is all that connects, the unraveling of an unfinished garment.

After it falls into the ocean, and with it the promise of balance, Eleni returns to the old house, ruined, in the water.

Its voices have washed away. Eleni has been washed away. Everything has been washed away.

Review by Tyran Grillo, ECMreviews.com


Eleni Karaindrou - Trilogy: The Weeping Meadow (Film by Theo Angelopoulos) (2004) [Re-Up]



Maria Bildea, harp
Konstantinos Raptis, accordion
Socratis Sinopoulos, constantinople lyra
Vangelis Skouras, french horn
Renato Ripo, violoncello
Sergiu Nastasa, violin
Angelos Repapis, double-bass
String Orchestra La Camerata Athens
Eleni Karaindrou, piano
Antonis Kontogeorgiou, choirmaster

Recorded June 2003 at Studio Polysound, Athens

Tracklist:

01. The Weeping Meadow (3:56)
02. Theme of the Uprooting I (1:08)
03. Waiting 1 (4:18)
04. Memories (3:34)
05. The Tree (2:43)
06. Young Man's Theme I (1:56)
07. The Weeping Meadow I (3:23)
08. Theme of the Uprooting II (1:18)
09. Waiting II (2:03)
10. Theme of the Uprooting (3:07)
11. Prayer (4:14)
12. The Tree (2:45)
13. On the Road (3:38)
14. Young Man's Theme (2:11)
15. Theme of the Uprooting III (1:10)
16. The Weeping Meadow II (2:38)


Exact Audio Copy V0.99 prebeta 4 from 23. January 2008

EAC extraction logfile from 14. April 2008, 22:50

Eleni Karaindrou / The Weeping Meadow

Used drive : PLEXTOR CD-R PX-W5224A Adapter: 4 ID: 0

Read mode : Secure
Utilize accurate stream : Yes
Defeat audio cache : Yes
Make use of C2 pointers : No

Read offset correction : 30
Overread into Lead-In and Lead-Out : Yes
Fill up missing offset samples with silence : Yes
Delete leading and trailing silent blocks : No
Null samples used in CRC calculations : Yes
Used interface : Native Win32 interface for Win NT & 2000

Used output format : User Defined Encoder
Selected bitrate : 768 kBit/s
Quality : High
Add ID3 tag : No
Command line compressor : c:\Program Files\Tools CD\Exact Audio Copy\FLAC\FLAC.EXE
Additional command line options : -o %d –best %s


TOC of the extracted CD

Track | Start | Length | Start sector | End sector
––––––––––––––––––––––––––––-
1 | 0:00.00 | 3:56.05 | 0 | 17704
2 | 3:56.05 | 1:08.25 | 17705 | 22829
3 | 5:04.30 | 4:18.00 | 22830 | 42179
4 | 9:22.30 | 3:34.36 | 42180 | 58265
5 | 12:56.66 | 2:42.56 | 58266 | 70471
6 | 15:39.47 | 1:56.28 | 70472 | 79199
7 | 17:36.00 | 3:23.09 | 79200 | 94433
8 | 20:59.09 | 1:18.26 | 94434 | 100309
9 | 22:17.35 | 2:02.38 | 100310 | 109497
10 | 24:19.73 | 3:06.71 | 109498 | 123518
11 | 27:26.69 | 4:14.14 | 123519 | 142582
12 | 31:41.08 | 2:44.61 | 142583 | 154943
13 | 34:25.69 | 3:38.04 | 154944 | 171297
14 | 38:03.73 | 2:10.69 | 171298 | 181116
15 | 40:14.67 | 1:10.13 | 181117 | 186379
16 | 41:25.05 | 2:38.15 | 186380 | 198244


Range status and errors

Selected range

Filename D:\Music.wrk\ripped\Eleni Karaindrou\The Weeping Meadow\CDImage.wav

Peak level 94.5 %
Range quality 100.0 %
Copy CRC 7A093BE8
Copy OK

No errors occurred


AccurateRip summary

Track 1 not present in database
Track 2 cannot be verified as accurate (confidence 1) [163846AB], AccurateRip returned [B1CB0588]
Track 3 cannot be verified as accurate (confidence 1) [A09718E9], AccurateRip returned [EE40AC22]
Track 4 cannot be verified as accurate (confidence 1) [4232768B], AccurateRip returned [556090EF]
Track 5 cannot be verified as accurate (confidence 1) [F9C8F89D], AccurateRip returned [76429395]
Track 6 cannot be verified as accurate (confidence 1) [6793C7E6], AccurateRip returned [834D6BAC]
Track 7 cannot be verified as accurate (confidence 1) [1F560496], AccurateRip returned [8F2F597A]
Track 8 cannot be verified as accurate (confidence 1) [2CD06ACF], AccurateRip returned [E72D2C75]
Track 9 cannot be verified as accurate (confidence 1) [B8D35BB4], AccurateRip returned [222B07F4]
Track 10 cannot be verified as accurate (confidence 1) [0AC7A002], AccurateRip returned [C8404F84]
Track 11 cannot be verified as accurate (confidence 1) [87210D2F], AccurateRip returned [D47360AF]
Track 12 cannot be verified as accurate (confidence 1) [C9968471], AccurateRip returned [42F828EB]
Track 13 cannot be verified as accurate (confidence 1) [7686BB75], AccurateRip returned [37A8EBA9]
Track 14 cannot be verified as accurate (confidence 1) [99E0798A], AccurateRip returned [CF1906DC]
Track 15 cannot be verified as accurate (confidence 1) [3EF40A2B], AccurateRip returned [85C5FA57]
Track 16 cannot be verified as accurate (confidence 1) [C00AA0BF], AccurateRip returned [94C50D85]

15 track(s) could not be verified as accurate
1 track(s) not present in the AccurateRip database

No tracks could be verified as accurate
You may have a different pressing from the one(s) in the database

End of status report

[CUETools log; Date: 05.05.2017 20:16:35; Version: 2.1.4]
[CTDB TOCID: SpLH0dfb2azCZPe8Z._q3MuovSc-] found.
Track | CTDB Status
1 | (43/43) Accurately ripped
2 | (42/43) Accurately ripped
3 | (42/43) Accurately ripped
4 | (42/43) Accurately ripped
5 | (42/43) Accurately ripped
6 | (42/43) Accurately ripped
7 | (42/43) Accurately ripped
8 | (42/43) Accurately ripped
9 | (42/43) Accurately ripped
10 | (42/43) Accurately ripped
11 | (42/43) Accurately ripped
12 | (42/43) Accurately ripped
13 | (42/43) Accurately ripped
14 | (42/43) Accurately ripped
15 | (42/43) Accurately ripped
16 | (42/43) Accurately ripped
[AccurateRip ID: 001abf95-013e1406-e10a5310] found.
Track [ CRC | V2 ] Status
01 [b14ffe3a|2a3c74e1] (14+14/28) Accurately ripped
02 [163846ab|628cc6bf] (36+26/64) Accurately ripped
03 [a09718e9|378f00f1] (36+26/64) Accurately ripped
04 [4232768b|14f5e6c1] (36+26/64) Accurately ripped
05 [f9c8f89d|83a2caab] (36+26/64) Accurately ripped
06 [6793c7e6|b3d66dbc] (36+26/64) Accurately ripped
07 [1f560496|c3da04ab] (36+26/64) Accurately ripped
08 [2cd06acf|f764ac62] (36+26/64) Accurately ripped
09 [b8d35bb4|4544ae5b] (36+26/64) Accurately ripped
10 [0ac7a002|bf8df822] (36+26/64) Accurately ripped
11 [87210d2f|82b11a1a] (36+26/64) Accurately ripped
12 [c9968471|f46de1ce] (36+26/64) Accurately ripped
13 [7686bb75|7ffd2aeb] (35+26/63) Accurately ripped
14 [99e0798a|ce591241] (37+26/65) Accurately ripped
15 [3ef40a2b|fd63e743] (36+26/64) Accurately ripped
16 [c00aa0bf|31f141d2] (36+26/64) Accurately ripped
Offsetted by -18:
01 [96d35be6] (00/28) No match
02 [6c1042e6] (00/64) No match (V2 was not tested)
03 [53e28e78] (00/64) No match (V2 was not tested)
04 [fe9c1677] (00/64) No match (V2 was not tested)
05 [2d053c05] (00/64) No match (V2 was not tested)
06 [5d419d58] (00/64) No match (V2 was not tested)
07 [45e90c02] (00/64) No match (V2 was not tested)
08 [9c75c3e1] (00/64) No match (V2 was not tested)
09 [cb058c74] (00/64) No match (V2 was not tested)
10 [56bfdde8] (00/64) No match (V2 was not tested)
11 [22ebefaf] (00/64) No match (V2 was not tested)
12 [ecb4f3bf] (00/64) No match (V2 was not tested)
13 [37350bd1] (00/63) No match (V2 was not tested)
14 [a2f23fe0] (00/65) No match (V2 was not tested)
15 [67a97cef] (00/64) No match (V2 was not tested)
16 [f3200131] (00/64) No match (V2 was not tested)

Track Peak [ CRC32 ] [W/O NULL] [ LOG ]
– 94,4 [7A093BE8] [CA82438C] CRC32
01 94,4 [79FBBC3C] [7C0A396B]
02 66,2 [E387AF58] [146F07D1]
03 56,8 [B3413AC0] [09A305BE]
04 60,1 [34EA56E2] [8A1AEE61]
05 64,8 [32E31DBF] [6E8860F9]
06 39,0 [196CA533] [0ACB99D4]
07 75,3 [A3992C0F] [39693AC3]
08 76,2 [2F419EF0] [CFE1B52C]
09 62,2 [042E1FBF] [334825C2]
10 64,5 [E2BBBED5] [50B60A0D]
11 81,8 [88DFA1DE] [A8AE10DE]
12 64,8 [2835CFF0] [FF168069]
13 51,4 [DA00A0B2] [0ACE0546]
14 73,9 [0B7A1AB0] [D7FD4002]
15 66,2 [19C017CE] [ADB22482]
16 66,4 [E9EE33AA] [9C0DD910]

foobar2000 1.2 / Dynamic Range Meter 1.1.1
log date: 2017-05-05 23:03:13

––––––––––––––––––––––––––––––––––––––––
Analyzed: Eleni Karaindrou / The Weeping Meadow
––––––––––––––––––––––––––––––––––––––––

DR Peak RMS Duration Track
––––––––––––––––––––––––––––––––––––––––
DR11 -0.49 dB -14.53 dB 3:56 01-The Weeping Meadow
DR11 -3.57 dB -20.08 dB 1:08 02-Theme of the Uprooting I
DR14 -4.91 dB -22.81 dB 4:18 03-Waiting 1
DR12 -4.41 dB -22.09 dB 3:34 04-Memories
DR12 -3.76 dB -21.09 dB 2:43 05-The Tree
DR11 -8.16 dB -23.48 dB 1:56 06-Young Man's Theme I
DR11 -2.45 dB -21.69 dB 3:23 07-The Weeping Meadow I
DR11 -2.35 dB -19.44 dB 1:18 08-Theme of the Uprooting II
DR11 -4.12 dB -20.40 dB 2:03 09-Waiting II
DR12 -3.81 dB -20.88 dB 3:07 10-Theme of the Uprooting
DR11 -1.74 dB -18.96 dB 4:14 11-Prayer
DR12 -3.76 dB -21.08 dB 2:45 12-The Tree
DR12 -5.77 dB -22.54 dB 3:38 13-On the Road
DR11 -2.62 dB -19.50 dB 2:11 14-Young Man's Theme
DR11 -3.57 dB -20.27 dB 1:10 15-Theme of the Uprooting III
DR13 -3.55 dB -24.19 dB 2:38 16-The Weeping Meadow II
––––––––––––––––––––––––––––––––––––––––

Number of tracks: 16
Official DR value: DR12

Samplerate: 44100 Hz
Channels: 2
Bits per sample: 16
Bitrate: 583 kbps
Codec: FLAC
================================================================================

Eleni Karaindrou - Trilogy: The Weeping Meadow (Film by Theo Angelopoulos) (2004) [Re-Up]

All thanks to original releaser

More interesting music in My Blog