Subcategories

Ella Fitzgerald - Newport Jazz Festival: Live At Carnegie Hall (1973) 2 CD, Japanese Remastered Reissue 1997

Posted By: Designol
Ella Fitzgerald - Newport Jazz Festival: Live At Carnegie Hall (1973) 2 CD, Japanese Remastered Reissue 1997

Ella Fitzgerald - Newport Jazz Festival: Live At Carnegie Hall (1973) 2 CD, Japanese Remastered 1997
EAC | FLAC | Tracks (Cue&Log) ~ 758 Mb | Mp3 (CBR320) ~ 324 Mb | Scans ~ 38 Mb
Vocal Jazz, Standarts | Label: Sony Records | # SRCS 9211-2 | Time: 02:22:09

This two-CD set (a reissue of an earlier two-LP set plus six previously unreleased numbers) brings back a memorable Carnegie Hall concert that both features and pays tribute to Ella Fitzgerald. The great singer is joined on a few numbers by a Chick Webb reunion band that has a few of the original members (plus an uncredited Panama Francis on drums). Although the musicians do not get much solo space (why wasn't trumpeter Taft Jordan featured?), the music is pleasing. Fitzgerald performs three exquisite duets with pianist Ellis Larkins and then sits out while the Jazz at the Philharmonic All-Stars romp on a few jams and a ballad medley. Trumpeter Roy Eldridge's emotional flights take honors, although tenorman Eddie "Lockjaw" Davis and trombonist Al Grey are also in good form. Fitzgerald comes out for the second half of the show and sings 14 numbers with guitarist Joe Pass (including a pair of tender duets) and the Tommy Flanagan trio. Although her renditions of "I've Gotta Be Me" and "What's Going On" are unnecessary, Fitzgerald sounds beautiful on "Good Morning Heartache," "Don't Worry About Me," and "These Foolish Things," and swings hard on the scat-filled "Lemon Drop." An excellent retrospective of Fitzgerald's first 40 years in jazz.

Review by Scott Yanow, Allmusic.com

Ella Fitzgerald - Newport Jazz Festival: Live At Carnegie Hall (1973) 2 CD, Japanese Remastered Reissue 1997



Performers:

Ella Fitzgerald - vocals

The Chick Webb Orchestra

Al Grey - trombone
Eddie "Lockjaw" Davis - tenor saxophone
Roy Eldridge - trumpet
Tommy Flanagan, Ellis Larkins - piano
Joe Pass - guitar
Keeter Betts - bass
Freddie Waits - drums

Recorded at Carnegie Hall, New York on July 5, 1973.


Tracklist:

CD1:

01. Opening Announcement by Eddie Barefield/Let's Get Together (01:03)
02. Stompin' at the Savoy (03:45)
03. A-Tisket A-Tasket (03:16)
04. Indian Summer (05:07)
05. Smooth Sailing (03:37)
06. Eddie Barefield Original (03:30)
07. Band Introductions/Let's Get Together (02:00)
08. Announcement by George Wein (01:03)
09. You Turned the Tables on Me (04:58)
10. Nice Work If You Can Get It (02:59)
11. I've Got a Crush on You (02:51)
12. Introduction of Jazz at Carnegie All-Stars by George Wein (01:44)
13. Somebody Loves Me (09:18)
14. Medley: I Can't Get Started/The Young Man with the Horn/'Round Midnight (09:03)
15. Stardust (03:56)
16. Avalon (13:11)

CD2:

01. C Jam Blues (12:32)
02. Introductions of Ella Fitzgerald by George Wein and Carmen McRae (02:26)
03. I've Gotta Be Me (03:03)
04. Down in the Depths (04:54)
05. Good Morning Heartache (05:40)
06. What's Going On (04:13)
07. Miss Otis Regrets (She's Unable to Lunch Today) (05:00)
08. Don't Worry 'Bout Me (02:10)
09. These Foolish Things (Remind Me of You) (03:27)
10. Any Old Blues (04:43)
11. Taking a Chance on Love (02:08)
12. I'm in the Mood for Love (01:19)
13. Lemon Drop (04:48)
14. A-Tisket A-Tasket (Excerpt) (02:13)
15. Some of These Days (06:28)
16. People (04:44)
17. A-Tisket A-Tasket (Excerpt) (00:43)


Exact Audio Copy V1.1 from 23. June 2015

EAC extraction logfile from 18. March 2016, 17:22

Ella Fitzgerald / Newport Jazz Festival - Live At Carnegie Hall [Disc 1]

Used drive : HL-DT-STDVD+-RW GS30N Adapter: 1 ID: 0

Read mode : Secure
Utilize accurate stream : Yes
Defeat audio cache : Yes
Make use of C2 pointers : No

Read offset correction : 667
Overread into Lead-In and Lead-Out : No
Fill up missing offset samples with silence : Yes
Delete leading and trailing silent blocks : No
Null samples used in CRC calculations : Yes
Used interface : Native Win32 interface for Win NT & 2000
Gap handling : Appended to previous track

Used output format : User Defined Encoder
Selected bitrate : 1024 kBit/s
Quality : High
Add ID3 tag : No
Command line compressor : C:\Program Files (x86)\Exact Audio Copy\FLAC\FLAC.EXE
Additional command line options : -6 -V -T "ARTIST=%artist%" -T "TITLE=%title%" -T "ALBUM=%albumtitle%" -T "DATE=%year%" -T "TRACKNUMBER=%tracknr%" -T "GENRE=%genre%" -T "COMMENT=%comment%" -T "BAND=%albuminterpret%" -T "ALBUMARTIST=%albuminterpret%" -T "COMPOSER=%composer%" %haslyrics%–tag-from-file=LYRICS="%lyricsfile%"%haslyrics% -T "DISCNUMBER=%cdnumber%" -T "TOTALDISCS=%totalcds%" -T "TOTALTRACKS=%numtracks%" %hascover%–picture="%coverfile%"%hascover% %source% -o %dest%


TOC of the extracted CD

Track | Start | Length | Start sector | End sector
––––––––––––––––––––––––––––-
1 | 0:00.00 | 1:03.52 | 0 | 4776
2 | 1:03.52 | 3:45.55 | 4777 | 21706
3 | 4:49.32 | 3:16.05 | 21707 | 36411
4 | 8:05.37 | 5:07.27 | 36412 | 59463
5 | 13:12.64 | 3:37.71 | 59464 | 75809
6 | 16:50.60 | 3:30.40 | 75810 | 91599
7 | 20:21.25 | 2:00.60 | 91600 | 100659
8 | 22:22.10 | 1:03.70 | 100660 | 105454
9 | 23:26.05 | 4:58.72 | 105455 | 127876
10 | 28:25.02 | 2:59.05 | 127877 | 141306
11 | 31:24.07 | 2:51.23 | 141307 | 154154
12 | 34:15.30 | 1:44.72 | 154155 | 162026
13 | 36:00.27 | 9:18.65 | 162027 | 203941
14 | 45:19.17 | 9:03.13 | 203942 | 244679
15 | 54:22.30 | 3:56.35 | 244680 | 262414
16 | 58:18.65 | 13:11.10 | 262415 | 321749


Track 1

Filename D:\music\Ella Fitzgerald - Newport Jazz Festival - Live At Carnegie Hal\Disc 1\01. Ella Fitzgerald - Opening Announcement By Eddie Barefield - Let's Get Together.wav

Pre-gap length 0:00:02.00

Peak level 100.0 %
Extraction speed 1.9 X
Track quality 100.0 %
Test CRC 222DFC48
Copy CRC 222DFC48
Accurately ripped (confidence 8) [51897529] (AR v2)
Copy OK

Track 2

Filename D:\music\Ella Fitzgerald - Newport Jazz Festival - Live At Carnegie Hal\Disc 1\02. Ella Fitzgerald - Stompin' At The Savoy.wav

Peak level 100.0 %
Extraction speed 2.4 X
Track quality 99.9 %
Test CRC A224519B
Copy CRC A224519B
Accurately ripped (confidence 8) [13B06B3F] (AR v2)
Copy OK

Track 3

Filename D:\music\Ella Fitzgerald - Newport Jazz Festival - Live At Carnegie Hal\Disc 1\03. Ella Fitzgerald - A-Tisket A-Tasket.wav

Peak level 100.0 %
Extraction speed 3.0 X
Track quality 100.0 %
Test CRC 7E20A65B
Copy CRC 7E20A65B
Accurately ripped (confidence 8) [ECB98D41] (AR v2)
Copy OK

Track 4

Filename D:\music\Ella Fitzgerald - Newport Jazz Festival - Live At Carnegie Hal\Disc 1\04. Ella Fitzgerald - Indian Summer.wav

Peak level 100.0 %
Extraction speed 3.4 X
Track quality 100.0 %
Test CRC B575B1CE
Copy CRC B575B1CE
Accurately ripped (confidence 8) [F925B95F] (AR v2)
Copy OK

Track 5

Filename D:\music\Ella Fitzgerald - Newport Jazz Festival - Live At Carnegie Hal\Disc 1\05. Ella Fitzgerald - Smooth Sailing.wav

Peak level 100.0 %
Extraction speed 3.6 X
Track quality 100.0 %
Test CRC 55FF4009
Copy CRC 55FF4009
Accurately ripped (confidence 7) [B681E515] (AR v2)
Copy OK

Track 6

Filename D:\music\Ella Fitzgerald - Newport Jazz Festival - Live At Carnegie Hal\Disc 1\06. Ella Fitzgerald - Eddie Barefield Original.wav

Peak level 100.0 %
Extraction speed 3.8 X
Track quality 100.0 %
Test CRC EFCCA454
Copy CRC EFCCA454
Accurately ripped (confidence 8) [F9C8EC5F] (AR v2)
Copy OK

Track 7

Filename D:\music\Ella Fitzgerald - Newport Jazz Festival - Live At Carnegie Hal\Disc 1\07. Ella Fitzgerald - Let's Get Together.wav

Peak level 100.0 %
Extraction speed 2.5 X
Track quality 99.9 %
Test CRC 45FC4508
Copy CRC 45FC4508
Accurately ripped (confidence 8) [7DA9DAC7] (AR v2)
Copy OK

Track 8

Filename D:\music\Ella Fitzgerald - Newport Jazz Festival - Live At Carnegie Hal\Disc 1\08. Ella Fitzgerald - Announcement by George Wein.wav

Peak level 80.8 %
Extraction speed 2.8 X
Track quality 100.0 %
Test CRC F7E92F29
Copy CRC F7E92F29
Accurately ripped (confidence 7) [8139063F] (AR v2)
Copy OK

Track 9

Filename D:\music\Ella Fitzgerald - Newport Jazz Festival - Live At Carnegie Hal\Disc 1\09. Ella Fitzgerald - You Turned The Tables On Me.wav

Peak level 89.6 %
Extraction speed 4.3 X
Track quality 100.0 %
Test CRC 9469FFDA
Copy CRC 9469FFDA
Accurately ripped (confidence 8) [DA9904EF] (AR v2)
Copy OK

Track 10

Filename D:\music\Ella Fitzgerald - Newport Jazz Festival - Live At Carnegie Hal\Disc 1\10. Ella Fitzgerald - Nice Work If You Can Get It.wav

Peak level 88.9 %
Extraction speed 4.1 X
Track quality 100.0 %
Test CRC 8CABABD5
Copy CRC 8CABABD5
Accurately ripped (confidence 8) [2CD087C0] (AR v2)
Copy OK

Track 11

Filename D:\music\Ella Fitzgerald - Newport Jazz Festival - Live At Carnegie Hal\Disc 1\11. Ella Fitzgerald - I've Got A Crush On You.wav

Peak level 59.1 %
Extraction speed 3.3 X
Track quality 99.9 %
Test CRC 66F148C9
Copy CRC 66F148C9
Accurately ripped (confidence 8) [C2DE4599] (AR v2)
Copy OK

Track 12

Filename D:\music\Ella Fitzgerald - Newport Jazz Festival - Live At Carnegie Hal\Disc 1\12. Ella Fitzgerald - Introduction of Jazz At Carnegie All-Stars by George Wein.wav

Pre-gap length 0:00:02.71

Peak level 76.8 %
Extraction speed 3.9 X
Track quality 100.0 %
Test CRC 2BE642E1
Copy CRC 2BE642E1
Accurately ripped (confidence 8) [31C15767] (AR v2)
Copy OK

Track 13

Filename D:\music\Ella Fitzgerald - Newport Jazz Festival - Live At Carnegie Hal\Disc 1\13. Ella Fitzgerald - Somebody Loves Me.wav

Peak level 100.0 %
Extraction speed 5.2 X
Track quality 100.0 %
Test CRC 9494A36B
Copy CRC 9494A36B
Accurately ripped (confidence 8) [AE7CA392] (AR v2)
Copy OK

Track 14

Filename D:\music\Ella Fitzgerald - Newport Jazz Festival - Live At Carnegie Hal\Disc 1\14. Ella Fitzgerald - Medley- I Can't Get Started; The Young Man With The Horn; 'Round Midnight.wav

Peak level 73.0 %
Extraction speed 5.0 X
Track quality 99.9 %
Test CRC ADC909B3
Copy CRC ADC909B3
Accurately ripped (confidence 8) [C20FB299] (AR v2)
Copy OK

Track 15

Filename D:\music\Ella Fitzgerald - Newport Jazz Festival - Live At Carnegie Hal\Disc 1\15. Ella Fitzgerald - Stardust.wav

Peak level 83.7 %
Extraction speed 5.3 X
Track quality 100.0 %
Test CRC 1D490A12
Copy CRC 1D490A12
Accurately ripped (confidence 8) [1E43693A] (AR v2)
Copy OK

Track 16

Filename D:\music\Ella Fitzgerald - Newport Jazz Festival - Live At Carnegie Hal\Disc 1\16. Ella Fitzgerald - Avalon.wav

Peak level 100.0 %
Extraction speed 5.7 X
Track quality 99.9 %
Test CRC DC65A795
Copy CRC DC65A795
Accurately ripped (confidence 8) [F766E815] (AR v2)
Copy OK


All tracks accurately ripped

No errors occurred

End of status report

–– CUETools DB Plugin V2.1.6

[CTDB TOCID: FlCQ4igdKd.HeM_WmO7QQzVyabE-] found
Submit result: FlCQ4igdKd.HeM_WmO7QQzVyabE- has been confirmed
Track | CTDB Status
1 | (5/5) Accurately ripped
2 | (5/5) Accurately ripped
3 | (5/5) Accurately ripped
4 | (5/5) Accurately ripped
5 | (5/5) Accurately ripped
6 | (5/5) Accurately ripped
7 | (5/5) Accurately ripped
8 | (5/5) Accurately ripped
9 | (5/5) Accurately ripped
10 | (5/5) Accurately ripped
11 | (5/5) Accurately ripped
12 | (5/5) Accurately ripped
13 | (5/5) Accurately ripped
14 | (5/5) Accurately ripped
15 | (5/5) Accurately ripped
16 | (5/5) Accurately ripped


==== Log checksum 8EA031424287A25EC0C36CF0AF48CA42390FBB41542CACAF2A5D77E946D03431 ====

foobar2000 1.2 / Dynamic Range Meter 1.1.1
log date: 2016-03-24 13:07:09

––––––––––––––––––––––––––––––––––––––––
Analyzed: Ella Fitzgerald / Newport Jazz Festival: Live at Carnegie Hall CD1
––––––––––––––––––––––––––––––––––––––––

DR Peak RMS Duration Track
––––––––––––––––––––––––––––––––––––––––
DR12 0.00 dB -16.38 dB 1:04 01-Opening Announcement by Eddie Barefield/Let's Get Together
DR12 0.00 dB -15.21 dB 3:46 02-Stompin' at the Savoy
DR14 0.00 dB -18.44 dB 3:16 03-A-Tisket A-Tasket
DR11 0.00 dB -15.64 dB 5:07 04-Indian Summer
DR10 0.00 dB -13.34 dB 3:38 05-Smooth Sailing
DR11 0.00 dB -14.76 dB 3:31 06-Eddie Barefield Original
DR12 0.00 dB -15.27 dB 2:01 07-Band Introductions/Let's Get Together
DR15 -1.85 dB -24.46 dB 1:04 08-Announcement by George Wein
DR15 -0.95 dB -21.37 dB 4:59 09-You Turned the Tables on Me
DR14 -1.02 dB -20.06 dB 2:59 10-Nice Work If You Can Get It
DR13 -4.56 dB -24.26 dB 2:51 11-I've Got a Crush on You
DR15 -2.29 dB -23.86 dB 1:45 12-Introduction of Jazz at Carnegie All-Stars by George Wein
DR11 0.00 dB -14.46 dB 9:19 13-Somebody Loves Me
DR15 -2.72 dB -23.21 dB 9:03 14-Medley: I Can't Get Started/The Young Man with the Horn/'Round Midnight
DR15 -1.54 dB -22.23 dB 3:56 15-Stardust
DR13 0.00 dB -16.53 dB 13:11 16-Avalon
––––––––––––––––––––––––––––––––––––––––

Number of tracks: 16
Official DR value: DR13

Samplerate: 44100 Hz
Channels: 2
Bits per sample: 16
Bitrate: 823 kbps
Codec: FLAC
================================================================================


Exact Audio Copy V1.1 from 23. June 2015

EAC extraction logfile from 18. March 2016, 19:09

Ella Fitzgerald / Newport Jazz Festival - Live At Carnegie Hall [Disc 2]

Used drive : HL-DT-STDVD+-RW GS30N Adapter: 1 ID: 0

Read mode : Secure
Utilize accurate stream : Yes
Defeat audio cache : Yes
Make use of C2 pointers : No

Read offset correction : 667
Overread into Lead-In and Lead-Out : No
Fill up missing offset samples with silence : Yes
Delete leading and trailing silent blocks : No
Null samples used in CRC calculations : Yes
Used interface : Native Win32 interface for Win NT & 2000
Gap handling : Appended to previous track

Used output format : User Defined Encoder
Selected bitrate : 1024 kBit/s
Quality : High
Add ID3 tag : No
Command line compressor : C:\Program Files (x86)\Exact Audio Copy\FLAC\FLAC.EXE
Additional command line options : -6 -V -T "ARTIST=%artist%" -T "TITLE=%title%" -T "ALBUM=%albumtitle%" -T "DATE=%year%" -T "TRACKNUMBER=%tracknr%" -T "GENRE=%genre%" -T "COMMENT=%comment%" -T "BAND=%albuminterpret%" -T "ALBUMARTIST=%albuminterpret%" -T "COMPOSER=%composer%" %haslyrics%–tag-from-file=LYRICS="%lyricsfile%"%haslyrics% -T "DISCNUMBER=%cdnumber%" -T "TOTALDISCS=%totalcds%" -T "TOTALTRACKS=%numtracks%" %hascover%–picture="%coverfile%"%hascover% %source% -o %dest%


TOC of the extracted CD

Track | Start | Length | Start sector | End sector
––––––––––––––––––––––––––––-
1 | 0:00.00 | 12:32.64 | 0 | 56463
2 | 12:32.64 | 2:26.03 | 56464 | 67416
3 | 14:58.67 | 3:03.68 | 67417 | 81209
4 | 18:02.60 | 4:54.57 | 81210 | 103316
5 | 22:57.42 | 5:40.40 | 103317 | 128856
6 | 28:38.07 | 4:13.10 | 128857 | 147841
7 | 32:51.17 | 5:00.28 | 147842 | 170369
8 | 37:51.45 | 2:10.30 | 170370 | 180149
9 | 40:02.00 | 3:27.72 | 180150 | 195746
10 | 43:29.72 | 4:43.70 | 195747 | 217041
11 | 48:13.67 | 2:08.60 | 217042 | 226701
12 | 50:22.52 | 1:19.33 | 226702 | 232659
13 | 51:42.10 | 4:48.45 | 232660 | 254304
14 | 56:30.55 | 2:13.05 | 254305 | 264284
15 | 58:43.60 | 6:28.45 | 264285 | 293429
16 | 65:12.30 | 4:44.05 | 293430 | 314734
17 | 69:56.35 | 0:43.40 | 314735 | 317999


Track 1

Filename D:\music\Ella Fitzgerald - Newport Jazz Festival - Live At Carnegie Hal\Disc 2\01. Ella Fitzgerald - C Jam Blues.wav

Pre-gap length 0:00:02.00

Peak level 100.0 %
Extraction speed 3.4 X
Track quality 100.0 %
Test CRC F12EF1D6
Copy CRC F12EF1D6
Accurately ripped (confidence 4) [1729ECA9] (AR v2)
Copy OK

Track 2

Filename D:\music\Ella Fitzgerald - Newport Jazz Festival - Live At Carnegie Hal\Disc 2\02. Ella Fitzgerald - Introductions Of Ella Fitzgerald By George Wein And Carmen McRae.wav

Peak level 79.7 %
Extraction speed 3.2 X
Track quality 100.0 %
Test CRC B3EBE22A
Copy CRC B3EBE22A
Accurately ripped (confidence 4) [640C094D] (AR v2)
Copy OK

Track 3

Filename D:\music\Ella Fitzgerald - Newport Jazz Festival - Live At Carnegie Hal\Disc 2\03. Ella Fitzgerald - I've Gotta Be Me.wav

Peak level 93.1 %
Extraction speed 2.8 X
Track quality 99.9 %
Test CRC 07271401
Copy CRC 07271401
Accurately ripped (confidence 4) [B2C3F14B] (AR v2)
Copy OK

Track 4

Filename D:\music\Ella Fitzgerald - Newport Jazz Festival - Live At Carnegie Hal\Disc 2\04. Ella Fitzgerald - Down In The Depths.wav

Peak level 86.0 %
Extraction speed 4.0 X
Track quality 100.0 %
Test CRC 01BF4BD2
Copy CRC 01BF4BD2
Accurately ripped (confidence 4) [75403423] (AR v2)
Copy OK

Track 5

Filename D:\music\Ella Fitzgerald - Newport Jazz Festival - Live At Carnegie Hal\Disc 2\05. Ella Fitzgerald - Good Morning Heartache.wav

Peak level 82.0 %
Extraction speed 4.3 X
Track quality 100.0 %
Test CRC 3638D0AB
Copy CRC 3638D0AB
Accurately ripped (confidence 4) [EAB054AB] (AR v2)
Copy OK

Track 6

Filename D:\music\Ella Fitzgerald - Newport Jazz Festival - Live At Carnegie Hal\Disc 2\06. Ella Fitzgerald - What's Going On.wav

Peak level 99.0 %
Extraction speed 4.5 X
Track quality 100.0 %
Test CRC BE265672
Copy CRC BE265672
Accurately ripped (confidence 4) [1BE0F148] (AR v2)
Copy OK

Track 7

Filename D:\music\Ella Fitzgerald - Newport Jazz Festival - Live At Carnegie Hal\Disc 2\07. Ella Fitzgerald - Miss Otis Regrets (She's Unable To Lunch Today).wav

Peak level 82.7 %
Extraction speed 4.7 X
Track quality 100.0 %
Test CRC 2E50AD82
Copy CRC 2E50AD82
Accurately ripped (confidence 4) [6DFAC8AA] (AR v2)
Copy OK

Track 8

Filename D:\music\Ella Fitzgerald - Newport Jazz Festival - Live At Carnegie Hal\Disc 2\08. Ella Fitzgerald - Don't Worry 'Bout Me.wav

Peak level 32.8 %
Extraction speed 4.2 X
Track quality 100.0 %
Test CRC B721A7D0
Copy CRC B721A7D0
Accurately ripped (confidence 4) [F708CAB4] (AR v2)
Copy OK

Track 9

Filename D:\music\Ella Fitzgerald - Newport Jazz Festival - Live At Carnegie Hal\Disc 2\09. Ella Fitzgerald - These Foolish Things (Remind Me Of You).wav

Peak level 77.4 %
Extraction speed 4.8 X
Track quality 100.0 %
Test CRC BB6EAB59
Copy CRC BB6EAB59
Accurately ripped (confidence 4) [0658C9A2] (AR v2)
Copy OK

Track 10

Filename D:\music\Ella Fitzgerald - Newport Jazz Festival - Live At Carnegie Hal\Disc 2\10. Ella Fitzgerald - Any Old Blues.wav

Peak level 100.0 %
Extraction speed 5.2 X
Track quality 100.0 %
Test CRC 87C93D83
Copy CRC 87C93D83
Accurately ripped (confidence 4) [552227F4] (AR v2)
Copy OK

Track 11

Filename D:\music\Ella Fitzgerald - Newport Jazz Festival - Live At Carnegie Hal\Disc 2\11. Ella Fitzgerald - Taking A Chance On Love.wav

Peak level 96.9 %
Extraction speed 3.4 X
Track quality 99.9 %
Test CRC 195C96F1
Copy CRC 195C96F1
Accurately ripped (confidence 4) [8C03B3EC] (AR v2)
Copy OK

Track 12

Filename D:\music\Ella Fitzgerald - Newport Jazz Festival - Live At Carnegie Hal\Disc 2\12. Ella Fitzgerald - I'm In The Mood For Love.wav

Peak level 100.0 %
Extraction speed 4.1 X
Track quality 100.0 %
Test CRC 7C231A60
Copy CRC 7C231A60
Accurately ripped (confidence 4) [3FA63F4D] (AR v2)
Copy OK

Track 13

Filename D:\music\Ella Fitzgerald - Newport Jazz Festival - Live At Carnegie Hal\Disc 2\13. Ella Fitzgerald - Lemon Drop.wav

Peak level 100.0 %
Extraction speed 5.4 X
Track quality 100.0 %
Test CRC 955836FE
Copy CRC 955836FE
Accurately ripped (confidence 4) [F55B2FD0] (AR v2)
Copy OK

Track 14

Filename D:\music\Ella Fitzgerald - Newport Jazz Festival - Live At Carnegie Hal\Disc 2\14. Ella Fitzgerald - A-Tisket A-Tasket (Excerpt).wav

Peak level 100.0 %
Extraction speed 4.7 X
Track quality 100.0 %
Test CRC B56204C1
Copy CRC B56204C1
Accurately ripped (confidence 4) [B2DAAD6C] (AR v2)
Copy OK

Track 15

Filename D:\music\Ella Fitzgerald - Newport Jazz Festival - Live At Carnegie Hal\Disc 2\15. Ella Fitzgerald - Some Of These Days.wav

Peak level 100.0 %
Extraction speed 5.8 X
Track quality 100.0 %
Test CRC B16DA9AB
Copy CRC B16DA9AB
Accurately ripped (confidence 4) [97DBD48B] (AR v2)
Copy OK

Track 16

Filename D:\music\Ella Fitzgerald - Newport Jazz Festival - Live At Carnegie Hal\Disc 2\16. Ella Fitzgerald - People.wav

Peak level 52.6 %
Extraction speed 5.7 X
Track quality 100.0 %
Test CRC 97CE75BD
Copy CRC 97CE75BD
Accurately ripped (confidence 4) [99382D1C] (AR v2)
Copy OK

Track 17

Filename D:\music\Ella Fitzgerald - Newport Jazz Festival - Live At Carnegie Hal\Disc 2\17. Ella Fitzgerald - A-Tisket A-Tasket (Excerpt).wav

Peak level 98.3 %
Extraction speed 2.1 X
Track quality 99.7 %
Test CRC D225F99C
Copy CRC D225F99C
Accurately ripped (confidence 4) [9BFFB6F0] (AR v2)
Copy OK


All tracks accurately ripped

No errors occurred

End of status report

–– CUETools DB Plugin V2.1.6

[CTDB TOCID: 2wRrb44ad8hF8q269gJPC0VdRhU-] found
Submit result: 2wRrb44ad8hF8q269gJPC0VdRhU- has been confirmed
Track | CTDB Status
1 | (5/5) Accurately ripped
2 | (5/5) Accurately ripped
3 | (5/5) Accurately ripped
4 | (5/5) Accurately ripped
5 | (5/5) Accurately ripped
6 | (5/5) Accurately ripped
7 | (5/5) Accurately ripped
8 | (5/5) Accurately ripped
9 | (5/5) Accurately ripped
10 | (5/5) Accurately ripped
11 | (5/5) Accurately ripped
12 | (5/5) Accurately ripped
13 | (5/5) Accurately ripped
14 | (5/5) Accurately ripped
15 | (5/5) Accurately ripped
16 | (5/5) Accurately ripped
17 | (5/5) Accurately ripped


==== Log checksum 90F492E1E9D3865B464EE286A182DB65BF697757911F268FA44796DEC1EC9420 ====

foobar2000 1.2 / Dynamic Range Meter 1.1.1
log date: 2016-03-24 13:07:28

––––––––––––––––––––––––––––––––––––––––
Analyzed: Ella Fitzgerald / Newport Jazz Festival: Live at Carnegie Hall CD2
––––––––––––––––––––––––––––––––––––––––

DR Peak RMS Duration Track
––––––––––––––––––––––––––––––––––––––––
DR12 0.00 dB -14.73 dB 12:33 01-C Jam Blues
DR13 -1.97 dB -21.29 dB 2:26 02-Introductions of Ella Fitzgerald by George Wein and Carmen McRae
DR13 -0.62 dB -16.24 dB 3:04 03-I've Gotta Be Me
DR12 -1.31 dB -18.79 dB 4:55 04-Down in the Depths
DR12 -1.71 dB -19.23 dB 5:41 05-Good Morning Heartache
DR12 -0.08 dB -14.58 dB 4:13 06-What's Going On
DR14 -1.65 dB -21.08 dB 5:00 07-Miss Otis Regrets (She's Unable to Lunch Today)
DR11 -9.67 dB -25.72 dB 2:10 08-Don't Worry 'Bout Me
DR15 -2.22 dB -23.50 dB 3:28 09-These Foolish Things (Remind Me of You)
DR14 0.00 dB -15.71 dB 4:44 10-Any Old Blues
DR12 -0.27 dB -15.81 dB 2:09 11-Taking a Chance on Love
DR12 0.00 dB -15.44 dB 1:19 12-I'm in the Mood for Love
DR13 0.00 dB -15.33 dB 4:49 13-Lemon Drop
DR14 0.00 dB -18.53 dB 2:13 14-A-Tisket A-Tasket (Excerpt)
DR13 0.00 dB -15.82 dB 6:29 15-Some of These Days
DR14 -5.57 dB -25.19 dB 4:44 16-People
DR13 -0.14 dB -17.24 dB 0:44 17-A-Tisket A-Tasket (Excerpt)
––––––––––––––––––––––––––––––––––––––––

Number of tracks: 17
Official DR value: DR13

Samplerate: 44100 Hz
Channels: 2
Bits per sample: 16
Bitrate: 798 kbps
Codec: FLAC
================================================================================

Ella Fitzgerald - Newport Jazz Festival: Live At Carnegie Hall (1973) 2 CD, Japanese Remastered Reissue 1997

Ella Fitzgerald - Newport Jazz Festival: Live At Carnegie Hall (1973) 2 CD, Japanese Remastered Reissue 1997