Subcategories

Elvis Costello - The Best of Elvis Costello: The First 10 Years (2007) [Re-Up]

Posted By: Designol
Elvis Costello - The Best of Elvis Costello: The First 10 Years (2007) [Re-Up]

Elvis Costello - The Best of Elvis Costello: The First 10 Years (2007)
EAC | FLAC | Image (Cue&Log) ~ 524 Mb | Mp3 (CBR320) ~ 208 Mb | Scans included
Label: Universal Music Group | # 0602517260917 | Time: 01:18:46
Pub Rock, New Wave, Punk, College Rock, Rock & Roll, Pop/Rock

Six years after the commencement of a major Elvis Costello reissue campaign at Rhino, his catalog transferred over to Universal, which had been releasing new Elvis music since 1998's Painted from Memory. Like every one of his previous two big catalog shifts – a campaign with Rykodisc/Demon in 1994, a jump to Rhino in 2001 – the 2007 series is preceded by a new hits collection, this time The Best of Elvis Costello: The First 10 Years, a 22-track collection of highlights that's pretty much exactly what it says it is. It is quite similar to the last previous single-disc collection, the 1994 Ryko/Demon set The Very Best of Elvis Costello and the Attractions, which also ran 22 tracks, 19 of which also appear on The First 10 Years. The three omissions – "Watch Your Step," "New Amsterdam," and "Love Field" – will not be missed by anybody looking for a new Costello comp in 2007, particularly because all three substitutions are better choices for the casual man: "New Lace Sleeves," "Almost Blue," and "(The Angels Wanna Wear My) Red Shoes," which bizarrely wasn't on the 1994 set. With these three songs rubbing shoulders with "Alison," "Watching the Detectives," "Pump It Up," "Oliver's Army," "(What's So Funny 'Bout) Peace, Love & Understanding," and all the other usual suspects, The Best of Elvis Costello: The First 10 Years winds up being the best single-disc summary and introduction to Costello's prime years.

Review by Stephen Thomas Erlewine, Allmusic.com

Elvis Costello - The Best of Elvis Costello: The First 10 Years (2007) [Re-Up]



Tracklist:

01. (The Angels Wanna Wear My) Red Shoes (2:49)
02. Alison (3:24)
03. Watching The Detectives (3:47)
04. (I Don't Want To Go To) Chelsea (3:11)
05. Pump It Up (3:18)
06. Radio, Radio (3:07)
07. Accidents Will Happen (3:01)
08. Oliver's Army (3:00)
09. (What's So Funny 'Bout) Peace, Love & Understanding (3:33)
10. I Can't Stand Up For Falling Down (2:08)
11. High Fidelity (2:29)
12. Clubland (3:45)
13. New Lace Sleeves (3:48)
14. Good Year For The Roses (3:09)
15. Beyond Belief (2:35)
16. Man Out Of Time (5:29)
17. Almost Blue (2:49)
18. Everyday I Write The Book (3:55)
19. Shipbuilding (4:53)
20. Brilliant Mistake (3:45)
21. Indoor Fireworks (4:10)
22. I Want You (6:42)


Exact Audio Copy V0.99 prebeta 5 from 4. May 2009

EAC extraction logfile from 4. July 2015, 16:05

Elvis Costello / The Best of Elvis Costello: The First 10 Years

Used drive : ATAPI iHAS122 C Adapter: 1 ID: 1

Read mode : Secure
Utilize accurate stream : Yes
Defeat audio cache : Yes
Make use of C2 pointers : No

Read offset correction : 6
Overread into Lead-In and Lead-Out : No
Fill up missing offset samples with silence : Yes
Delete leading and trailing silent blocks : No
Null samples used in CRC calculations : Yes
Used interface : Native Win32 interface for Win NT & 2000

Used output format : Internal WAV Routines
Sample format : 44.100 Hz; 16 Bit; Stereo


TOC of the extracted CD

Track | Start | Length | Start sector | End sector
––––––––––––––––––––––––––––-
1 | 0:00.00 | 2:48.54 | 0 | 12653
2 | 2:48.54 | 3:24.00 | 12654 | 27953
3 | 6:12.54 | 3:46.40 | 27954 | 44943
4 | 9:59.19 | 3:11.24 | 44944 | 59292
5 | 13:10.43 | 3:17.56 | 59293 | 74123
6 | 16:28.24 | 3:07.13 | 74124 | 88161
7 | 19:35.37 | 3:01.36 | 88162 | 101772
8 | 22:36.73 | 2:59.49 | 101773 | 115246
9 | 25:36.47 | 3:33.14 | 115247 | 131235
10 | 29:09.61 | 2:08.06 | 131236 | 140841
11 | 31:17.67 | 2:29.07 | 140842 | 152023
12 | 33:46.74 | 3:44.46 | 152024 | 168869
13 | 37:31.45 | 3:48.29 | 168870 | 185998
14 | 41:19.74 | 3:08.46 | 185999 | 200144
15 | 44:28.45 | 2:34.70 | 200145 | 211764
16 | 47:03.40 | 5:28.40 | 211765 | 236404
17 | 52:32.05 | 2:49.24 | 236405 | 249103
18 | 55:21.29 | 3:54.64 | 249104 | 266717
19 | 59:16.18 | 4:53.24 | 266718 | 288716
20 | 64:09.42 | 3:44.61 | 288717 | 305577
21 | 67:54.28 | 4:10.18 | 305578 | 324345
22 | 72:04.46 | 6:41.38 | 324346 | 354458


Range status and errors

Selected range

Filename C:\Users\arthu\Desktop\Elvis Costello - The Best of Elvis Costello The First 10 Years.wav

Peak level 99.8 %
Range quality 100.0 %
Test CRC E46A3934
Copy CRC E46A3934
Copy OK

No errors occurred


AccurateRip summary

Track 1 accurately ripped (confidence 114) [E70E9634]
Track 2 accurately ripped (confidence 116) [E9A97C0D]
Track 3 accurately ripped (confidence 116) [DD36E3F2]
Track 4 accurately ripped (confidence 115) [AA83E180]
Track 5 accurately ripped (confidence 116) [F7BB027F]
Track 6 accurately ripped (confidence 115) [A9847B0C]
Track 7 accurately ripped (confidence 117) [7AFD9153]
Track 8 accurately ripped (confidence 118) [F0B1DBEF]
Track 9 accurately ripped (confidence 119) [AED9C348]
Track 10 accurately ripped (confidence 116) [52158A4B]
Track 11 accurately ripped (confidence 115) [DCEF6B03]
Track 12 accurately ripped (confidence 114) [F75F880F]
Track 13 accurately ripped (confidence 114) [5CAC151A]
Track 14 accurately ripped (confidence 116) [05E93A35]
Track 15 accurately ripped (confidence 114) [972F1E67]
Track 16 accurately ripped (confidence 114) [E2BAF205]
Track 17 accurately ripped (confidence 115) [590EFD85]
Track 18 accurately ripped (confidence 115) [FBA68E6F]
Track 19 accurately ripped (confidence 113) [98136DE2]
Track 20 accurately ripped (confidence 113) [D1F83CCB]
Track 21 accurately ripped (confidence 111) [A9E87E41]
Track 22 accurately ripped (confidence 108) [619E80CD]

All tracks accurately ripped

End of status report

[CUETools log; Date: 13.07.2018 23:08:30; Version: 2.1.4]
[CTDB TOCID: Z7OgFyRCzhi18Ier2VA4n.XImok-] found.
Track | CTDB Status
1 | (357/360) Accurately ripped
2 | (358/360) Accurately ripped
3 | (356/360) Accurately ripped
4 | (357/360) Accurately ripped
5 | (357/360) Accurately ripped
6 | (358/360) Accurately ripped
7 | (357/360) Accurately ripped
8 | (358/360) Accurately ripped
9 | (358/360) Accurately ripped
10 | (358/360) Accurately ripped
11 | (357/360) Accurately ripped
12 | (357/360) Accurately ripped
13 | (357/360) Accurately ripped
14 | (357/360) Accurately ripped
15 | (354/360) Accurately ripped
16 | (356/360) Accurately ripped
17 | (358/360) Accurately ripped
18 | (357/360) Accurately ripped
19 | (355/360) Accurately ripped
20 | (357/360) Accurately ripped
21 | (354/360) Accurately ripped
22 | (354/360) Accurately ripped
[AccurateRip ID: 003912c7-039a00ac-42127616] found.
Track [ CRC | V2 ] Status
01 [e70e9634|b12afd9a] (117+200/349) Accurately ripped
02 [e9a97c0d|b9a4b372] (120+200/352) Accurately ripped
03 [dd36e3f2|8e72fbf5] (119+200/351) Accurately ripped
04 [aa83e180|bdd6e590] (118+200/350) Accurately ripped
05 [f7bb027f|40d674dc] (119+200/351) Accurately ripped
06 [a9847b0c|0f95a1dd] (118+200/350) Accurately ripped
07 [7afd9153|f5cbfa3e] (120+200/352) Accurately ripped
08 [f0b1dbef|97115de2] (121+200/353) Accurately ripped
09 [aed9c348|3e68ec32] (122+200/354) Accurately ripped
10 [52158a4b|dd37ac0e] (119+200/351) Accurately ripped
11 [dcef6b03|5dd9b6e8] (118+200/350) Accurately ripped
12 [f75f880f|26c31db3] (117+200/349) Accurately ripped
13 [5cac151a|b153e0a8] (117+200/349) Accurately ripped
14 [05e93a35|7acf4c94] (119+200/351) Accurately ripped
15 [972f1e67|d37ceeff] (117+200/349) Accurately ripped
16 [e2baf205|fba42e6e] (117+200/354) Accurately ripped
17 [590efd85|b2f9880e] (118+200/350) Accurately ripped
18 [fba68e6f|18ca3c67] (118+200/350) Accurately ripped
19 [98136de2|dc2957ba] (116+200/348) Accurately ripped
20 [d1f83ccb|348eb7a4] (116+200/348) Accurately ripped
21 [a9e87e41|05f7c880] (114+200/346) Accurately ripped
22 [619e80cd|6f46da9d] (111+200/342) Accurately ripped
Offsetted by -1956:
01 [aca87190] (017/349) Accurately ripped
02 [1a5e1c3f] (017/352) Accurately ripped
03 [a55c5270] (017/351) Accurately ripped
04 [338e02e8] (017/350) Accurately ripped
05 [ea022a1f] (017/351) Accurately ripped
06 [93c7946c] (017/350) Accurately ripped
07 [dc5b5187] (017/352) Accurately ripped
08 [c12a2cab] (017/353) Accurately ripped
09 [1c24e012] (017/354) Accurately ripped
10 [5fafb195] (017/351) Accurately ripped
11 [c2861c2f] (017/350) Accurately ripped
12 [ce61373b] (017/349) Accurately ripped
13 [2026b246] (017/349) Accurately ripped
14 [75a2f771] (017/351) Accurately ripped
15 [a36276bf] (017/349) Accurately ripped
16 [e5357cf1] (017/354) Accurately ripped
17 [ec164eb9] (017/350) Accurately ripped
18 [ca211f8f] (017/350) Accurately ripped
19 [1555a906] (017/348) Accurately ripped
20 [e5045a3b] (017/348) Accurately ripped
21 [0297fac9] (017/346) Accurately ripped
22 [2df078d1] (017/342) Accurately ripped
Offsetted by -86:
01 [f29fd25e] (000/349) No match (V2 was not tested)
02 [01656fac] (000/352) No match (V2 was not tested)
03 [c437e9b3] (000/351) No match (V2 was not tested)
04 [00e67c5c] (000/350) No match (V2 was not tested)
05 [8a7f50ef] (000/351) No match (V2 was not tested)
06 [47b6061c] (000/350) No match (V2 was not tested)
07 [43da2a01] (000/352) No match (V2 was not tested)
08 [9fd0cd29] (000/353) No match (V2 was not tested)
09 [8b9a230d] (000/354) No match (V2 was not tested)
10 [0577da04] (000/351) No match (V2 was not tested)
11 [4eafa165] (000/350) No match (V2 was not tested)
12 [c6b74b71] (000/349) No match (V2 was not tested)
13 [0b38cd7c] (000/349) No match (V2 was not tested)
14 [fb612a2f] (000/351) No match (V2 was not tested)
15 [ed93cc2b] (000/349) No match (V2 was not tested)
16 [33b90107] (000/354) No match (V2 was not tested)
17 [acbde7b3] (000/350) No match (V2 was not tested)
18 [b3956f1f] (000/350) No match (V2 was not tested)
19 [82803abc] (000/348) No match (V2 was not tested)
20 [d449454d] (000/348) No match (V2 was not tested)
21 [ecb269e2] (000/346) No match (V2 was not tested)
22 [13a7e4fe] (000/342) No match (V2 was not tested)
Offsetted by -12:
01 [0c645728] (000/349) No match (V2 was not tested)
02 [3bb42405] (000/352) No match (V2 was not tested)
03 [d9b8a41a] (000/351) No match (V2 was not tested)
04 [0fdf08f8] (000/350) No match (V2 was not tested)
05 [47be965f] (000/351) No match (V2 was not tested)
06 [18e4b22c] (000/350) No match (V2 was not tested)
07 [c0b12f8f] (000/352) No match (V2 was not tested)
08 [e568c803] (000/353) No match (V2 was not tested)
09 [44b91066] (000/354) No match (V2 was not tested)
10 [a0b22609] (000/351) No match (V2 was not tested)
11 [f2c2cbe7] (000/350) No match (V2 was not tested)
12 [0865d2f3] (000/349) No match (V2 was not tested)
13 [514e99fe] (000/349) No match (V2 was not tested)
14 [164d4fc9] (000/351) No match (V2 was not tested)
15 [b519722f] (000/349) No match (V2 was not tested)
16 [6519ee29] (000/354) No match (V2 was not tested)
17 [0b6ed6c1] (000/350) No match (V2 was not tested)
18 [eba42acf] (000/350) No match (V2 was not tested)
19 [d00d2b36] (000/348) No match (V2 was not tested)
20 [61cd43ef] (000/348) No match (V2 was not tested)
21 [e13b2c01] (000/346) No match (V2 was not tested)
22 [2e14ca51] (000/342) No match (V2 was not tested)

Track Peak [ CRC32 ] [W/O NULL] [ LOG ]
– 99,8 [E46A3934] [DE6992C2] CRC32
01 99,8 [3DAAB1B4] [45FFC005]
02 91,8 [D05B9D9D] [0F7E58A7]
03 99,8 [0F2267BA] [115FA573]
04 81,7 [A68FFD73] [427F561E]
05 86,5 [E02C2A76] [E4BEC4F4]
06 81,7 [BE56C9C8] [6B9F77DE]
07 96,0 [21CFA0BE] [DA61756B]
08 99,8 [8A8DF424] [23EA8FA5]
09 97,8 [96033570] [F170C1EA]
10 96,0 [1D4A0A75] [0D69F334]
11 96,0 [2AF83E2A] [49B91896]
12 97,1 [A09822BD] [67C4A1BC]
13 93,8 [C2879671] [061B567C]
14 94,7 [880FEFF9] [CFC1B458]
15 91,7 [61DC9BF1] [FE7ADEA2]
16 97,1 [E2F711AF] [F482E985]
17 97,1 [DFEF3A3C] [1B088363]
18 97,1 [650FDD5F] [E3C4A1FF]
19 99,8 [038F56B8] [9E9B12D2]
20 86,9 [D68A6413] [2E3DD01C]
21 83,7 [653D7023] [9FD358F2]
22 85,8 [982DE69D] [13AA17CD]

foobar2000 1.2 / Dynamic Range Meter 1.1.1
log date: 2018-07-13 23:09:22

––––––––––––––––––––––––––––––––––––––––
Analyzed: Elvis Costello / The Best Of Elvis Costello: The First 10 Years
––––––––––––––––––––––––––––––––––––––––

DR Peak RMS Duration Track
––––––––––––––––––––––––––––––––––––––––
DR11 -0.01 dB -13.38 dB 2:49 01-(The Angels Wanna Wear My) Red Shoes
DR11 -0.74 dB -14.87 dB 3:24 02-Alison
DR12 -0.01 dB -14.18 dB 3:47 03-Watching The Detectives
DR8 -1.75 dB -11.16 dB 3:11 04-(I Don't Want To Go To) Chelsea
DR7 -1.25 dB -9.56 dB 3:18 05-Pump It Up
DR7 -1.75 dB -11.15 dB 3:07 06-Radio, Radio
DR9 -0.35 dB -11.74 dB 3:01 07-Accidents Will Happen
DR9 -0.01 dB -10.92 dB 3:00 08-Oliver's Army
DR9 -0.19 dB -10.13 dB 3:33 09-(What's So Funny 'Bout) Peace, Love & Understanding
DR9 -0.35 dB -10.55 dB 2:08 10-I Can't Stand Up For Falling Down
DR9 -0.35 dB -10.58 dB 2:29 11-High Fidelity
DR9 -0.25 dB -11.45 dB 3:45 12-Clubland
DR10 -0.55 dB -13.48 dB 3:48 13-New Lace Sleeves
DR9 -0.47 dB -12.87 dB 3:09 14-Good Year For The Roses
DR10 -0.75 dB -12.20 dB 2:35 15-Beyond Belief
DR11 -0.25 dB -12.26 dB 5:29 16-Man Out Of Time
DR11 -0.25 dB -14.72 dB 2:49 17-Almost Blue
DR11 -0.25 dB -13.35 dB 3:55 18-Everyday I Write The Book
DR12 -0.01 dB -14.88 dB 4:53 19-Shipbuilding
DR9 -1.21 dB -11.85 dB 3:45 20-Brilliant Mistake
DR11 -1.54 dB -15.89 dB 4:10 21-Indoor Fireworks
DR13 -1.32 dB -18.82 dB 6:42 22-I Want You
––––––––––––––––––––––––––––––––––––––––

Number of tracks: 22
Official DR value: DR10

Samplerate: 44100 Hz
Channels: 2
Bits per sample: 16
Bitrate: 882 kbps
Codec: FLAC
================================================================================

Elvis Costello - The Best of Elvis Costello: The First 10 Years (2007) [Re-Up]

Elvis Costello - The Best of Elvis Costello: The First 10 Years (2007) [Re-Up]