Tags
Language
Tags
April 2024
Su Mo Tu We Th Fr Sa
31 1 2 3 4 5 6
7 8 9 10 11 12 13
14 15 16 17 18 19 20
21 22 23 24 25 26 27
28 29 30 1 2 3 4

Ennio Morricone - Musiques De Films = Colonne Sonore = Original Soundtracks 1964–2015 Vol. II (2022)

Posted By: Rtax
Ennio Morricone - Musiques De Films = Colonne Sonore = Original Soundtracks 1964–2015 Vol. II (2022)

Ennio Morricone - Musiques De Films = Colonne Sonore = Original Soundtracks 1964–2015 Vol. II (2022)
EAC Rip | FLAC (tracks, cue, log) - 5.7 GB | MP3 CBR 320 kbps - 2.6 GB
16:50:32 | Soundtrack | Label: Label Panthéon / Decca / Universal Music France

Limited 14 CD box set. Ennio Morricone's film scores from 1964-2015, vol. II includes 14 CDs, 16 hours of music, 310 tracks, a 48 page booklet and a preface by Clint Eastwood. In 2019, with an 18-CD box set, the Ecoutez le cinéma! Published the most ambitious record project ever dedicated to Ennio Morricone. Three years later, here is the second volume, designed on the same principle: a selection divided into 14 thematic CDs (western, French cinema, war stories, comedy, American cinema, television series, etc.). The program is balanced between classics, rarities, absolute unpublished, original soundtracks never reissued and a complete CD around songs and covers (Kyle Eastwood, Demis Roussos, Andrea Bocelli), including a rereading original of 'Once Upon a Time Revolution' by Chassol as well as 'Love Affair' by Christian Gaubert.

Tracklist
WESTERN I 1964-72
Le Pistole Non Discutono / Mon Colt Fait La Loi
1-1 Le Pistole Non Discutono 2:34
1-2 Gli Indiani 2:14
1-3 Lonesome Billy
Performer – Peter Tevis
1:53
Una Pistola Per Ringo / Un Pistolet Pour Ringo
1-4 A Pistol For Ringo 2:20
1-5 Heroic Mexico 1:34
1-6 The Slaughter 1:59
Il Ritorno Di Ringo / Le Retour De Ringo
1-7 The Return Of Ringo
Performer – Maurizio Graf
2:17
1-8 The Disguise 2:25
1-9 The Wedding And The Revenge 1:29
1-10 The Peace Comes Back In Mimbres 2:24
La Resa Dei Conti / The Big Gundown / Colorado
1-11 Run Man Run (Titoli Di Testa)
Performer – Christy (2)
2:51
1-12 La Corrida 1:52
1-13 Primo Deserto 2:31
1-14 La Resa Dei Conti (Seconda Caccia) 2:24
Faccia A Faccia / Le Dernier Face À Face
1-15 Faccia A Faccia 3:14
1-16 Faccia A Faccia (Intermezzo) 2:46
Il Grande Silenzio / Le Grand Silence
1-17 Il Grande Silenzio 2:30
1-18 Passaggi Nel Tempo 2:27
1-19 E L'Amore Verrà 2:00
1-20 Barbara E Tagliente 2:04
1-21 Voci Del Deserto 2:42
1-22 Invito All'Amore 4:04
La Vita, A Volte, È Molto Dura, Vero Provvidenza? / On M'Appelle Providence
1-23 La Vita, A Volte, È Molto Dura, Vero Provvidenza? (Seq. 1) 4:38
1-24 La Vita, A Volte, È Molto Dura, Vero Provvidenza? (Seq. 5) 1:28
Sonny And Jed / La Banda J. & S. - Cronaca Criminale Del Far West / Far West Story
1-25 Sonny 5:22
1-26 Sweet Susan 5:22
1-27 Wanted Dead Or Alive 3:42
WESTERN II 1973-81
Il Mio Nome È Nessuno / Mon Nom Est Personne
2-1 Il Mio Nome È Nessuno 3:11
2-2 Buona Fortuna Jack 5:07
2-3 Mucchio Selvaggio 2:41
2-4 Se Sei Qualcuno È Colpa Mia 4:46
2-5 Con I Migliori Auguri 2:05
2-6 Uno Strano Barbiere 6:57
2-7 Più Delle Valchirie 2:20
2-8 Una Insolita Attesa 2:04
2-9 La Favola Dell'Uccellino 1:47
2-10 Balletto Degli Specchi 1:32
2-11 Il Mio Nome È Nessuno 1:34
Un Genio, Due Compari, Un Pollo / Un Genie, Deux Associés, Une Cloche
2-12 Un Genio, Due Compari, Un Pollo 3:52
2-13 Il Pollo 3:17
2-14 Pepper Chewing-Gum 2:42
2-15 Cavalcata… Per Elisa 3:16
2-16 Un Bacio Asfissiante 1:12
2-17 Suspence Per Joe 2:10
2-18 Quando Arriva L'Amore 3:37
2-19 Ansia Dell'Oro 2:30
2-20 Glory, Glory, Glory 2:47
2-21 Partita A Poker 1:16
2-22 Dolore E Gioia 1:27
2-23 La Miccia 1:19
2-24 Questa Pazza Pazza Corsa 2:39
Occhio Alla Penna / On M'Appelle Malabar
2-25 Estasi Del Miracolo 2:55
2-26 Occhio Alla Penna 2:21
VISAGES DU CINÉMA ITALIEN / VOLTI DEL CINEMA ITALIANO / FACES OF ITALIAN CINEMA 1966-74
La Califfa
3-1 La Califfa 2:39
3-2 Le Donne Al Fiume 1:10
3-3 Finale 2:19
Svegliati E Uccidi / Lutring… Réveille-Toi Et Meurs
3-4 Svegliati E Uccidi 2:31
La Cugina / La Cousine
3-5 La Sera, La Notte, Il Giorno 4:10
3-6 De Copalamo 3:24
I Pugni In Tasca / Les Poings Dans Les Poches
3-7 I Pugni In Tasca 3:33
3-8 Subdolo 2:17
Escalation
3-9 Escalation 3:06
Cosa Avete Fatto A Solange? / Mais… Qu'Avez-Vous Fait À Solange?
3-10 Cosa Avete Fatto A Solange? 2:39
3-11 Una Tromba E La Sua Notte 2:59
Il Giro Del Mondo Degli Innamorati Di Peynet / Le Tour Du Monde Des Amoureux De Peynet
3-12 Forse Basta 3:45
Metello
3-13 Metello (Tema Titoli) 2:47
3-14 Tema Sciopero (Solenne Triste) 2:09
H2S
3-15 H2S 4:24
La Proprietà Non È Più Un Furto / La Propriété, C'Est Plus Le Voi
3-16 Colpo 2:55
La Tarantola Dal Ventre Nero / La Tarentule Au Ventre Noir
3-17 Un Uomo Si È Dimesso 3:04
Uccellacci E Uccellini / Des Oiseaux Petits Et Gros
3-18 Uccellacci E Uccellini
Performer – Domenico Modugno
2:29
3-19 San Francesco Parla Agli Uccelli 1:32
Teorema / Théorème
3-20 Frammenti 2:32
3-21 L'Ultima Corrida 2:43
Il Fiore Delle Mille E Una Notte / Les Milles Et Une Nuits
3-22 Tema Di Dunja 2:43
3-23 Tema Di Aziza 2:37
Maddalena
3-24 Come Maddalena 9:12
CINÉMA FRANÇAIS I / CINEMA FRANCESE I / FRENCH CINEMA I 1969-1979
Le Clan Des Siciliens / Il Clan Dei Siciliani / The Sicilian Clan
4-1 Dialogo No.2 3:22
Sans Mobile Apparent / Senza Movente
4-2 Sans Mobile Apparent 4:24
4-3 Ricerca 2:13
4-4 Sans Mobile Apparent (#3) 2:03
Le Secret / Il Segreto
4-5 Le Secret (Il Segreto) 4:55
4-6 De La Mer (Dal Mare) 3:38
L'Attentat / L'Attentato
4-7 Midi À Saint-Germain-Des-Prés (Ore 12 Saint-Germain-Des-Prés) 3:55
4-8 Valse À L'Ambassade (Valzer All'Ambasciata) 3:26
4-9 Trahison Politique (Tradimento Politico) 5:32
Le Trio Infernal / Trio Infernale
4-10 Deuxième Danse Nuptiale (Rag Nuziale, Secondo Matrimonio) 3:26
4-11 Le Trio Infernal (Trio Infernale) 6:02
4-12 Acide Et Charme (Acido E Charme) 3:48
4-13 Requiem À L'Acide Sulfurique (Requiem All'Acido Solforico) 5:24
René La Canne / Tre Simpatiche Carogne
4-14 René La Canne 3:01
4-15 Vachement Douce Et Doucement Vache (Acidamente Dolce) 3:44
4-16 La Comédie Du Vuleur (Furto-Commedia) 1:45
4-17 Passeport Pour Le Plaisir (Passaporto Per L'Allegria) 4:00
La Banquière / La Banchiera
4-18 Dédicace 3:37
4-19 La Banquière (Valse #1) 3:14
4-20 Les Jeux De L'Amour 2:40
CINÉMA FRANÇAIS II / CINEMA FRANCESE II / FRENCH CINEMA II 1978-2015
Espion Lève-Toi / Alzati Spia
5-1 Marche En La 3:03
5-2 Bugle Pour Anna (La Rencontre) 2:24
5-3 Tèlèphone Sans Rèponse 1:22
5-4 Marche En La 2:26
5-5 Mélodie Pour Anna 2:47
One, Two, Two: 122, Rue De Provence
5-6 One Two Two 4:26
5-7 Première Expérience 1:38
5-8 Photo Indiscrète 2:03
5-9 122, Rue De Provence 2:34
5-10 Encore Loin 4:14
Le Ruffian / Una Cascata Tutta D'Oro
5-11 Viaggio In Quattro (Ripresa Seconda) 3:34
5-12 Sporco Ma Distinto 1:59
5-13 Amici Come Pochi 2:41
5-14 Viaggio In Quattro 1:58
5-15 Riccardo Rosa 2:59
5-16 Western? 3:43
Les Voleurs De La Nuit / Thieves After Dark
5-17 Thieves After Dark 4:46
5-18 Unconscious Happiness 1:46
5-19 Theme Of Young Lovers 3:47
En Mai, Fais Ce Qu'Il Te Plait / Accada Quel Che Accada
5-20 En Mai 8:56
5-21 Tous Ensemble 2:38
5-22 A La Recherce De La Paix 6:28
COMÉDIE / COMMEDIA / COMEDY 1965-2003
Metti, Una Sera A Cena / Disons Un Soir À Dîner
6-1 Metti, Una Sera A Cena (Uncut Version) 4:53
6-2 Croce D'Amore 2:29
6-3 Uno Che Grida Amore 4:31
6-4 Ti Prego Amami 2:19
Menage All'Italiana / Ménage À L'Italienne
6-5 Menage All'Italiana (In Fondo Ai Miei Occhi) 1:41
6-6 Matrimonio Felice 2:06
Quando Le Donne Avevano La Coda / Quand Les Femmes Avaient Une Queue
6-7 Quando Le Donne Avevano La Coda 2:49
6-8 Nascita Di Filly 1:45
6-9 Can Can Delle «Filly» 5:37
Anche Se Volessi Lavorare, Che Faccio?
6-10 Anche Se Volessi… (Titoli) 2:58
6-11 Tramonto 2:03
La Cage Aux Folles / Il Vizietto
6-12 Il Vizietto 3:13
6-13 L'Onorevole Famiglia 1:06
6-14 Una Strana Coppia 2:32
6-15 Dopo La Scenata 3:08
Il Ladrone / Le Larron
6-16 Il Ladrone 3:59
6-17 Debora 4:02
6-18 Pensiero Del Ladrone (#2) 2:56
6-19 I Poveri E La Terra 3:54
Dove Vai In Vacanza? / Où Es-Tu Allé En Vacances?
6-20 Laringomania 3:32
Al Cuore Si Comanda
6-21 Sulla Gru 2:04
6-22 Tante Amiche Del Cuore 2:20
6-23 Amore In Salvo 4:15
COLLABORATIONS UNIQUES I / COLLABORAZIONI UNICHE I / ONCE UPON A FILM I 1977-89
Days Of Heaven / Les Moissons Du Ciel
7-1 Heaven 3:00
7-2 Threshing 2:05
7-3 The Farmer And The Girl 1:56
7-4 Pursuit Theme 1:26
7-5 Happiness 2:15
7-6 Empty House 1:25
7-7 Days Of Heaven 3:24
Exorcist II: The Heretic / L'Exorciste II: L'Hérétique
7-8 Regan's Theme 2:58
7-9 Pazuzu (Theme From Exorcist II) 2:53
7-10 Interrupted Melody (Suspended Sound) 2:46
7-11 Little Afro-Flemish Mass 4:33
7-12 Magic And Ecstasy 3:03
7-13 Regan's Theme (Floating Sound) 2:11
¡Átame! / Attache-Moi!
7-14 ¡Átame! 2:45
7-15 El Castillo Encantado 3:11
7-16 Noche Urbana 5:43
7-17 Déjame Sola 3:45
7-18 El Pueblo Deshabitado 2:12
7-19 ¡Átame! 3:02
Rampage / Le Sang Du Châtiment
7-20 Rampage 4:17
7-21 Run, Run, Run 2:35
7-22 Magma 2:20
7-23 Mother 2:01
7-24 Rampage 4:02
COLLABORATIONS UNIQUES II / COLLABORAZIONI UNICHE II / ONCE UPON A FILM II 1987-97
Hamlet
8-1 Hamlet 2:43
8-2 The King Is Dead 4:46
8-3 Banquet 1:42
8-4 Ophelia (Version 2) 3:07
Frantic
8-5 Frantic 6:07
8-6 On The Roofs Of Paris 6:06
8-7 In The Garage 4:16
8-8 One Flugelhorn 3:22
8-9 Frantic 4:11
Lolita
8-10 Lolita 2:24
8-11 Love In The Morning 3:39
8-12 Requiescant 2:14
8-13 Quilty 4:18
8-14 Lolita (Finale) 4:13
U Turn
8-15 Grace 4:39
8-16 U Turn 2:22
8-17 A Banjo In The Desert 2:49
8-18 End Of Sheriff 4:37
8-19 Old Family Souvenirs 3:53
CINÉMA AMÉRICAIN / CINEMA AMERICANO / AMERICAN CINEMA 1979-2000
In The Line Of Fire / Dans La Ligne De Mire
9-1 In The Line Of Fire 2:21
9-2 Lilly And Frank 4:00
9-3 Frank 1:35
9-4 Taking The Bullet 2:39
White Dog / Dressé Pour Tuer
9-5 Protected Attack 2:22
9-6 Saving Cops 1:10
9-7 Attack (#2) 0:56
9-8 Death Of A Dog / End Credits 4:58
Bloodline / Liés Par Le Sang
9-9 Pills On Parade 3:27
9-10 Resolution / End Title 3:47
The Big Man (Crossing The Line)
9-11 Main Titles 3:28
9-12 Road Training 1 2:20
9-13 Round Six 3:39
9-14 End Titles 3:31
Disclosure / Harcèlement
9-15 Serene Family 4:11
9-16 With Energy And Decision 2:06
9-17 Sex, Power And Computers 2:33
9-18 Preparation And Victory 4:05
Bugsy
9-19 For Her, For Him 4:51
9-20 The Die Is Cast 3:26
Mission To Mars
9-21 A Heart Beats In The Space 7:56
9-22 Where? 5:32
HORIZONS LOINTAINS / ORIZZONTI LONTANI / LOST HORIZONS 1971-99
Cacciatori Di Navi / Only One Survived
10-1 Ship Hunters 7:25
10-2 Depths 3:26
10-3 Pororoca 7:31
Oceano
10-4 Oceano 4:06
10-5 Le Maschere Morte 2:45
10-6 Tanai 2:20
10-7 Piccola Ouverture 1:50
10-8 Partenza 2:19
Nostromo
10-9 The Tropical Variation 3:21
10-10 Nostromo 4:27
10-11 Sulaco's Band 2:47
10-12 The Silver Of The Mine 5:46
10-13 Silver Convoy 2:23
I Guardiani Del Cielo / La Tour Secrète / The Sands Of Time
10-14 And Will You Love Me
Performer – Antonella Ruggiero
4:27
10-15 Inseguire Nel Vento 3:04
10-16 Un'Avventura Romantica 3:43
10-17 Sopra Di Noi 3:51
10-18 Un Equivoco 3:33
10-19 I Guardiani Del Cielo 4:25
SÉRIES TÉLÉVISÉES / SERIE TELEVISIVE / TELEVISION SERIES 1974-87
Mosé / Moses The Lawgiver / Moïse
11-1 Tema Di Mosé (Titoli Di Testa) 4:06
11-2 Esodo Primo 3:11
11-3 Battaglia E Mar Rosso 6:34
11-4 Lamentazione Prima 5:58
11-5 Israel 5:02
11-6 Tema Di Mosé (Viaggio) 4:27
11-7 Esodo Secondo 3:08
11-8 Le Quaglie 2:31
11-9 Tema Di Mosé (Titoli Di Coda) 4:08
Il Segreto Del Sahara / The Secret Of The Sahara / Le Secret Du Sahara
11-10 Secret Of The Sahara 4:29
11-11 Red Ghosts 4:29
11-12 The Hawk 3:05
11-13 Kerim 2:55
11-14 Dance Of The Snakes 3:45
11-15 Saharan Dream
Performer – Amii Stewart
3:10
11-16 Meeting Orso 1:48
11-17 The Myth And The Adventure 4:29
11-18 Dance Of The Chess Game 2:34
11-19 Secret Of The Sahara 4:28
PRODUCTIONS INTERNATIONALES / PRODUZIONI INTERNAZIONALI / INTERNATIONAL PRODUCTIONS 1967-98
Ad Ogni Costo / Grand Slam / Le Carnaval Des Truands
12-1 Punto E Basta (Titoli Di Testa) 2:57
12-2 Dirgli Solo No (#2) 2:35
12-3 Ad Ogni Costo 2:44
12-4 Vai Via Malinconia (#2) 1:39
12-5 In Chiesa 2:29
12-6 Dirgli Solo No 2:13
12-7 Vai Via Malinconia (#4) 2:33
The Red Tent / La Tente Rouge / La Tenda Rossa
12-8 Love Theme From "The Red Tent" 3:34
12-9 Do Dreams Go On 2:32
12-10 Death At The Pole 4:14
12-11 A Love Like The Snow 2:16
12-12 Message From Rome 1:42
12-13 They're Alive 1:42
12-14 Farewell 2:56
Burn! / Queimada
12-15 Aboliçao 5:08
12-16 Queimada Prima 1:30
12-17 Verso Il Futuro (Primo) 4:38
12-18 Queimada Seconda 4:08
12-19 Jose Dolores 1:29
12-20 Osanna 4:22
Holocaust 2000 / The Chosen
12-21 Holocaust 2:32
12-22 Ritorno Di Suoni 1:17
12-23 Jesus 3:00
La Leggenda Del Pianista Sull'Oceano / The Legend Of 1900 / La Légende Du Pianiste Sur L'Océan
12-24 The Legend Of 1900 8:06
RÉCITS DE GUERRE / STORIE DI GUERRA / WAR STORIES 1970-89
The Scarlet And The Black / Scarlatto E Nero / Le Pourpre Et Le Noir
13-1 The Scarlet And The Black 3:43
13-2 Memories Of Rome 1:46
13-3 Vatican Story 2:36
13-4 The Disquises 2:40
13-5 The Prisoners 2:43
13-6 In Saint-Peters 1:47
13-7 Francesca's Departure 1:38
13-8 The Execution Of Morosini 1:33
13-9 A War Of Nerves 2:25
13-10 Christmas 1942 1:28
13-11 Attacks On The Underground 4:42
13-12 Finale 3:56
Gott Mit Uns / A L'Aube Du Cinquième Jour
13-13 All'Erta 2:15
13-14 Percussioni E Marcia 2:03
13-15 Lontano 3:52
L'Agnese Va A Morire
13-16 L'Agnese Va A Morire 3:14
13-17 Ostinazione E Impegno 5:00
13-18 Un Breve Canto, Un Lungo Grido 1:27
Casualties Of War / Outrages
13-19 The Death Of Oahn 2:31
13-20 Casualties Of War 9:26
A Time Of Destiny / Le Temps Du Destin
13-21 Rifac; The Storm II 2:09
13-22 Love And Dreams 2:28
13-23 Dies Irae-The Bell Tower 3:31
13-24 Forgiveness 3:24
CHANSONS, REPRISES ET ARRANGEMENTS / CANZONI, ARRANGIAMENTI E COVER / SONGS, ARRANGEMENTS AND COVERS 1962-2020
14-1 I Figli Morti
Performer – Chassol
5:13
14-2 The Ballad Of Sacco And Vanzetti
Performer – Scott Walker
3:31
14-3 Love Affair
Performer – Christian Gaubert
4:21
14-4 Roda Viva
Performer – Chico Buarque
3:50
14-5 Cinéma Paradiso
Performer – Kyle Eastwood
3:51
14-6 Le Clan Des Siciliens
Performer – Danielle Licari
2:59
14-7 The Edge Of Love
Performer – Hayley Westenra
3:44
14-8 A Flower's All You Need
Performer – Demis Roussos
5:18
14-9 Chett's Lullaby
Performer – Chet Baker
3:58
14-10 Il Buono, Il Brutto, Il Cattivo
Performer – Swingin' Affair
4:22
14-11 Devo Imparare
Performer – Dalida
3:13
14-12 Flora
Performer – Nicky Nicolai, Stefano Di Battista
3:16
14-13 Le Casse
Performer – Jean-Marc Montaut Quartet
4:34
14-14 I Gelsomini
Performer – Carel Kraayenhof
4:09
14-15 Voyage De Noce
Performer – Herbert Pagani
3:52
14-16 Inno Sussurrato
Performer – Andrea Bocelli
4:36
Exact Audio Copy V1.6 from 23. October 2020

EAC extraction logfile from 5. June 2022, 14:03

Ennio Morricone / Original Soundtracks 1964-2015, VOL.II (DISC 01) - Western I

Used drive : ASUS BW-16D1HT Adapter: 1 ID: 1

Read mode : Secure
Utilize accurate stream : Yes
Defeat audio cache : Yes
Make use of C2 pointers : No

Read offset correction : 6
Overread into Lead-In and Lead-Out : No
Fill up missing offset samples with silence : Yes
Delete leading and trailing silent blocks : No
Null samples used in CRC calculations : Yes
Used interface : Native Win32 interface for Win NT & 2000
Gap handling : Appended to previous track

Used output format : User Defined Encoder
Selected bitrate : 1024 kBit/s
Quality : High
Add ID3 tag : No
Command line compressor : C:\Program Files (x86)\Exact Audio Copy\Flac\flac.exe
Additional command line options : -8 -V -T "ARTIST=%artist%" -T "TITLE=%title%" -T "ALBUM=%albumtitle%" -T "DATE=%year%" -T "TRACKNUMBER=%tracknr%" -T "GENRE=%genre%" -T "PERFORMER=%albuminterpret%" -T "COMPOSER=%composer%" -T "ALBUMARTIST=%albumartist%" -T "DISCNUMBER=%cdnumber%" -T "TOTALDISCS=%totalcds%" -T "TOTALTRACKS=%numtracks%" -T "COMMENT=%comment%" %source% -o %dest%


TOC of the extracted CD

Track | Start | Length | Start sector | End sector
––––––––––––––––––––––––––––-
1 | 0:00.00 | 2:34.14 | 0 | 11563
2 | 2:34.14 | 2:14.07 | 11564 | 21620
3 | 4:48.21 | 1:53.59 | 21621 | 30154
4 | 6:42.05 | 2:20.22 | 30155 | 40676
5 | 9:02.27 | 1:34.32 | 40677 | 47758
6 | 10:36.59 | 1:59.65 | 47759 | 56748
7 | 12:36.49 | 2:17.49 | 56749 | 67072
8 | 14:54.23 | 2:25.74 | 67073 | 78021
9 | 17:20.22 | 1:29.40 | 78022 | 84736
10 | 18:49.62 | 2:24.71 | 84737 | 95607
11 | 21:14.58 | 2:51.60 | 95608 | 108492
12 | 24:06.43 | 1:52.46 | 108493 | 116938
13 | 25:59.14 | 2:31.57 | 116939 | 128320
14 | 28:30.71 | 2:24.73 | 128321 | 139193
15 | 30:55.69 | 3:14.07 | 139194 | 153750
16 | 34:10.01 | 2:46.68 | 153751 | 166268
17 | 36:56.69 | 2:30.31 | 166269 | 177549
18 | 39:27.25 | 2:27.25 | 177550 | 188599
19 | 41:54.50 | 2:00.72 | 188600 | 197671
20 | 43:55.47 | 2:04.27 | 197672 | 206998
21 | 45:59.74 | 2:42.26 | 206999 | 219174
22 | 48:42.25 | 4:04.08 | 219175 | 237482
23 | 52:46.33 | 4:38.48 | 237483 | 258380
24 | 57:25.06 | 1:28.25 | 258381 | 265005
25 | 58:53.31 | 5:22.22 | 265006 | 289177
26 | 64:15.53 | 5:22.73 | 289178 | 313400
27 | 69:38.51 | 3:42.58 | 313401 | 330108


Track 1

Filename F:\Extract\Ennio Morricone - Original Soundtracks 1964-2015 VOL.II (2022) [FLAC] {UMF5394965}\CD01\01 - Ennio Morricone - Le Pistole Non Discutono- Le Pistole Non Discutono.wav

Pre-gap length 0:00:02.00

Peak level 97.7 %
Extraction speed 4.4 X
Track quality 100.0 %
Test CRC 8D2A20E7
Copy CRC 8D2A20E7
Accurately ripped (confidence 3) [DAC01B24] (AR v2)
Copy OK

Track 2

Filename F:\Extract\Ennio Morricone - Original Soundtracks 1964-2015 VOL.II (2022) [FLAC] {UMF5394965}\CD01\02 - Ennio Morricone - Le Pistole Non Discutono- Gli Indiani.wav

Peak level 97.7 %
Extraction speed 3.4 X
Track quality 99.9 %
Test CRC FA293275
Copy CRC FA293275
Accurately ripped (confidence 3) [85206E11] (AR v2)
Copy OK

Track 3

Filename F:\Extract\Ennio Morricone - Original Soundtracks 1964-2015 VOL.II (2022) [FLAC] {UMF5394965}\CD01\03 - Ennio Morricone & Peter Tevis (Performed By Peter Tevis) - LePistole Non Discutono- Lonesome Billy.wav

Peak level 97.7 %
Extraction speed 4.6 X
Track quality 100.0 %
Test CRC C589D7FD
Copy CRC C589D7FD
Accurately ripped (confidence 3) [D17E0FF9] (AR v2)
Copy OK

Track 4

Filename F:\Extract\Ennio Morricone - Original Soundtracks 1964-2015 VOL.II (2022) [FLAC] {UMF5394965}\CD01\04 - Ennio Morricone - Una Pistola Per Ringo- A Pistol For Ringo.wav

Peak level 97.7 %
Extraction speed 5.0 X
Track quality 100.0 %
Test CRC 76687893
Copy CRC 76687893
Accurately ripped (confidence 3) [D82C85DD] (AR v2)
Copy OK

Track 5

Filename F:\Extract\Ennio Morricone - Original Soundtracks 1964-2015 VOL.II (2022) [FLAC] {UMF5394965}\CD01\05 - Ennio Morricone - Una Pistola Per Ringo- Heroic Mexico.wav

Pre-gap length 0:00:00.01

Peak level 97.7 %
Extraction speed 4.7 X
Track quality 100.0 %
Test CRC 4D468AB6
Copy CRC 4D468AB6
Accurately ripped (confidence 3) [7C65C8EA] (AR v2)
Copy OK

Track 6

Filename F:\Extract\Ennio Morricone - Original Soundtracks 1964-2015 VOL.II (2022) [FLAC] {UMF5394965}\CD01\06 - Ennio Morricone - Una Pistola Per Ringo- The Slaughter.wav

Peak level 97.7 %
Extraction speed 3.8 X
Track quality 99.9 %
Test CRC 9A246D41
Copy CRC 9A246D41
Accurately ripped (confidence 3) [C3F04DD8] (AR v2)
Copy OK

Track 7

Filename F:\Extract\Ennio Morricone - Original Soundtracks 1964-2015 VOL.II (2022) [FLAC] {UMF5394965}\CD01\07 - Ennio Morricone & Maurizio Attanasio (Performed By Maurizio Graf) - Il Ritorno Di Ringo- The Return Of Ringo.wav

Peak level 97.7 %
Extraction speed 5.6 X
Track quality 100.0 %
Test CRC 72C3D91F
Copy CRC 72C3D91F
Accurately ripped (confidence 3) [971AA109] (AR v2)
Copy OK

Track 8

Filename F:\Extract\Ennio Morricone - Original Soundtracks 1964-2015 VOL.II (2022) [FLAC] {UMF5394965}\CD01\08 - Ennio Morricone - Il Ritorno Di Ringo- The Disguise.wav

Peak level 97.7 %
Extraction speed 5.8 X
Track quality 100.0 %
Test CRC 2C65CF73
Copy CRC 2C65CF73
Accurately ripped (confidence 3) [76AA47AC] (AR v2)
Copy OK

Track 9

Filename F:\Extract\Ennio Morricone - Original Soundtracks 1964-2015 VOL.II (2022) [FLAC] {UMF5394965}\CD01\09 - Ennio Morricone - Il Ritorno Di Ringo- The Wedding And The Revenge.wav

Peak level 97.7 %
Extraction speed 5.3 X
Track quality 100.0 %
Test CRC 5CC0994E
Copy CRC 5CC0994E
Accurately ripped (confidence 3) [D1FE557A] (AR v2)
Copy OK

Track 10

Filename F:\Extract\Ennio Morricone - Original Soundtracks 1964-2015 VOL.II (2022) [FLAC] {UMF5394965}\CD01\10 - Ennio Morricone - Il Ritorno Di Ringo- The Peace Comes Back InNimbres.wav

Peak level 97.7 %
Extraction speed 6.1 X
Track quality 100.0 %
Test CRC 97C102F8
Copy CRC 97C102F8
Accurately ripped (confidence 3) [DCB457A6] (AR v2)
Copy OK

Track 11

Filename F:\Extract\Ennio Morricone - Original Soundtracks 1964-2015 VOL.II (2022) [FLAC] {UMF5394965}\CD01\11 - Ennio Morricone & Audrey Stainton Nohra (Performed By Christy) - La Resa Dei Conti- Run Man Run (Titoli Di Testa).wav

Peak level 97.7 %
Extraction speed 6.6 X
Track quality 100.0 %
Test CRC D7CFF4C2
Copy CRC D7CFF4C2
Accurately ripped (confidence 3) [8208DCCD] (AR v2)
Copy OK

Track 12

Filename F:\Extract\Ennio Morricone - Original Soundtracks 1964-2015 VOL.II (2022) [FLAC] {UMF5394965}\CD01\12 - Ennio Morricone - La Resa Dei Conti- La Corrida.wav

Peak level 97.7 %
Extraction speed 6.2 X
Track quality 100.0 %
Test CRC C732B62A
Copy CRC C732B62A
Accurately ripped (confidence 3) [DB7765F0] (AR v2)
Copy OK

Track 13

Filename F:\Extract\Ennio Morricone - Original Soundtracks 1964-2015 VOL.II (2022) [FLAC] {UMF5394965}\CD01\13 - Ennio Morricone - La Resa Dei Conti- Primo Deserto.wav

Peak level 97.7 %
Extraction speed 6.7 X
Track quality 100.0 %
Test CRC 3921F3AE
Copy CRC 3921F3AE
Accurately ripped (confidence 3) [73E92C29] (AR v2)
Copy OK

Track 14

Filename F:\Extract\Ennio Morricone - Original Soundtracks 1964-2015 VOL.II (2022) [FLAC] {UMF5394965}\CD01\14 - Ennio Morricone - La Resa Dei Conti- La Resa Dei Conti (Seconda Caccia).wav

Peak level 97.7 %
Extraction speed 6.9 X
Track quality 100.0 %
Test CRC 1089B204
Copy CRC 1089B204
Accurately ripped (confidence 3) [AAF277B8] (AR v2)
Copy OK

Track 15

Filename F:\Extract\Ennio Morricone - Original Soundtracks 1964-2015 VOL.II (2022) [FLAC] {UMF5394965}\CD01\15 - Ennio Morricone - Faccia A Faccia- Faccia A Faccia.wav

Peak level 97.7 %
Extraction speed 7.4 X
Track quality 100.0 %
Test CRC FD6C4609
Copy CRC FD6C4609
Accurately ripped (confidence 3) [2FAA71D7] (AR v2)
Copy OK

Track 16

Filename F:\Extract\Ennio Morricone - Original Soundtracks 1964-2015 VOL.II (2022) [FLAC] {UMF5394965}\CD01\16 - Ennio Morricone - Faccia A Faccia- Faccia A Faccia (Intermezzo).wav

Peak level 97.7 %
Extraction speed 7.4 X
Track quality 100.0 %
Test CRC 9DF00A91
Copy CRC 9DF00A91
Accurately ripped (confidence 3) [1676EF72] (AR v2)
Copy OK

Track 17

Filename F:\Extract\Ennio Morricone - Original Soundtracks 1964-2015 VOL.II (2022) [FLAC] {UMF5394965}\CD01\17 - Ennio Morricone - Il Grande Silenzio- Il Grande Silenzio.wav

Peak level 97.7 %
Extraction speed 5.7 X
Track quality 99.9 %
Test CRC DEB5E175
Copy CRC DEB5E175
Accurately ripped (confidence 3) [CCB02EDB] (AR v2)
Copy OK

Track 18

Filename F:\Extract\Ennio Morricone - Original Soundtracks 1964-2015 VOL.II (2022) [FLAC] {UMF5394965}\CD01\18 - Ennio Morricone - Il Grande Silenzio- Passage Nel Tempo.wav

Peak level 97.7 %
Extraction speed 7.6 X
Track quality 100.0 %
Test CRC 657C7905
Copy CRC 657C7905
Accurately ripped (confidence 3) [24258CC3] (AR v2)
Copy OK

Track 19

Filename F:\Extract\Ennio Morricone - Original Soundtracks 1964-2015 VOL.II (2022) [FLAC] {UMF5394965}\CD01\19 - Ennio Morricone - Il Grande Silenzio- E L'amore Verra'.wav

Peak level 54.3 %
Extraction speed 7.4 X
Track quality 100.0 %
Test CRC 8F72DDAE
Copy CRC 8F72DDAE
Accurately ripped (confidence 3) [9B008FE5] (AR v2)
Copy OK

Track 20

Filename F:\Extract\Ennio Morricone - Original Soundtracks 1964-2015 VOL.II (2022) [FLAC] {UMF5394965}\CD01\20 - Ennio Morricone - Il Grande Silenzio- Barbara E Tagliente.wav

Peak level 97.7 %
Extraction speed 7.6 X
Track quality 100.0 %
Test CRC DAD771B6
Copy CRC DAD771B6
Accurately ripped (confidence 3) [CE2A4C5D] (AR v2)
Copy OK

Track 21

Filename F:\Extract\Ennio Morricone - Original Soundtracks 1964-2015 VOL.II (2022) [FLAC] {UMF5394965}\CD01\21 - Ennio Morricone - Il Grande Silenzio- Voci Del Deserto.wav

Peak level 66.7 %
Extraction speed 6.2 X
Track quality 99.9 %
Test CRC F2620599
Copy CRC F2620599
Accurately ripped (confidence 3) [A60B6315] (AR v2)
Copy OK

Track 22

Filename F:\Extract\Ennio Morricone - Original Soundtracks 1964-2015 VOL.II (2022) [FLAC] {UMF5394965}\CD01\22 - Ennio Morricone - Il Grande Silenzio- Invito All'amore.wav

Peak level 97.7 %
Extraction speed 9.0 X
Track quality 100.0 %
Test CRC 942B0ADD
Copy CRC 942B0ADD
Accurately ripped (confidence 3) [B8D12030] (AR v2)
Copy OK

Track 23

Filename F:\Extract\Ennio Morricone - Original Soundtracks 1964-2015 VOL.II (2022) [FLAC] {UMF5394965}\CD01\23 - Ennio Morricone - La Vita, A Volte, È Molto Dura, Vero Provvidenza- La Vita, A Volte, È Molto Dura, Vero Provvidenza (Seq. 1).wav

Peak level 97.7 %
Extraction speed 9.4 X
Track quality 100.0 %
Test CRC AFACA517
Copy CRC AFACA517
Accurately ripped (confidence 3) [F9B608B2] (AR v2)
Copy OK

Track 24

Filename F:\Extract\Ennio Morricone - Original Soundtracks 1964-2015 VOL.II (2022) [FLAC] {UMF5394965}\CD01\24 - Ennio Morricone - La Vita, A Volte, È Molto Dura, Vero Provvidenza- La Vita, A Volte, È Molto Dura, Vero Provvidenza (Seq. 5).wav

Peak level 97.7 %
Extraction speed 7.5 X
Track quality 100.0 %
Test CRC 6997352B
Copy CRC 6997352B
Accurately ripped (confidence 3) [0C3EAF64] (AR v2)
Copy OK

Track 25

Filename F:\Extract\Ennio Morricone - Original Soundtracks 1964-2015 VOL.II (2022) [FLAC] {UMF5394965}\CD01\25 - Ennio Morricone - Sonny And Jed (La Banda J. & S. - Cronaca Criminale Del Far West)- Sonny.wav

Peak level 97.7 %
Extraction speed 9.9 X
Track quality 100.0 %
Test CRC F7DF140F
Copy CRC F7DF140F
Accurately ripped (confidence 3) [0691F2A1] (AR v2)
Copy OK

Track 26

Filename F:\Extract\Ennio Morricone - Original Soundtracks 1964-2015 VOL.II (2022) [FLAC] {UMF5394965}\CD01\26 - Ennio Morricone - Sonny And Jed (La Banda J. & S. - Cronaca Criminale Del Far West)- Sweet Susan.wav

Peak level 97.7 %
Extraction speed 10.2 X
Track quality 100.0 %
Test CRC 8AC99F10
Copy CRC 8AC99F10
Accurately ripped (confidence 3) [AD28E1F7] (AR v2)
Copy OK

Track 27

Filename F:\Extract\Ennio Morricone - Original Soundtracks 1964-2015 VOL.II (2022) [FLAC] {UMF5394965}\CD01\27 - Ennio Morricone - Sonny And Jed (La Banda J. & S. - Cronaca Criminale Del Far West)- Wanted Dead Or Alive.wav

Peak level 97.7 %
Extraction speed 7.9 X
Track quality 99.9 %
Test CRC 62D77F8B
Copy CRC 62D77F8B
Accurately ripped (confidence 3) [542D26CC] (AR v2)
Copy OK


All tracks accurately ripped

No errors occurred

End of status report

–– CUETools DB Plugin V2.1.6

[CTDB TOCID: zsZ6y11hc90598t3ReLDEMRH5I4-] found
Submit result: zsZ6y11hc90598t3ReLDEMRH5I4- has been confirmed
Track | CTDB Status
1 | (14/14) Accurately ripped
2 | (14/14) Accurately ripped
3 | (14/14) Accurately ripped
4 | (14/14) Accurately ripped
5 | (14/14) Accurately ripped
6 | (14/14) Accurately ripped
7 | (14/14) Accurately ripped
8 | (14/14) Accurately ripped
9 | (14/14) Accurately ripped
10 | (14/14) Accurately ripped
11 | (14/14) Accurately ripped
12 | (14/14) Accurately ripped
13 | (14/14) Accurately ripped
14 | (14/14) Accurately ripped
15 | (14/14) Accurately ripped
16 | (14/14) Accurately ripped
17 | (14/14) Accurately ripped
18 | (14/14) Accurately ripped
19 | (14/14) Accurately ripped
20 | (14/14) Accurately ripped
21 | (14/14) Accurately ripped
22 | (14/14) Accurately ripped
23 | (14/14) Accurately ripped
24 | (14/14) Accurately ripped
25 | (14/14) Accurately ripped
26 | (14/14) Accurately ripped
27 | (14/14) Accurately ripped


==== Log checksum 1D2EC9F26289FC4D58BFEAF4A199F29F370DA10B65BC3264487641EC88A615CC ====


Exact Audio Copy V1.6 from 23. October 2020

EAC extraction logfile from 5. June 2022, 14:46

Ennio Morricone / Original Soundtracks 1964-2015, VOL.II (Disc 02) - Western II

Used drive : ASUS BW-16D1HT Adapter: 1 ID: 1

Read mode : Secure
Utilize accurate stream : Yes
Defeat audio cache : Yes
Make use of C2 pointers : No

Read offset correction : 6
Overread into Lead-In and Lead-Out : No
Fill up missing offset samples with silence : Yes
Delete leading and trailing silent blocks : No
Null samples used in CRC calculations : Yes
Used interface : Native Win32 interface for Win NT & 2000
Gap handling : Appended to previous track

Used output format : User Defined Encoder
Selected bitrate : 1024 kBit/s
Quality : High
Add ID3 tag : No
Command line compressor : C:\Program Files (x86)\Exact Audio Copy\Flac\flac.exe
Additional command line options : -8 -V -T "ARTIST=%artist%" -T "TITLE=%title%" -T "ALBUM=%albumtitle%" -T "DATE=%year%" -T "TRACKNUMBER=%tracknr%" -T "GENRE=%genre%" -T "PERFORMER=%albuminterpret%" -T "COMPOSER=%composer%" -T "ALBUMARTIST=%albumartist%" -T "DISCNUMBER=%cdnumber%" -T "TOTALDISCS=%totalcds%" -T "TOTALTRACKS=%numtracks%" -T "COMMENT=%comment%" %source% -o %dest%


TOC of the extracted CD

Track | Start | Length | Start sector | End sector
––––––––––––––––––––––––––––-
1 | 0:00.00 | 3:11.57 | 0 | 14381
2 | 3:11.57 | 5:07.10 | 14382 | 37416
3 | 8:18.67 | 2:41.71 | 37417 | 49562
4 | 11:00.63 | 4:46.74 | 49563 | 71086
5 | 15:47.62 | 2:05.27 | 71087 | 80488
6 | 17:53.14 | 6:57.69 | 80489 | 111832
7 | 24:51.08 | 2:20.48 | 111833 | 122380
8 | 27:11.56 | 2:04.12 | 122381 | 131692
9 | 29:15.68 | 1:47.54 | 131693 | 139771
10 | 31:03.47 | 1:32.18 | 139772 | 146689
11 | 32:35.65 | 1:34.52 | 146690 | 153791
12 | 34:10.42 | 3:52.67 | 153792 | 171258
13 | 38:03.34 | 3:17.00 | 171259 | 186033
14 | 41:20.34 | 2:42.74 | 186034 | 198257
15 | 44:03.33 | 3:16.69 | 198258 | 213026
16 | 47:20.27 | 1:12.43 | 213027 | 218469
17 | 48:32.70 | 2:10.68 | 218470 | 228287
18 | 50:43.63 | 3:37.63 | 228288 | 244625
19 | 54:21.51 | 2:30.68 | 244626 | 255943
20 | 56:52.44 | 2:47.16 | 255944 | 268484
21 | 59:39.60 | 1:16.30 | 268485 | 274214
22 | 60:56.15 | 1:27.18 | 274215 | 280757
23 | 62:23.33 | 1:19.50 | 280758 | 286732
24 | 63:43.08 | 2:39.27 | 286733 | 298684
25 | 66:22.35 | 2:55.65 | 298685 | 311874
26 | 69:18.25 | 2:21.09 | 311875 | 322458


Track 1

Filename F:\Extract\Ennio Morricone - Original Soundtracks 1964-2015 VOL.II (2022) [FLAC] {UMF5394965}\CD02\01 - Il Mio Nome È Nessuno- Il Mio Nome È Nessuno.wav

Pre-gap length 0:00:02.00

Peak level 97.6 %
Extraction speed 2.8 X
Track quality 100.0 %
Test CRC 0871D441
Copy CRC 0871D441
Accurately ripped (confidence 3) [97C5699A] (AR v2)
Copy OK

Track 2

Filename F:\Extract\Ennio Morricone - Original Soundtracks 1964-2015 VOL.II (2022) [FLAC] {UMF5394965}\CD02\02 - Il Mio Nome È Nessuno- Buona Fortuna Jack.wav

Peak level 97.7 %
Extraction speed 3.3 X
Track quality 100.0 %
Test CRC 9CE61498
Copy CRC 9CE61498
Accurately ripped (confidence 3) [68CA59FD] (AR v2)
Copy OK

Track 3

Filename F:\Extract\Ennio Morricone - Original Soundtracks 1964-2015 VOL.II (2022) [FLAC] {UMF5394965}\CD02\03 - Il Mio Nome È Nessuno- Mucchio Selvaggio.wav

Peak level 97.7 %
Extraction speed 3.3 X
Track quality 100.0 %
Test CRC F95027F6
Copy CRC F95027F6
Accurately ripped (confidence 3) [CF4C4717] (AR v2)
Copy OK

Track 4

Filename F:\Extract\Ennio Morricone - Original Soundtracks 1964-2015 VOL.II (2022) [FLAC] {UMF5394965}\CD02\04 - Il Mio Nome È Nessuno- Se Sei Qualcuno È Colpa Mia.wav

Peak level 97.7 %
Extraction speed 3.8 X
Track quality 100.0 %
Test CRC 250C5696
Copy CRC 250C5696
Accurately ripped (confidence 3) [D868BF30] (AR v2)
Copy OK

Track 5

Filename F:\Extract\Ennio Morricone - Original Soundtracks 1964-2015 VOL.II (2022) [FLAC] {UMF5394965}\CD02\05 - Il Mio Nome È Nessuno- Con I Migliori Auguri.wav

Peak level 97.7 %
Extraction speed 3.5 X
Track quality 100.0 %
Test CRC 61EE1526
Copy CRC 61EE1526
Accurately ripped (confidence 3) [E19DED5E] (AR v2)
Copy OK

Track 6

Filename F:\Extract\Ennio Morricone - Original Soundtracks 1964-2015 VOL.II (2022) [FLAC] {UMF5394965}\CD02\06 - Il Mio Nome È Nessuno- Uno Strano Barbiere.wav

Peak level 97.7 %
Extraction speed 4.4 X
Track quality 100.0 %
Test CRC AA9D06E4
Copy CRC AA9D06E4
Accurately ripped (confidence 3) [03AEB2CD] (AR v2)
Copy OK

Track 7

Filename F:\Extract\Ennio Morricone - Original Soundtracks 1964-2015 VOL.II (2022) [FLAC] {UMF5394965}\CD02\07 - Il Mio Nome È Nessuno- Più Delle Walkirie.wav

Peak level 97.7 %
Extraction speed 4.0 X
Track quality 100.0 %
Test CRC 4704F2B7
Copy CRC 4704F2B7
Accurately ripped (confidence 3) [D7AF0B31] (AR v2)
Copy OK

Track 8

Filename F:\Extract\Ennio Morricone - Original Soundtracks 1964-2015 VOL.II (2022) [FLAC] {UMF5394965}\CD02\08 - Il Mio Nome È Nessuno- Una Insolita Attesa.wav

Peak level 97.7 %
Extraction speed 2.8 X
Track quality 99.9 %
Test CRC 62B7B897
Copy CRC 62B7B897
Accurately ripped (confidence 3) [C0B318E8] (AR v2)
Copy OK

Track 9

Filename F:\Extract\Ennio Morricone - Original Soundtracks 1964-2015 VOL.II (2022) [FLAC] {UMF5394965}\CD02\09 - Il Mio Nome È Nessuno- La Favola Dell'uccellino.wav

Peak level 61.5 %
Extraction speed 3.9 X
Track quality 100.0 %
Test CRC 69330E36
Copy CRC 69330E36
Accurately ripped (confidence 3) [1DF5FC7C] (AR v2)
Copy OK

Track 10

Filename F:\Extract\Ennio Morricone - Original Soundtracks 1964-2015 VOL.II (2022) [FLAC] {UMF5394965}\CD02\10 - Il Mio Nome È Nessuno- Balletto Degli Specchi.wav

Peak level 97.6 %
Extraction speed 3.9 X
Track quality 100.0 %
Test CRC D8E2A0D5
Copy CRC D8E2A0D5
Accurately ripped (confidence 3) [FB06DDF2] (AR v2)
Copy OK

Track 11

Filename F:\Extract\Ennio Morricone - Original Soundtracks 1964-2015 VOL.II (2022) [FLAC] {UMF5394965}\CD02\11 - Il Mio Nome È Nessuno- Il Mio Nome È Nessuno.wav

Peak level 97.7 %
Extraction speed 3.9 X
Track quality 100.0 %
Test CRC 21071B54
Copy CRC 21071B54
Accurately ripped (confidence 3) [818A80C6] (AR v2)
Copy OK

Track 12

Filename F:\Extract\Ennio Morricone - Original Soundtracks 1964-2015 VOL.II (2022) [FLAC] {UMF5394965}\CD02\12 - Un Genio, Due Compari, Un Pollo- Un Genio, Due Compari, Un Pollo.wav

Peak level 97.7 %
Extraction speed 4.8 X
Track quality 100.0 %
Test CRC DC2AF676
Copy CRC DC2AF676
Accurately ripped (confidence 3) [DD24D005] (AR v2)
Copy OK

Track 13

Filename F:\Extract\Ennio Morricone - Original Soundtracks 1964-2015 VOL.II (2022) [FLAC] {UMF5394965}\CD02\13 - Un Genio, Due Compari, Un Pollo- Il Pollo.wav

Peak level 91.5 %
Extraction speed 4.9 X
Track quality 100.0 %
Test CRC EF9645D4
Copy CRC EF9645D4
Accurately ripped (confidence 3) [A57B1835] (AR v2)
Copy OK

Track 14

Filename F:\Extract\Ennio Morricone - Original Soundtracks 1964-2015 VOL.II (2022) [FLAC] {UMF5394965}\CD02\14 - Un Genio, Due Compari, Un Pollo- Pepper Chewing-Chum.wav

Peak level 97.7 %
Extraction speed 3.6 X
Track quality 99.9 %
Test CRC 359B6822
Copy CRC 359B6822
Accurately ripped (confidence 3) [F3C52B6C] (AR v2)
Copy OK

Track 15

Filename F:\Extract\Ennio Morricone - Original Soundtracks 1964-2015 VOL.II (2022) [FLAC] {UMF5394965}\CD02\15 - Un Genio, Due Compari, Un Pollo- Cavalcata… Per Elisa.wav

Peak level 93.7 %
Extraction speed 5.2 X
Track quality 100.0 %
Test CRC 413789B4
Copy CRC 413789B4
Accurately ripped (confidence 3) [53A60737] (AR v2)
Copy OK

Track 16

Filename F:\Extract\Ennio Morricone - Original Soundtracks 1964-2015 VOL.II (2022) [FLAC] {UMF5394965}\CD02\16 - Un Genio, Due Compari, Un Pollo- Un Bacio Asfissiante.wav

Peak level 94.5 %
Extraction speed 4.1 X
Track quality 100.0 %
Test CRC CEC564A3
Copy CRC CEC564A3
Accurately ripped (confidence 3) [B71E3F61] (AR v2)
Copy OK

Track 17

Filename F:\Extract\Ennio Morricone - Original Soundtracks 1964-2015 VOL.II (2022) [FLAC] {UMF5394965}\CD02\17 - Un Genio, Due Compari, Un Pollo- Suspence Per Joe.wav

Peak level 97.4 %
Extraction speed 4.9 X
Track quality 100.0 %
Test CRC 61C5CEB8
Copy CRC 61C5CEB8
Accurately ripped (confidence 3) [30FCDEAF] (AR v2)
Copy OK

Track 18

Filename F:\Extract\Ennio Morricone - Original Soundtracks 1964-2015 VOL.II (2022) [FLAC] {UMF5394965}\CD02\18 - Un Genio, Due Compari, Un Pollo- Quando Arriva L'amore.wav

Peak level 97.3 %
Extraction speed 5.5 X
Track quality 100.0 %
Test CRC 8A1D114F
Copy CRC 8A1D114F
Accurately ripped (confidence 3) [E730BE8C] (AR v2)
Copy OK

Track 19

Filename F:\Extract\Ennio Morricone - Original Soundtracks 1964-2015 VOL.II (2022) [FLAC] {UMF5394965}\CD02\19 - Un Genio, Due Compari, Un Pollo- Ansie Dell'oro.wav

Peak level 97.5 %
Extraction speed 5.3 X
Track quality 100.0 %
Test CRC 96F0AEC4
Copy CRC 96F0AEC4
Accurately ripped (confidence 3) [C64A490E] (AR v2)
Copy OK

Track 20

Filename F:\Extract\Ennio Morricone - Original Soundtracks 1964-2015 VOL.II (2022) [FLAC] {UMF5394965}\CD02\20 - Un Genio, Due Compari, Un Pollo- Glory, Glory, Glory.wav

Peak level 93.7 %
Extraction speed 5.5 X
Track quality 100.0 %
Test CRC 3CDF4E8B
Copy CRC 3CDF4E8B
Accurately ripped (confidence 3) [FB221B4C] (AR v2)
Copy OK

Track 21

Filename F:\Extract\Ennio Morricone - Original Soundtracks 1964-2015 VOL.II (2022) [FLAC] {UMF5394965}\CD02\21 - Un Genio, Due Compari, Un Pollo- Partita E Poker.wav

Peak level 97.4 %
Extraction speed 4.5 X
Track quality 100.0 %
Test CRC FB289C61
Copy CRC FB289C61
Accurately ripped (confidence 3) [B6E70D9E] (AR v2)
Copy OK

Track 22

Filename F:\Extract\Ennio Morricone - Original Soundtracks 1964-2015 VOL.II (2022) [FLAC] {UMF5394965}\CD02\22 - Un Genio, Due Compari, Un Pollo- Dolore E Gioia.wav

Peak level 97.6 %
Extraction speed 4.8 X
Track quality 100.0 %
Test CRC FEF77442
Copy CRC FEF77442
Accurately ripped (confidence 3) [FFDCC7A2] (AR v2)
Copy OK

Track 23

Filename F:\Extract\Ennio Morricone - Original Soundtracks 1964-2015 VOL.II (2022) [FLAC] {UMF5394965}\CD02\23 - Un Genio, Due Compari, Un Pollo- La Miccia.wav

Peak level 97.7 %
Extraction speed 2.4 X
Track quality 99.8 %
Test CRC 994BADE5
Copy CRC 994BADE5
Accurately ripped (confidence 3) [D83A2C71] (AR v2)
Copy OK

Track 24

Filename F:\Extract\Ennio Morricone - Original Soundtracks 1964-2015 VOL.II (2022) [FLAC] {UMF5394965}\CD02\24 - Un Genio, Due Compari, Un Pollo- Questa Pazza Pazza Corsa.wav

Peak level 97.6 %
Extraction speed 3.5 X
Track quality 99.9 %
Test CRC 30916B46
Copy CRC 30916B46
Accurately ripped (confidence 3) [AE7DCDAD] (AR v2)
Copy OK

Track 25

Filename F:\Extract\Ennio Morricone - Original Soundtracks 1964-2015 VOL.II (2022) [FLAC] {UMF5394965}\CD02\25 - Occhio Alla Penna- Estasi Del Miracolo.wav

Peak level 88.4 %
Extraction speed 5.7 X
Track quality 100.0 %
Test CRC 4BC89B93
Copy CRC 4BC89B93
Accurately ripped (confidence 3) [3AD3ABE1] (AR v2)
Copy OK

Track 26

Filename F:\Extract\Ennio Morricone - Original Soundtracks 1964-2015 VOL.II (2022) [FLAC] {UMF5394965}\CD02\26 - Occhio Alla Penna- Occhio Alla Penna.wav

Peak level 97.7 %
Extraction speed 4.0 X
Track quality 99.9 %
Test CRC A5D2B9C1
Copy CRC A5D2B9C1
Accurately ripped (confidence 3) [224F8513] (AR v2)
Copy OK


All tracks accurately ripped

No errors occurred

End of status report

–– CUETools DB Plugin V2.1.6

[CTDB TOCID: 4CE.qtOzHSuwaZiEmD0j9DPkaZc-] found
Submit result: 4CE.qtOzHSuwaZiEmD0j9DPkaZc- has been confirmed
Track | CTDB Status
1 | (13/13) Accurately ripped
2 | (13/13) Accurately ripped
3 | (13/13) Accurately ripped
4 | (13/13) Accurately ripped
5 | (13/13) Accurately ripped
6 | (13/13) Accurately ripped
7 | (13/13) Accurately ripped
8 | (13/13) Accurately ripped
9 | (13/13) Accurately ripped
10 | (13/13) Accurately ripped
11 | (13/13) Accurately ripped
12 | (13/13) Accurately ripped
13 | (13/13) Accurately ripped
14 | (13/13) Accurately ripped
15 | (13/13) Accurately ripped
16 | (13/13) Accurately ripped
17 | (13/13) Accurately ripped
18 | (13/13) Accurately ripped
19 | (13/13) Accurately ripped
20 | (13/13) Accurately ripped
21 | (13/13) Accurately ripped
22 | (13/13) Accurately ripped
23 | (13/13) Accurately ripped
24 | (13/13) Accurately ripped
25 | (13/13) Accurately ripped
26 | (13/13) Accurately ripped


==== Log checksum B4427C3272A1F3D008FCB56B8DD9D539FC7B1ABFDFAF732990C2DAA79E9BDF3C ====


Exact Audio Copy V1.6 from 23. October 2020

EAC extraction logfile from 5. June 2022, 15:38

Ennio Morricone / Original Soundtracks 1964-2015, VOL.III (Disc 03) - Faces of Italian Cinema

Used drive : ASUS BW-16D1HT Adapter: 1 ID: 1

Read mode : Secure
Utilize accurate stream : Yes
Defeat audio cache : Yes
Make use of C2 pointers : No

Read offset correction : 6
Overread into Lead-In and Lead-Out : No
Fill up missing offset samples with silence : Yes
Delete leading and trailing silent blocks : No
Null samples used in CRC calculations : Yes
Used interface : Native Win32 interface for Win NT & 2000
Gap handling : Appended to previous track

Used output format : User Defined Encoder
Selected bitrate : 1024 kBit/s
Quality : High
Add ID3 tag : No
Command line compressor : C:\Program Files (x86)\Exact Audio Copy\Flac\flac.exe
Additional command line options : -8 -V -T "ARTIST=%artist%" -T "TITLE=%title%" -T "ALBUM=%albumtitle%" -T "DATE=%year%" -T "TRACKNUMBER=%tracknr%" -T "GENRE=%genre%" -T "PERFORMER=%albuminterpret%" -T "COMPOSER=%composer%" -T "ALBUMARTIST=%albumartist%" -T "DISCNUMBER=%cdnumber%" -T "TOTALDISCS=%totalcds%" -T "TOTALTRACKS=%numtracks%" -T "COMMENT=%comment%" %source% -o %dest%


TOC of the extracted CD

Track | Start | Length | Start sector | End sector
––––––––––––––––––––––––––––-
1 | 0:00.00 | 2:39.34 | 0 | 11958
2 | 2:39.34 | 1:10.17 | 11959 | 17225
3 | 3:49.51 | 2:19.28 | 17226 | 27678
4 | 6:09.04 | 2:31.62 | 27679 | 39065
5 | 8:40.66 | 4:10.57 | 39066 | 57872
6 | 12:51.48 | 3:24.56 | 57873 | 73228
7 | 16:16.29 | 3:33.73 | 73229 | 89276
8 | 19:50.27 | 2:17.12 | 89277 | 99563
9 | 22:07.39 | 3:06.55 | 99564 | 113568
10 | 25:14.19 | 2:39.18 | 113569 | 125511
11 | 27:53.37 | 2:59.29 | 125512 | 138965
12 | 30:52.66 | 3:45.65 | 138966 | 155905
13 | 34:38.56 | 2:47.30 | 155906 | 168460
14 | 37:26.11 | 2:09.21 | 168461 | 178156
15 | 39:35.32 | 4:24.49 | 178157 | 198005
16 | 44:00.06 | 2:55.74 | 198006 | 211204
17 | 46:56.05 | 3:04.17 | 211205 | 225021
18 | 50:00.22 | 2:29.44 | 225022 | 236240
19 | 52:29.66 | 1:32.66 | 236241 | 243206
20 | 54:02.57 | 2:32.17 | 243207 | 254623
21 | 56:34.74 | 2:43.70 | 254624 | 266918
22 | 59:18.69 | 2:43.26 | 266919 | 279169
23 | 62:02.20 | 2:37.61 | 279170 | 291005
24 | 64:40.06 | 9:12.06 | 291006 | 332411


Track 1

Filename F:\Extract\Ennio Morricone - Original Soundtracks 1964-2015 VOL.II (2022) [FLAC] {UMF5394965}\CD03\01 - La Califfa- La Califfa.wav

Pre-gap length 0:00:02.00

Peak level 97.7 %
Extraction speed 2.8 X
Track quality 100.0 %
Test CRC EED3838A
Copy CRC EED3838A
Accurately ripped (confidence 3) [7D619A78] (AR v2)
Copy OK

Track 2

Filename F:\Extract\Ennio Morricone - Original Soundtracks 1964-2015 VOL.II (2022) [FLAC] {UMF5394965}\CD03\02 - La Califfa- Le Donne Al Fiume.wav

Peak level 97.6 %
Extraction speed 2.3 X
Track quality 100.0 %
Test CRC AE037678
Copy CRC AE037678
Accurately ripped (confidence 3) [1ADC72DC] (AR v2)
Copy OK

Track 3

Filename F:\Extract\Ennio Morricone - Original Soundtracks 1964-2015 VOL.II (2022) [FLAC] {UMF5394965}\CD03\03 - La Califfa- Finale.wav

Peak level 97.7 %
Extraction speed 3.0 X
Track quality 100.0 %
Test CRC C8432F1F
Copy CRC C8432F1F
Accurately ripped (confidence 3) [FD8EF9A2] (AR v2)
Copy OK

Track 4

Filename F:\Extract\Ennio Morricone - Original Soundtracks 1964-2015 VOL.II (2022) [FLAC] {UMF5394965}\CD03\04 - Svegliati E Uccidi- Svegliati E Uccidi.wav

Peak level 97.7 %
Extraction speed 3.2 X
Track quality 100.0 %
Test CRC E6D68A11
Copy CRC E6D68A11
Accurately ripped (confidence 3) [00DDD12A] (AR v2)
Copy OK

Track 5

Filename F:\Extract\Ennio Morricone - Original Soundtracks 1964-2015 VOL.II (2022) [FLAC] {UMF5394965}\CD03\05 - La Cugina- La Sera, La Notte, Il Giorno.wav

Peak level 97.7 %
Extraction speed 3.7 X
Track quality 100.0 %
Test CRC AA44FBE5
Copy CRC AA44FBE5
Accurately ripped (confidence 3) [C6EC651A] (AR v2)
Copy OK

Track 6

Filename F:\Extract\Ennio Morricone - Original Soundtracks 1964-2015 VOL.II (2022) [FLAC] {UMF5394965}\CD03\06 - La Cugina- De Copalamo.wav

Peak level 97.7 %
Extraction speed 3.8 X
Track quality 100.0 %
Test CRC 028151B0
Copy CRC 028151B0
Accurately ripped (confidence 3) [00F88256] (AR v2)
Copy OK

Track 7

Filename F:\Extract\Ennio Morricone - Original Soundtracks 1964-2015 VOL.II (2022) [FLAC] {UMF5394965}\CD03\07 - I Pugni In Tasca- I Pugni In Tasca.wav

Peak level 97.5 %
Extraction speed 4.0 X
Track quality 100.0 %
Test CRC DA660FD7
Copy CRC DA660FD7
Accurately ripped (confidence 3) [B14A1BCD] (AR v2)
Copy OK

Track 8

Filename F:\Extract\Ennio Morricone - Original Soundtracks 1964-2015 VOL.II (2022) [FLAC] {UMF5394965}\CD03\08 - I Pugni In Tasca- Subdolo.wav

Peak level 97.7 %
Extraction speed 3.8 X
Track quality 100.0 %
Test CRC 7A2D59A1
Copy CRC 7A2D59A1
Accurately ripped (confidence 3) [6A44170F] (AR v2)
Copy OK

Track 9

Filename F:\Extract\Ennio Morricone - Original Soundtracks 1964-2015 VOL.II (2022) [FLAC] {UMF5394965}\CD03\09 - Escalation- Escalation.wav

Peak level 97.7 %
Extraction speed 4.2 X
Track quality 100.0 %
Test CRC 3FEB8C2D
Copy CRC 3FEB8C2D
Accurately ripped (confidence 3) [49DEA5F2] (AR v2)
Copy OK

Track 10

Filename F:\Extract\Ennio Morricone - Original Soundtracks 1964-2015 VOL.II (2022) [FLAC] {UMF5394965}\CD03\10 - Cosa Avete Fatto A Solange- Cosa Avete Fatto A Solange.wav

Peak level 97.5 %
Extraction speed 4.2 X
Track quality 100.0 %
Test CRC F1EEC053
Copy CRC F1EEC053
Accurately ripped (confidence 3) [D06BBF06] (AR v2)
Copy OK

Track 11

Filename F:\Extract\Ennio Morricone - Original Soundtracks 1964-2015 VOL.II (2022) [FLAC] {UMF5394965}\CD03\11 - Cosa Avete Fatto A Solange Una Tromba E La Sua Notte.wav

Peak level 96.8 %
Extraction speed 4.5 X
Track quality 100.0 %
Test CRC 96D2CCB4
Copy CRC 96D2CCB4
Accurately ripped (confidence 3) [B4C5FFCC] (AR v2)
Copy OK

Track 12

Filename F:\Extract\Ennio Morricone - Original Soundtracks 1964-2015 VOL.II (2022) [FLAC] {UMF5394965}\CD03\12 - Il Giro Del Mondo Degli Innamorati Di Peynet- Forse Basta.wav

Peak level 95.3 %
Extraction speed 4.8 X
Track quality 100.0 %
Test CRC F3F36C81
Copy CRC F3F36C81
Accurately ripped (confidence 3) [851284FF] (AR v2)
Copy OK

Track 13

Filename F:\Extract\Ennio Morricone - Original Soundtracks 1964-2015 VOL.II (2022) [FLAC] {UMF5394965}\CD03\13 - Metello- Metello (Tema Titoli).wav

Peak level 97.7 %
Extraction speed 4.7 X
Track quality 100.0 %
Test CRC 20FAE83B
Copy CRC 20FAE83B
Accurately ripped (confidence 3) [5A968069] (AR v2)
Copy OK

Track 14

Filename F:\Extract\Ennio Morricone - Original Soundtracks 1964-2015 VOL.II (2022) [FLAC] {UMF5394965}\CD03\14 - Metello- Tema Sciopero (Solenne Triste).wav

Peak level 97.7 %
Extraction speed 4.6 X
Track quality 100.0 %
Test CRC A3F7247D
Copy CRC A3F7247D
Accurately ripped (confidence 3) [7D42EE28] (AR v2)
Copy OK

Track 15

Filename F:\Extract\Ennio Morricone - Original Soundtracks 1964-2015 VOL.II (2022) [FLAC] {UMF5394965}\CD03\15 - H2S- H2S.wav

Peak level 97.7 %
Extraction speed 5.3 X
Track quality 100.0 %
Test CRC CBB5DA69
Copy CRC CBB5DA69
Accurately ripped (confidence 3) [2632DB44] (AR v2)
Copy OK

Track 16

Filename F:\Extract\Ennio Morricone - Original Soundtracks 1964-2015 VOL.II (2022) [FLAC] {UMF5394965}\CD03\16 - La Proprietà Non È Più Un Furto- Colpo.wav

Peak level 97.7 %
Extraction speed 5.1 X
Track quality 100.0 %
Test CRC 1D19448F
Copy CRC 1D19448F
Accurately ripped (confidence 3) [4BB31626] (AR v2)
Copy OK

Track 17

Filename F:\Extract\Ennio Morricone - Original Soundtracks 1964-2015 VOL.II (2022) [FLAC] {UMF5394965}\CD03\17 - La Tarantola Dal Ventre Nero- Un Uomo Si È Dimesso.wav

Peak level 97.5 %
Extraction speed 4.0 X
Track quality 99.9 %
Test CRC 2BEC71FD
Copy CRC 2BEC71FD
Accurately ripped (confidence 3) [0FBA3CC6] (AR v2)
Copy OK

Track 18

Filename F:\Extract\Ennio Morricone - Original Soundtracks 1964-2015 VOL.II (2022) [FLAC] {UMF5394965}\CD03\18 - Uccellacci E Uccellini- Uccellacci E Uccellini.wav

Pre-gap length 0:00:00.01

Peak level 97.7 %
Extraction speed 5.2 X
Track quality 100.0 %
Test CRC 91025115
Copy CRC 91025115
Accurately ripped (confidence 3) [E1AB7177] (AR v2)
Copy OK

Track 19

Filename F:\Extract\Ennio Morricone - Original Soundtracks 1964-2015 VOL.II (2022) [FLAC] {UMF5394965}\CD03\19 - Uccellacci E Uccellini- San Francesco Parla Agli Uccelli.wav

Peak level 84.8 %
Extraction speed 4.7 X
Track quality 100.0 %
Test CRC 5501E411
Copy CRC 5501E411
Accurately ripped (confidence 3) [639F202C] (AR v2)
Copy OK

Track 20

Filename F:\Extract\Ennio Morricone - Original Soundtracks 1964-2015 VOL.II (2022) [FLAC] {UMF5394965}\CD03\20 - Teorema- Frammenti.wav

Peak level 87.3 %
Extraction speed 5.4 X
Track quality 100.0 %
Test CRC 17C62D72
Copy CRC 17C62D72
Accurately ripped (confidence 3) [AA2D5F2D] (AR v2)
Copy OK

Track 21

Filename F:\Extract\Ennio Morricone - Original Soundtracks 1964-2015 VOL.II (2022) [FLAC] {UMF5394965}\CD03\21 - Teorema- L'Ultima Corrida.wav

Peak level 88.0 %
Extraction speed 5.6 X
Track quality 100.0 %
Test CRC 8830E2DE
Copy CRC 8830E2DE
Accurately ripped (confidence 3) [F30FFA4C] (AR v2)
Copy OK

Track 22

Filename F:\Extract\Ennio Morricone - Original Soundtracks 1964-2015 VOL.II (2022) [FLAC] {UMF5394965}\CD03\22 - Il Fiore Delle Mille E Una Notte- Tema Di Dunja.wav

Peak level 78.0 %
Extraction speed 3.9 X
Track quality 99.9 %
Test CRC 2B765963
Copy CRC 2B765963
Accurately ripped (confidence 3) [56C0C8B0] (AR v2)
Copy OK

Track 23

Filename F:\Extract\Ennio Morricone - Original Soundtracks 1964-2015 VOL.II (2022) [FLAC] {UMF5394965}\CD03\23 - Il Fiore Delle Mille E Una Notte- Tema Di Aziza.wav

Peak level 76.8 %
Extraction speed 5.7 X
Track quality 100.0 %
Test CRC AAC57DA4
Copy CRC AAC57DA4
Accurately ripped (confidence 3) [10633551] (AR v2)
Copy OK

Track 24

Filename F:\Extract\Ennio Morricone - Original Soundtracks 1964-2015 VOL.II (2022) [FLAC] {UMF5394965}\CD03\24 - Maddalena- Come Maddalena.wav

Peak level 97.7 %
Extraction speed 6.1 X
Track quality 99.9 %
Test CRC AEF57AE4
Copy CRC AEF57AE4
Accurately ripped (confidence 3) [1AE0E7D8] (AR v2)
Copy OK


All tracks accurately ripped

No errors occurred

End of status report

–– CUETools DB Plugin V2.1.6

[CTDB TOCID: C1ZGWndpcMdb1q9L3lsYgooHiD4-] found
Submit result: C1ZGWndpcMdb1q9L3lsYgooHiD4- has been confirmed
Track | CTDB Status
1 | (13/13) Accurately ripped
2 | (13/13) Accurately ripped
3 | (13/13) Accurately ripped
4 | (13/13) Accurately ripped
5 | (13/13) Accurately ripped
6 | (13/13) Accurately ripped
7 | (13/13) Accurately ripped
8 | (13/13) Accurately ripped
9 | (13/13) Accurately ripped
10 | (13/13) Accurately ripped
11 | (13/13) Accurately ripped
12 | (13/13) Accurately ripped
13 | (13/13) Accurately ripped
14 | (13/13) Accurately ripped
15 | (13/13) Accurately ripped
16 | (13/13) Accurately ripped
17 | (13/13) Accurately ripped
18 | (13/13) Accurately ripped
19 | (13/13) Accurately ripped
20 | (13/13) Accurately ripped
21 | (13/13) Accurately ripped
22 | (13/13) Accurately ripped
23 | (13/13) Accurately ripped
24 | (13/13) Accurately ripped


==== Log checksum 33DB4B3D1100CF1BC3A21EF75147F0CD78BBA2A653E2E9CE5E99896B8B670F88 ====


Exact Audio Copy V1.6 from 23. October 2020

EAC extraction logfile from 5. June 2022, 20:46

Ennio Morricone / Original Soundtracks 1964-2015, VOL.II (Disc 08) - Once Upon A Film II

Used drive : ASUS BW-16D1HT Adapter: 1 ID: 1

Read mode : Secure
Utilize accurate stream : Yes
Defeat audio cache : Yes
Make use of C2 pointers : No

Read offset correction : 6
Overread into Lead-In and Lead-Out : No
Fill up missing offset samples with silence : Yes
Delete leading and trailing silent blocks : No
Null samples used in CRC calculations : Yes
Used interface : Native Win32 interface for Win NT & 2000
Gap handling : Appended to previous track

Used output format : User Defined Encoder
Selected bitrate : 1024 kBit/s
Quality : High
Add ID3 tag : No
Command line compressor : C:\Program Files (x86)\Exact Audio Copy\Flac\flac.exe
Additional command line options : -8 -V -T "ARTIST=%artist%" -T "TITLE=%title%" -T "ALBUM=%albumtitle%" -T "DATE=%year%" -T "TRACKNUMBER=%tracknr%" -T "GENRE=%genre%" -T "PERFORMER=%albuminterpret%" -T "COMPOSER=%composer%" -T "ALBUMARTIST=%albumartist%" -T "DISCNUMBER=%cdnumber%" -T "TOTALDISCS=%totalcds%" -T "TOTALTRACKS=%numtracks%" -T "COMMENT=%comment%" %source% -o %dest%


TOC of the extracted CD

Track | Start | Length | Start sector | End sector
––––––––––––––––––––––––––––-
1 | 0:00.00 | 2:43.15 | 0 | 12239
2 | 2:43.15 | 4:46.43 | 12240 | 33732
3 | 7:29.58 | 1:42.45 | 33733 | 41427
4 | 9:12.28 | 3:07.64 | 41428 | 55516
5 | 12:20.17 | 6:07.57 | 55517 | 83098
6 | 18:27.74 | 6:06.05 | 83099 | 110553
7 | 24:34.04 | 4:16.24 | 110554 | 129777
8 | 28:50.28 | 3:22.55 | 129778 | 144982
9 | 32:13.08 | 4:11.66 | 144983 | 163873
10 | 36:24.74 | 2:24.32 | 163874 | 174705
11 | 38:49.31 | 3:39.44 | 174706 | 191174
12 | 42:29.00 | 2:14.36 | 191175 | 201260
13 | 44:43.36 | 4:18.00 | 201261 | 220610
14 | 49:01.36 | 4:13.29 | 220611 | 239614
15 | 53:14.65 | 4:39.31 | 239615 | 260570
16 | 57:54.21 | 2:22.10 | 260571 | 271230
17 | 60:16.31 | 2:49.11 | 271231 | 283916
18 | 63:05.42 | 4:37.03 | 283917 | 304694
19 | 67:42.45 | 3:53.58 | 304695 | 322227


Track 1

Filename F:\Extract\Ennio Morricone - Original Soundtracks 1964-2015 VOL.II (2022) [FLAC] {UMF5394965}\CD08\01 - Hamlet- Hamlet.wav

Pre-gap length 0:00:02.00

Peak level 94.9 %
Extraction speed 2.7 X
Track quality 100.0 %
Test CRC 3CDAC8A3
Copy CRC 3CDAC8A3
Accurately ripped (confidence 3) [8444C6F8] (AR v2)
Copy OK

Track 2

Filename F:\Extract\Ennio Morricone - Original Soundtracks 1964-2015 VOL.II (2022) [FLAC] {UMF5394965}\CD08\02 - Hamlet- The King Is Dead.wav

Peak level 97.7 %
Extraction speed 3.2 X
Track quality 100.0 %
Test CRC 6A28CA99
Copy CRC 6A28CA99
Accurately ripped (confidence 3) [6DAB934A] (AR v2)
Copy OK

Track 3

Filename F:\Extract\Ennio Morricone - Original Soundtracks 1964-2015 VOL.II (2022) [FLAC] {UMF5394965}\CD08\03 - Hamlet- Banquet.wav

Peak level 97.3 %
Extraction speed 1.9 X
Track quality 99.8 %
Test CRC 65508169
Copy CRC 65508169
Accurately ripped (confidence 3) [319F33FB] (AR v2)
Copy OK

Track 4

Filename F:\Extract\Ennio Morricone - Original Soundtracks 1964-2015 VOL.II (2022) [FLAC] {UMF5394965}\CD08\04 - Hamlet- Ophelia (Version 2).wav

Peak level 97.7 %
Extraction speed 3.4 X
Track quality 100.0 %
Test CRC 347A3F45
Copy CRC 347A3F45
Accurately ripped (confidence 3) [C55082F5] (AR v2)
Copy OK

Track 5

Filename F:\Extract\Ennio Morricone - Original Soundtracks 1964-2015 VOL.II (2022) [FLAC] {UMF5394965}\CD08\05 - Frantic- Frantic.wav

Peak level 97.7 %
Extraction speed 4.0 X
Track quality 100.0 %
Test CRC 37D0011F
Copy CRC 37D0011F
Accurately ripped (confidence 3) [AFAC29D3] (AR v2)
Copy OK

Track 6

Filename F:\Extract\Ennio Morricone - Original Soundtracks 1964-2015 VOL.II (2022) [FLAC] {UMF5394965}\CD08\06 - Frantic- On The Roofs Of Paris.wav

Peak level 97.7 %
Extraction speed 4.4 X
Track quality 100.0 %
Test CRC 271B4AAB
Copy CRC 271B4AAB
Accurately ripped (confidence 3) [32CF355D] (AR v2)
Copy OK

Track 7

Filename F:\Extract\Ennio Morricone - Original Soundtracks 1964-2015 VOL.II (2022) [FLAC] {UMF5394965}\CD08\07 - Frantic- In The Garage.wav

Peak level 97.7 %
Extraction speed 3.6 X
Track quality 99.9 %
Test CRC 7FA23A55
Copy CRC 7FA23A55
Accurately ripped (confidence 3) [F91247AB] (AR v2)
Copy OK

Track 8

Filename F:\Extract\Ennio Morricone - Original Soundtracks 1964-2015 VOL.II (2022) [FLAC] {UMF5394965}\CD08\08 - Frantic- One Flugelhorn.wav

Peak level 97.7 %
Extraction speed 3.5 X
Track quality 100.0 %
Test CRC 52C1EF1B
Copy CRC 52C1EF1B
Accurately ripped (confidence 3) [DF4D2946] (AR v2)
Copy OK

Track 9

Filename F:\Extract\Ennio Morricone - Original Soundtracks 1964-2015 VOL.II (2022) [FLAC] {UMF5394965}\CD08\09 - Frantic- Frantic.wav

Peak level 97.7 %
Extraction speed 4.8 X
Track quality 100.0 %
Test CRC 0DFFE669
Copy CRC 0DFFE669
Accurately ripped (confidence 3) [0EE89372] (AR v2)
Copy OK

Track 10

Filename F:\Extract\Ennio Morricone - Original Soundtracks 1964-2015 VOL.II (2022) [FLAC] {UMF5394965}\CD08\10 - Lolita- Lolita.wav

Peak level 95.8 %
Extraction speed 3.3 X
Track quality 99.9 %
Test CRC E9896213
Copy CRC E9896213
Accurately ripped (confidence 3) [CBCA1F26] (AR v2)
Copy OK

Track 11

Filename F:\Extract\Ennio Morricone - Original Soundtracks 1964-2015 VOL.II (2022) [FLAC] {UMF5394965}\CD08\11 - Lolita- Love In The Morning.wav

Peak level 97.7 %
Extraction speed 5.0 X
Track quality 100.0 %
Test CRC EF2B3682
Copy CRC EF2B3682
Accurately ripped (confidence 3) [9A63C726] (AR v2)
Copy OK

Track 12

Filename F:\Extract\Ennio Morricone - Original Soundtracks 1964-2015 VOL.II (2022) [FLAC] {UMF5394965}\CD08\12 - Lolita- Requiescant.wav

Peak level 97.7 %
Extraction speed 4.6 X
Track quality 100.0 %
Test CRC 62562D63
Copy CRC 62562D63
Accurately ripped (confidence 3) [CFDE61F8] (AR v2)
Copy OK

Track 13

Filename F:\Extract\Ennio Morricone - Original Soundtracks 1964-2015 VOL.II (2022) [FLAC] {UMF5394965}\CD08\13 - Lolita- Quilty.wav

Peak level 97.6 %
Extraction speed 5.4 X
Track quality 100.0 %
Test CRC 80E1C510
Copy CRC 80E1C510
Accurately ripped (confidence 3) [0092FD32] (AR v2)
Copy OK

Track 14

Filename F:\Extract\Ennio Morricone - Original Soundtracks 1964-2015 VOL.II (2022) [FLAC] {UMF5394965}\CD08\14 - Lolita- Lolita (Finale).wav

Peak level 97.4 %
Extraction speed 5.5 X
Track quality 100.0 %
Test CRC 3225985B
Copy CRC 3225985B
Accurately ripped (confidence 3) [C50AE98C] (AR v2)
Copy OK

Track 15

Filename F:\Extract\Ennio Morricone - Original Soundtracks 1964-2015 VOL.II (2022) [FLAC] {UMF5394965}\CD08\15 - U Turn- Grace.wav

Peak level 97.6 %
Extraction speed 5.8 X
Track quality 100.0 %
Test CRC E68AFDD0
Copy CRC E68AFDD0
Accurately ripped (confidence 3) [B3B42D9E] (AR v2)
Copy OK

Track 16

Filename F:\Extract\Ennio Morricone - Original Soundtracks 1964-2015 VOL.II (2022) [FLAC] {UMF5394965}\CD08\16 - U Turn- U Turn.wav

Peak level 97.7 %
Extraction speed 5.3 X
Track quality 100.0 %
Test CRC 7189C656
Copy CRC 7189C656
Accurately ripped (confidence 3) [CFC2C777] (AR v2)
Copy OK

Track 17

Filename F:\Extract\Ennio Morricone - Original Soundtracks 1964-2015 VOL.II (2022) [FLAC] {UMF5394965}\CD08\17 - U Turn- A Banjo In The Desert.wav

Peak level 95.9 %
Extraction speed 5.6 X
Track quality 100.0 %
Test CRC 9BF17E2E
Copy CRC 9BF17E2E
Accurately ripped (confidence 3) [7360B9EF] (AR v2)
Copy OK

Track 18

Filename F:\Extract\Ennio Morricone - Original Soundtracks 1964-2015 VOL.II (2022) [FLAC] {UMF5394965}\CD08\18 - U Turn- End Of Sheriff.wav

Peak level 97.7 %
Extraction speed 6.2 X
Track quality 100.0 %
Test CRC 43CDFE7C
Copy CRC 43CDFE7C
Accurately ripped (confidence 3) [E45233ED] (AR v2)
Copy OK

Track 19

Filename F:\Extract\Ennio Morricone - Original Soundtracks 1964-2015 VOL.II (2022) [FLAC] {UMF5394965}\CD08\19 - U Turn- Old Family Souvenirs.wav

Peak level 97.1 %
Extraction speed 6.1 X
Track quality 100.0 %
Test CRC 87B5D176
Copy CRC 87B5D176
Accurately ripped (confidence 3) [A53310F2] (AR v2)
Copy OK


All tracks accurately ripped

No errors occurred

End of status report

–– CUETools DB Plugin V2.1.6

[CTDB TOCID: UcDlTnd0fFTDMvnMtr01rcR5FbY-] found
Submit result: UcDlTnd0fFTDMvnMtr01rcR5FbY- has been confirmed
Track | CTDB Status
1 | (12/12) Accurately ripped
2 | (12/12) Accurately ripped
3 | (12/12) Accurately ripped
4 | (12/12) Accurately ripped
5 | (12/12) Accurately ripped
6 | (12/12) Accurately ripped
7 | (12/12) Accurately ripped
8 | (12/12) Accurately ripped
9 | (12/12) Accurately ripped
10 | (12/12) Accurately ripped
11 | (12/12) Accurately ripped
12 | (12/12) Accurately ripped
13 | (12/12) Accurately ripped
14 | (12/12) Accurately ripped
15 | (12/12) Accurately ripped
16 | (12/12) Accurately ripped
17 | (12/12) Accurately ripped
18 | (12/12) Accurately ripped
19 | (12/12) Accurately ripped


==== Log checksum 6FFD8C5BF0E243DB76E556153012ABBE874A50D61A231BC625E6D254A449C3B4 ====


Exact Audio Copy V1.6 from 23. October 2020

EAC extraction logfile from 5. June 2022, 23:10

Ennio Morricone / Original Soundtracks 1964-2015, VOL.II (Disc 11) - Television Series

Used drive : ASUS BW-16D1HT Adapter: 1 ID: 1

Read mode : Secure
Utilize accurate stream : Yes
Defeat audio cache : Yes
Make use of C2 pointers : No

Read offset correction : 6
Overread into Lead-In and Lead-Out : No
Fill up missing offset samples with silence : Yes
Delete leading and trailing silent blocks : No
Null samples used in CRC calculations : Yes
Used interface : Native Win32 interface for Win NT & 2000
Gap handling : Appended to previous track

Used output format : User Defined Encoder
Selected bitrate : 1024 kBit/s
Quality : High
Add ID3 tag : No
Command line compressor : C:\Program Files (x86)\Exact Audio Copy\Flac\flac.exe
Additional command line options : -8 -V -T "ARTIST=%artist%" -T "TITLE=%title%" -T "ALBUM=%albumtitle%" -T "DATE=%year%" -T "TRACKNUMBER=%tracknr%" -T "GENRE=%genre%" -T "PERFORMER=%albuminterpret%" -T "COMPOSER=%composer%" -T "ALBUMARTIST=%albumartist%" -T "DISCNUMBER=%cdnumber%" -T "TOTALDISCS=%totalcds%" -T "TOTALTRACKS=%numtracks%" -T "COMMENT=%comment%" %source% -o %dest%


TOC of the extracted CD

Track | Start | Length | Start sector | End sector
––––––––––––––––––––––––––––-
1 | 0:00.00 | 4:06.23 | 0 | 18472
2 | 4:06.23 | 3:11.01 | 18473 | 32798
3 | 7:17.24 | 6:34.01 | 32799 | 62349
4 | 13:51.25 | 5:58.17 | 62350 | 89216
5 | 19:49.42 | 5:02.22 | 89217 | 111888
6 | 24:51.64 | 4:27.65 | 111889 | 131978
7 | 29:19.54 | 3:08.53 | 131979 | 146131
8 | 32:28.32 | 2:31.67 | 146132 | 157523
9 | 35:00.24 | 4:08.02 | 157524 | 176125
10 | 39:08.26 | 4:29.71 | 176126 | 196371
11 | 43:38.22 | 4:29.37 | 196372 | 216583
12 | 48:07.59 | 3:05.26 | 216584 | 230484
13 | 51:13.10 | 2:55.59 | 230485 | 243668
14 | 54:08.69 | 3:45.57 | 243669 | 260600
15 | 57:54.51 | 3:10.12 | 260601 | 274862
16 | 61:04.63 | 1:48.39 | 274863 | 283001
17 | 62:53.27 | 4:29.64 | 283002 | 303240
18 | 67:23.16 | 2:34.23 | 303241 | 314813
19 | 69:57.39 | 4:28.42 | 314814 | 334955


Track 1

Filename F:\Extract\Ennio Morricone - Original Soundtracks 1964-2015 VOL.II (2022) [FLAC] {UMF5394965}\CD11\01 - Ennio Morricone & Dov Seltzer - Mosé (Moses The Lawgiver)- Tema Di Mosé (Titoli Di Testa).wav

Pre-gap length 0:00:02.00

Peak level 78.0 %
Extraction speed 1.5 X
Track quality 99.9 %
Test CRC A0DBD0CB
Copy CRC A0DBD0CB
Accurately ripped (confidence 3) [2F1A52F9] (AR v2)
Copy OK

Track 2

Filename F:\Extract\Ennio Morricone - Original Soundtracks 1964-2015 VOL.II (2022) [FLAC] {UMF5394965}\CD11\02 - Ennio Morricone - Mosé (Moses The Lawgiver)- Esodo Primo.wav

Peak level 78.1 %
Extraction speed 2.2 X
Track quality 100.0 %
Test CRC 22F23FD2
Copy CRC 22F23FD2
Accurately ripped (confidence 3) [C77FAFCF] (AR v2)
Copy OK

Track 3

Filename F:\Extract\Ennio Morricone - Original Soundtracks 1964-2015 VOL.II (2022) [FLAC] {UMF5394965}\CD11\03 - Ennio Morricone - Mosé (Moses The Lawgiver)- Battaglia E Mar Rosso.wav

Pre-gap length 0:00:00.01

Peak level 97.6 %
Extraction speed 2.5 X
Track quality 100.0 %
Test CRC D876EEF2
Copy CRC D876EEF2
Accurately ripped (confidence 3) [1EBBD039] (AR v2)
Copy OK

Track 4

Filename F:\Extract\Ennio Morricone - Original Soundtracks 1964-2015 VOL.II (2022) [FLAC] {UMF5394965}\CD11\04 - Ennio Morricone - Mosé (Moses The Lawgiver)- Lamentazione Prima.wav

Pre-gap length 0:00:00.01

Peak level 64.6 %
Extraction speed 2.2 X
Track quality 99.9 %
Test CRC BE523A3D
Copy CRC BE523A3D
Accurately ripped (confidence 3) [9BE8FF1F] (AR v2)
Copy OK

Track 5

Filename F:\Extract\Ennio Morricone - Original Soundtracks 1964-2015 VOL.II (2022) [FLAC] {UMF5394965}\CD11\05 - Ennio Morricone - Mosé (Moses The Lawgiver)- Israel.wav

Pre-gap length 0:00:00.01

Peak level 97.7 %
Extraction speed 2.8 X
Track quality 100.0 %
Test CRC B1C588E4
Copy CRC B1C588E4
Accurately ripped (confidence 3) [20CCD4AD] (AR v2)
Copy OK

Track 6

Filename F:\Extract\Ennio Morricone - Original Soundtracks 1964-2015 VOL.II (2022) [FLAC] {UMF5394965}\CD11\06 - Ennio Morricone & Dov Seltzer - Mosé (Moses The Lawgiver)- Tema Di Mosé (Viaggio).wav

Pre-gap length 0:00:00.01

Peak level 76.3 %
Extraction speed 2.9 X
Track quality 100.0 %
Test CRC A5998242
Copy CRC A5998242
Accurately ripped (confidence 3) [B4298B30] (AR v2)
Copy OK

Track 7

Filename F:\Extract\Ennio Morricone - Original Soundtracks 1964-2015 VOL.II (2022) [FLAC] {UMF5394965}\CD11\07 - Ennio Morricone - Mosé (Moses The Lawgiver)- Esodo Secondo.wav

Pre-gap length 0:00:00.01

Peak level 75.7 %
Extraction speed 2.7 X
Track quality 100.0 %
Test CRC F7D98839
Copy CRC F7D98839
Accurately ripped (confidence 3) [D2096E3E] (AR v2)
Copy OK

Track 8

Filename F:\Extract\Ennio Morricone - Original Soundtracks 1964-2015 VOL.II (2022) [FLAC] {UMF5394965}\CD11\08 - Ennio Morricone - Mosé (Moses The Lawgiver)- Le Quaglie.wav

Pre-gap length 0:00:00.01

Peak level 92.3 %
Extraction speed 2.6 X
Track quality 100.0 %
Test CRC 0F402D99
Copy CRC 0F402D99
Accurately ripped (confidence 3) [857CE965] (AR v2)
Copy OK

Track 9

Filename F:\Extract\Ennio Morricone - Original Soundtracks 1964-2015 VOL.II (2022) [FLAC] {UMF5394965}\CD11\09 - Ennio Morricone & Dov Seltzer - Mosé (Moses The Lawgiver)- Tema Di Mosé (Titoli Di Coda).wav

Pre-gap length 0:00:00.01

Peak level 69.6 %
Extraction speed 3.1 X
Track quality 100.0 %
Test CRC E4E4164D
Copy CRC E4E4164D
Accurately ripped (confidence 3) [4D2FEA43] (AR v2)
Copy OK

Track 10

Filename F:\Extract\Ennio Morricone - Original Soundtracks 1964-2015 VOL.II (2022) [FLAC] {UMF5394965}\CD11\10 - Ennio Morricone - Il Segreto Del Sahara (The Secret Of The Sahara)- Secret Of The Sahara.wav

Pre-gap length 0:00:00.01

Peak level 97.5 %
Extraction speed 3.0 X
Track quality 100.0 %
Test CRC 7BB40954
Copy CRC 7BB40954
Accurately ripped (confidence 3) [81F3D3BA] (AR v2)
Copy OK

Track 11

Filename F:\Extract\Ennio Morricone - Original Soundtracks 1964-2015 VOL.II (2022) [FLAC] {UMF5394965}\CD11\11 - Ennio Morricone - Il Segreto Del Sahara (The Secret Of The Sahara)- Red Ghosts.wav

Pre-gap length 0:00:00.01

Peak level 97.7 %
Extraction speed 3.4 X
Track quality 100.0 %
Test CRC 63AE1859
Copy CRC 63AE1859
Accurately ripped (confidence 3) [FA3584AE] (AR v2)
Copy OK

Track 12

Filename F:\Extract\Ennio Morricone - Original Soundtracks 1964-2015 VOL.II (2022) [FLAC] {UMF5394965}\CD11\12 - Ennio Morricone - Il Segreto Del Sahara (The Secret Of The Sahara)- The Hawk.wav

Pre-gap length 0:00:00.01

Peak level 97.7 %
Extraction speed 3.5 X
Track quality 100.0 %
Test CRC C5D954A9
Copy CRC C5D954A9
Accurately ripped (confidence 3) [95B25644] (AR v2)
Copy OK

Track 13

Filename F:\Extract\Ennio Morricone - Original Soundtracks 1964-2015 VOL.II (2022) [FLAC] {UMF5394965}\CD11\13 - Ennio Morricone - Il Segreto Del Sahara (The Secret Of The Sahara)- Kerim.wav

Pre-gap length 0:00:00.01

Peak level 89.3 %
Extraction speed 2.9 X
Track quality 100.0 %
Test CRC 90EB0485
Copy CRC 90EB0485
Accurately ripped (confidence 3) [36BF95AB] (AR v2)
Copy OK

Track 14

Filename F:\Extract\Ennio Morricone - Original Soundtracks 1964-2015 VOL.II (2022) [FLAC] {UMF5394965}\CD11\14 - Ennio Morricone - Il Segreto Del Sahara (The Secret Of The Sahara)- Dance Of The Snakes.wav

Pre-gap length 0:00:00.01

Peak level 94.5 %
Extraction speed 2.7 X
Track quality 99.9 %
Test CRC 8E73B66E
Copy CRC 8E73B66E
Accurately ripped (confidence 3) [1E7B1ABB] (AR v2)
Copy OK

Track 15

Filename F:\Extract\Ennio Morricone - Original Soundtracks 1964-2015 VOL.II (2022) [FLAC] {UMF5394965}\CD11\15 - Ennio Morricone & Leonie Gane (Performed By Amii Stewart) - Il Segreto Del Sahara (The Secret Of The Sahara)- Saharan Dream.wav

Pre-gap length 0:00:00.01

Peak level 97.6 %
Extraction speed 3.6 X
Track quality 100.0 %
Test CRC C28FAC93
Copy CRC C28FAC93
Accurately ripped (confidence 3) [71A82767] (AR v2)
Copy OK

Track 16

Filename F:\Extract\Ennio Morricone - Original Soundtracks 1964-2015 VOL.II (2022) [FLAC] {UMF5394965}\CD11\16 - Ennio Morricone - Il Segreto Del Sahara (The Secret Of The Sahara)- Meeting Orso.wav

Pre-gap length 0:00:00.01

Peak level 87.4 %
Extraction speed 2.0 X
Track quality 99.9 %
Test CRC 44049B70
Copy CRC 44049B70
Accurately ripped (confidence 3) [D9DE8709] (AR v2)
Copy OK

Track 17

Filename F:\Extract\Ennio Morricone - Original Soundtracks 1964-2015 VOL.II (2022) [FLAC] {UMF5394965}\CD11\17 - Ennio Morricone - Il Segreto Del Sahara (The Secret Of The Sahara)- The Myth And The Adventure.wav

Pre-gap length 0:00:00.01

Peak level 97.7 %
Extraction speed 3.7 X
Track quality 100.0 %
Test CRC 3A8E4236
Copy CRC 3A8E4236
Accurately ripped (confidence 3) [8CB39046] (AR v2)
Copy OK

Track 18

Filename F:\Extract\Ennio Morricone - Original Soundtracks 1964-2015 VOL.II (2022) [FLAC] {UMF5394965}\CD11\18 - Ennio Morricone - Il Segreto Del Sahara (The Secret Of The Sahara)- Dance Of The Chess Game.wav

Pre-gap length 0:00:00.01

Peak level 76.0 %
Extraction speed 3.7 X
Track quality 100.0 %
Test CRC 57B63479
Copy CRC 57B63479
Accurately ripped (confidence 3) [DD2532E4] (AR v2)
Copy OK

Track 19

Filename F:\Extract\Ennio Morricone - Original Soundtracks 1964-2015 VOL.II (2022) [FLAC] {UMF5394965}\CD11\19 - Ennio Morricone - Il Segreto Del Sahara (The Secret Of The Sahara)- Secret Of The Sahara.wav

Pre-gap length 0:00:00.01

Peak level 97.7 %
Extraction speed 3.0 X
Track quality 99.9 %
Test CRC 2D38048A
Copy CRC 2D38048A
Accurately ripped (confidence 2) [E55656B0] (AR v2)
Copy OK


All tracks accurately ripped

No errors occurred

End of status report

–– CUETools DB Plugin V2.1.6

[CTDB TOCID: dee9j8Qfi8x7D7IaJj.KSDgm4GE-] found
Submit result: dee9j8Qfi8x7D7IaJj.KSDgm4GE- has been confirmed
Track | CTDB Status
1 | (12/12) Accurately ripped
2 | (12/12) Accurately ripped
3 | (12/12) Accurately ripped
4 | (12/12) Accurately ripped
5 | (12/12) Accurately ripped
6 | (12/12) Accurately ripped
7 | (12/12) Accurately ripped
8 | (12/12) Accurately ripped
9 | (12/12) Accurately ripped
10 | (12/12) Accurately ripped
11 | (12/12) Accurately ripped
12 | (12/12) Accurately ripped
13 | (12/12) Accurately ripped
14 | (12/12) Accurately ripped
15 | (12/12) Accurately ripped
16 | (12/12) Accurately ripped
17 | (12/12) Accurately ripped
18 | (12/12) Accurately ripped
19 | (12/12) Accurately ripped


==== Log checksum CAA784F45A9CC9D5B4CD5C52AEB94B24440F89D63972A24FD0AB3E6D3AF9A02E ====


Exact Audio Copy V1.6 from 23. October 2020

EAC extraction logfile from 6. June 2022, 1:14

Ennio Morricone / Original Soundtracks 1964-2015, VOL.II (Disc 14) - Songs, Arrangements And Covers

Used drive : ASUS BW-16D1HT Adapter: 1 ID: 1

Read mode : Secure
Utilize accurate stream : Yes
Defeat audio cache : Yes
Make use of C2 pointers : No

Read offset correction : 6
Overread into Lead-In and Lead-Out : No
Fill up missing offset samples with silence : Yes
Delete leading and trailing silent blocks : No
Null samples used in CRC calculations : Yes
Used interface : Native Win32 interface for Win NT & 2000
Gap handling : Appended to previous track

Used output format : User Defined Encoder
Selected bitrate : 1024 kBit/s
Quality : High
Add ID3 tag : No
Command line compressor : C:\Program Files (x86)\Exact Audio Copy\Flac\flac.exe
Additional command line options : -8 -V -T "ARTIST=%artist%" -T "TITLE=%title%" -T "ALBUM=%albumtitle%" -T "DATE=%year%" -T "TRACKNUMBER=%tracknr%" -T "GENRE=%genre%" -T "PERFORMER=%albuminterpret%" -T "COMPOSER=%composer%" -T "ALBUMARTIST=%albumartist%" -T "DISCNUMBER=%cdnumber%" -T "TOTALDISCS=%totalcds%" -T "TOTALTRACKS=%numtracks%" -T "COMMENT=%comment%" %source% -o %dest%


TOC of the extracted CD

Track | Start | Length | Start sector | End sector
––––––––––––––––––––––––––––-
1 | 0:00.00 | 5:13.11 | 0 | 23485
2 | 5:13.11 | 3:31.73 | 23486 | 39383
3 | 8:45.09 | 4:21.11 | 39384 | 58969
4 | 13:06.20 | 3:50.57 | 58970 | 76276
5 | 16:57.02 | 3:51.59 | 76277 | 93660
6 | 20:48.61 | 2:59.22 | 93661 | 107107
7 | 23:48.08 | 3:44.59 | 107108 | 123966
8 | 27:32.67 | 5:18.37 | 123967 | 147853
9 | 32:51.29 | 3:58.29 | 147854 | 165732
10 | 36:49.58 | 4:22.66 | 165733 | 185448
11 | 41:12.49 | 3:13.16 | 185449 | 199939
12 | 44:25.65 | 3:16.06 | 199940 | 214645
13 | 47:41.71 | 4:34.62 | 214646 | 235257
14 | 52:16.58 | 4:09.23 | 235258 | 253955
15 | 56:26.06 | 3:52.51 | 253956 | 271406
16 | 60:18.57 | 4:36.37 | 271407 | 292143


Track 1

Filename F:\Extract\Ennio Morricone - Original Soundtracks 1964-2015 VOL.II (2022) [FLAC] {UMF5394965}\CD14\01 - I Figli Morti.wav

Pre-gap length 0:00:02.00

Peak level 96.1 %
Extraction speed 3.7 X
Track quality 100.0 %
Test CRC 63E3542F
Copy CRC 63E3542F
Accurately ripped (confidence 3) [F6BBE06B] (AR v2)
Copy OK

Track 2

Filename F:\Extract\Ennio Morricone - Original Soundtracks 1964-2015 VOL.II (2022) [FLAC] {UMF5394965}\CD14\02 - TheBallad Of Sacco And Vanzetti.wav

Peak level 80.2 %
Extraction speed 4.0 X
Track quality 100.0 %
Test CRC 52C2B74B
Copy CRC 52C2B74B
Accurately ripped (confidence 3) [D56665AC] (AR v2)
Copy OK

Track 3

Filename F:\Extract\Ennio Morricone - Original Soundtracks 1964-2015 VOL.II (2022) [FLAC] {UMF5394965}\CD14\03 - Love Affair.wav

Peak level 90.2 %
Extraction speed 4.4 X
Track quality 100.0 %
Test CRC 2FDB8AD4
Copy CRC 2FDB8AD4
Accurately ripped (confidence 3) [573FCF43] (AR v2)
Copy OK

Track 4

Filename F:\Extract\Ennio Morricone - Original Soundtracks 1964-2015 VOL.II (2022) [FLAC] {UMF5394965}\CD14\04 - RodaViva (Rotativa).wav

Peak level 79.0 %
Extraction speed 3.8 X
Track quality 99.9 %
Test CRC 4AE70B57
Copy CRC 4AE70B57
Accurately ripped (confidence 3) [20EEDA50] (AR v2)
Copy OK

Track 5

Filename F:\Extract\Ennio Morricone - Original Soundtracks 1964-2015 VOL.II (2022) [FLAC] {UMF5394965}\CD14\05 - Cinéma Paradiso (Thème D'amour).wav

Peak level 97.7 %
Extraction speed 5.0 X
Track quality 100.0 %
Test CRC EE304FC6
Copy CRC EE304FC6
Accurately ripped (confidence 3) [9648C450] (AR v2)
Copy OK

Track 6

Filename F:\Extract\Ennio Morricone - Original Soundtracks 1964-2015 VOL.II (2022) [FLAC] {UMF5394965}\CD14\06 - Le Clan Des Siciliens.wav

Peak level 97.7 %
Extraction speed 3.9 X
Track quality 99.9 %
Test CRC DEF44FF1
Copy CRC DEF44FF1
Accurately ripped (confidence 3) [E356E6F0] (AR v2)
Copy OK

Track 7

Filename F:\Extract\Ennio Morricone - Original Soundtracks 1964-2015 VOL.II (2022) [FLAC] {UMF5394965}\CD14\07 - The Edge Of Love.wav

Peak level 97.7 %
Extraction speed 4.4 X
Track quality 99.9 %
Test CRC C7F19FD3
Copy CRC C7F19FD3
Accurately ripped (confidence 3) [4FF4A430] (AR v2)
Copy OK

Track 8

Filename F:\Extract\Ennio Morricone - Original Soundtracks 1964-2015 VOL.II (2022) [FLAC] {UMF5394965}\CD14\08 - A Flower's All You Need (Forse Basta).wav

Peak level 97.7 %
Extraction speed 6.0 X
Track quality 100.0 %
Test CRC 4E041538
Copy CRC 4E041538
Accurately ripped (confidence 3) [829DBE14] (AR v2)
Copy OK

Track 9

Filename F:\Extract\Ennio Morricone - Original Soundtracks 1964-2015 VOL.II (2022) [FLAC] {UMF5394965}\CD14\09 - Chetty's Lullaby.wav

Peak level 92.9 %
Extraction speed 4.9 X
Track quality 99.9 %
Test CRC F368F121
Copy CRC F368F121
Accurately ripped (confidence 3) [2F27D35A] (AR v2)
Copy OK

Track 10

Filename F:\Extract\Ennio Morricone - Original Soundtracks 1964-2015 VOL.II (2022) [FLAC] {UMF5394965}\CD14\10 - Il Buono, IlBrutto, Il Cattivo (The Good, The Bad And The Ugly).wav

Peak level 95.7 %
Extraction speed 6.4 X
Track quality 100.0 %
Test CRC EBD104DF
Copy CRC EBD104DF
Accurately ripped (confidence 3) [0F827339] (AR v2)
Copy OK

Track 11

Filename F:\Extract\Ennio Morricone - Original Soundtracks 1964-2015 VOL.II (2022) [FLAC] {UMF5394965}\CD14\11 - Devo Imparare.wav

Peak level 96.2 %
Extraction speed 4.9 X
Track quality 99.9 %
Test CRC 726EA142
Copy CRC 726EA142
Accurately ripped (confidence 3) [4EE5ADF7] (AR v2)
Copy OK

Track 12

Filename F:\Extract\Ennio Morricone - Original Soundtracks 1964-2015 VOL.II (2022) [FLAC] {UMF5394965}\CD14\12 - Flora.wav

Peak level 97.7 %
Extraction speed 6.5 X
Track quality 100.0 %
Test CRC B8C1EE33
Copy CRC B8C1EE33
Accurately ripped (confidence 3) [C65337FA] (AR v2)
Copy OK

Track 13

Filename F:\Extract\Ennio Morricone - Original Soundtracks 1964-2015 VOL.II (2022) [FLAC] {UMF5394965}\CD14\13 - LeCasse.wav

Peak level 83.6 %
Extraction speed 7.0 X
Track quality 100.0 %
Test CRC 42B22731
Copy CRC 42B22731
Accurately ripped (confidence 3) [DB8B0167] (AR v2)
Copy OK

Track 14

Filename F:\Extract\Ennio Morricone - Original Soundtracks 1964-2015 VOL.II (2022) [FLAC] {UMF5394965}\CD14\14 - I Gelsomini(Dementicare Palermo).wav

Peak level 95.9 %
Extraction speed 5.8 X
Track quality 99.9 %
Test CRC D0F42856
Copy CRC D0F42856
Accurately ripped (confidence 3) [7BC6B0AB] (AR v2)
Copy OK

Track 15

Filename F:\Extract\Ennio Morricone - Original Soundtracks 1964-2015 VOL.II (2022) [FLAC] {UMF5394965}\CD14\15 - Voyage De Noce.wav

Peak level 97.7 %
Extraction speed 7.3 X
Track quality 100.0 %
Test CRC AA7AB165
Copy CRC AA7AB165
Accurately ripped (confidence 3) [2AEE5C5E] (AR v2)
Copy OK

Track 16

Filename F:\Extract\Ennio Morricone - Original Soundtracks 1964-2015 VOL.II (2022) [FLAC] {UMF5394965}\CD14\16 - Inno Sussurato.wav

Peak level 97.7 %
Extraction speed 7.6 X
Track quality 100.0 %
Test CRC AE567C9B
Copy CRC AE567C9B
Accurately ripped (confidence 3) [5F331CA8] (AR v2)
Copy OK


All tracks accurately ripped

No errors occurred

End of status report

–– CUETools DB Plugin V2.1.6

[CTDB TOCID: 9hLLRE2W28lwb45wUQNdqqYSD2o-] found
Submit result: 9hLLRE2W28lwb45wUQNdqqYSD2o- has been confirmed
Track | CTDB Status
1 | (12/12) Accurately ripped
2 | (12/12) Accurately ripped
3 | (12/12) Accurately ripped
4 | (12/12) Accurately ripped
5 | (12/12) Accurately ripped
6 | (12/12) Accurately ripped
7 | (12/12) Accurately ripped
8 | (12/12) Accurately ripped
9 | (12/12) Accurately ripped
10 | (12/12) Accurately ripped
11 | (12/12) Accurately ripped
12 | (12/12) Accurately ripped
13 | (12/12) Accurately ripped
14 | (12/12) Accurately ripped
15 | (12/12) Accurately ripped
16 | (12/12) Accurately ripped


==== Log checksum 16C64CF611BB39C495DFD01E690595FD7E907644D45B4376C00C522228F120AB ====

Ennio Morricone - Musiques De Films = Colonne Sonore = Original Soundtracks 1964–2015 Vol. II (2022)