Tags
Language
Tags

Enoch Light and His Orchestra - Stereo 35/MM (1961) & Far Away Places (1961) [Reissue 2012]

Posted By: gribovar
Enoch Light and His Orchestra - Stereo 35/MM (1961) & Far Away Places (1961) [Reissue 2012]

Enoch Light and His Orchestra - Stereo 35/MM (1961) & Far Away Places (1961) [Reissue 2012]
EAC Rip | FLAC (image+.cue+log) - 402 MB | MP3 CBR 320 kbps (LAME 3.93) - 168 MB | Covers - 53 MB
Genre: Jazz, Big Band, Easy Listening | RAR 3% Rec. | Label: Sepia Records (SEPIA 1191)

This collection merges two of groovy easy listening pioneer Enoch Light's 1961 albums, the show tunes-centric Stereo 35MM and Far Away Places, a foray into the beginnings of exotica. Coming off of the enormous success of his Persuasive Percussion album series, Light's orchestra utilizes stereo field recording techniques that were pretty mind-blowing for the early '60s on both albums. Stereo 35MM is the stronger half of the collection, offering fully orchestrated instrumental versions of schmaltzy movie songs like "My Romance" and "Zing! Went the Strings of My Heart" recorded at Carnegie Hall. Far Away Places tends more toward the tiki torch environments of Martin Denny's Quiet Village-era exotica with less interesting results, marinated in vaguely Hawaiian influences with plenty of harpsichord and beatniky bongos.
Tracklist:

Stereo 35/MM (1961):
01. Heat Wave
02. The Man I Love
03. I've Got a Crush on You
04. All the Way
05. My Romance
06. You Do Something to Me
07. Zing Went the Strings of My Heart
08. Someone to Watch over Me
09. Love for Sale
10. I'll See You Again
11. I See Your Face Before Me
12. With a Song in My Heart

Far Away Places (1961):
13. Waltzing Matilda
14. Banana Boat Song
15. The Third Man Theme
16. Sunrise over Sumatra
17. Bali Ha'i
18. Mimi
19. Calcutta
20. The Cockeyed Mayor of Kaunakakai
21. Theme from the Sundowners
22. Lisbon Antigua
23. How Are Things in Glocca Morra?
24. The Poor People of Paris

Total time: 01:11:16

Exact Audio Copy V1.0 beta 3 from 29. August 2011

EAC extraction logfile from 18. December 2014, 23:24

Enoch Light / Stereo 35/MM & Far Away Places

Used drive : ASUS DRW-24B1LT Adapter: 5 ID: 1

Read mode : Secure
Utilize accurate stream : Yes
Defeat audio cache : Yes
Make use of C2 pointers : No

Read offset correction : 6
Overread into Lead-In and Lead-Out : No
Fill up missing offset samples with silence : Yes
Delete leading and trailing silent blocks : No
Null samples used in CRC calculations : Yes
Used interface : Native Win32 interface for Win NT & 2000

Used output format : User Defined Encoder
Selected bitrate : 768 kBit/s
Quality : High
Add ID3 tag : No
Command line compressor : C:\Program Files\Exact Audio Copy\Flac\flac.exe
Additional command line options : -8 -V -T "ARTIST=%artist%" -T "TITLE=%title%" -T "ALBUM=%albumtitle%" -T "DATE=%year%" -T "TRACKNUMBER=%tracknr%" -T "TOTALTRACKS=%numtracks%" -T "GENRE=%genre%" -T "ALBUMARTIST=%albumartist%" -T "ALBUM ARTIST=%albumartist%" -T "COMMENT=EAC Secure Mode, Test & Copy, AccurateRip, FLAC -8" %source%


TOC of the extracted CD

Track | Start | Length | Start sector | End sector
––––––––––––––––––––––––––––-
1 | 0:00.00 | 2:27.10 | 0 | 11034
2 | 2:27.10 | 4:17.49 | 11035 | 30358
3 | 6:44.59 | 2:55.55 | 30359 | 43538
4 | 9:40.39 | 3:47.57 | 43539 | 60620
5 | 13:28.21 | 3:07.68 | 60621 | 74713
6 | 16:36.14 | 2:54.45 | 74714 | 87808
7 | 19:30.59 | 2:34.05 | 87809 | 99363
8 | 22:04.64 | 3:18.67 | 99364 | 114280
9 | 25:23.56 | 3:24.32 | 114281 | 129612
10 | 28:48.13 | 3:04.67 | 129613 | 143479
11 | 31:53.05 | 3:45.10 | 143480 | 160364
12 | 35:38.15 | 3:02.70 | 160365 | 174084
13 | 38:41.10 | 2:15.62 | 174085 | 184271
14 | 40:56.72 | 2:38.37 | 184272 | 196158
15 | 43:35.34 | 2:33.23 | 196159 | 207656
16 | 46:08.57 | 2:33.33 | 207657 | 219164
17 | 48:42.15 | 3:04.47 | 219165 | 233011
18 | 51:46.62 | 2:13.22 | 233012 | 243008
19 | 54:00.09 | 2:19.51 | 243009 | 253484
20 | 56:19.60 | 2:40.33 | 253485 | 265517
21 | 59:00.18 | 3:21.57 | 265518 | 280649
22 | 62:22.00 | 2:26.34 | 280650 | 291633
23 | 64:48.34 | 4:01.60 | 291634 | 309768
24 | 68:50.19 | 2:25.58 | 309769 | 320701


Range status and errors

Selected range

Filename F:\audio\Enoch Light - Stereo 35-MM & Far Away Places.wav

Peak level 100.0 %
Extraction speed 5.8 X
Range quality 100.0 %
Test CRC E91926C0
Copy CRC E91926C0
Copy OK

No errors occurred


AccurateRip summary

Track 1 cannot be verified as accurate (confidence 4) [100A3577], AccurateRip returned [AC3BF990] (AR v2)
Track 2 cannot be verified as accurate (confidence 4) [924ACBED], AccurateRip returned [1CF63512] (AR v2)
Track 3 cannot be verified as accurate (confidence 4) [1F29E4BA], AccurateRip returned [06D56A86] (AR v2)
Track 4 cannot be verified as accurate (confidence 4) [F146F4E6], AccurateRip returned [54188CBC] (AR v2)
Track 5 cannot be verified as accurate (confidence 4) [0928FBD8], AccurateRip returned [517FB93A] (AR v2)
Track 6 cannot be verified as accurate (confidence 4) [CBD0F84B], AccurateRip returned [697D0C25] (AR v2)
Track 7 cannot be verified as accurate (confidence 4) [64EE3946], AccurateRip returned [87715380] (AR v2)
Track 8 cannot be verified as accurate (confidence 4) [03F74CA9], AccurateRip returned [FB85019B] (AR v2)
Track 9 cannot be verified as accurate (confidence 4) [01565E03], AccurateRip returned [8A3C2135] (AR v2)
Track 10 cannot be verified as accurate (confidence 4) [397D4E6E], AccurateRip returned [B2CB84B4] (AR v2)
Track 11 cannot be verified as accurate (confidence 4) [CD7BB397], AccurateRip returned [F62A0E92] (AR v2)
Track 12 cannot be verified as accurate (confidence 4) [0793C213], AccurateRip returned [A53FBD7F] (AR v2)
Track 13 cannot be verified as accurate (confidence 3) [F89B7E05], AccurateRip returned [55C5DF9E] (AR v2)
Track 14 cannot be verified as accurate (confidence 3) [90263BA5], AccurateRip returned [9ECD32D3] (AR v2)
Track 15 cannot be verified as accurate (confidence 3) [81252392], AccurateRip returned [B0DA21C5] (AR v2)
Track 16 cannot be verified as accurate (confidence 3) [56414F90], AccurateRip returned [52F91374] (AR v2)
Track 17 cannot be verified as accurate (confidence 3) [28E41DF9], AccurateRip returned [B57432E1] (AR v2)
Track 18 cannot be verified as accurate (confidence 3) [5E2E2DDA], AccurateRip returned [927853E9] (AR v2)
Track 19 cannot be verified as accurate (confidence 3) [B4460E6B], AccurateRip returned [D02CC033] (AR v2)
Track 20 cannot be verified as accurate (confidence 3) [3431377D], AccurateRip returned [58E7DF42] (AR v2)
Track 21 cannot be verified as accurate (confidence 3) [C6A2BF0D], AccurateRip returned [BA68A769] (AR v2)
Track 22 cannot be verified as accurate (confidence 3) [A41C0326], AccurateRip returned [79348158] (AR v2)
Track 23 cannot be verified as accurate (confidence 3) [EE463B03], AccurateRip returned [48499AFF] (AR v2)
Track 24 cannot be verified as accurate (confidence 3) [643AE318], AccurateRip returned [5A19E640] (AR v2)

No tracks could be verified as accurate
You may have a different pressing from the one(s) in the database

End of status report

–– CUETools DB Plugin V2.1.3

[CTDB TOCID: uT5aGP3pp2je.Qbm_WJDS1kRH_g-] found, Submit result: uT5aGP3pp2je.Qbm_WJDS1kRH_g- has been confirmed
[a2d2b192] (2/2) Accurately ripped


==== Log checksum F89DE86B924EEB109174B9AF3172386EA38E210AFE4C897EA3933510D6E76DDF ====

[CUETools log; Date: 17.12.2020 15:29:51; Version: 2.1.4]
[CTDB TOCID: uT5aGP3pp2je.Qbm_WJDS1kRH_g-] found.
Track | CTDB Status
1 | (7/7) Accurately ripped
2 | (7/7) Accurately ripped
3 | (7/7) Accurately ripped
4 | (7/7) Accurately ripped
5 | (7/7) Accurately ripped
6 | (7/7) Accurately ripped
7 | (7/7) Accurately ripped
8 | (7/7) Accurately ripped
9 | (7/7) Accurately ripped
10 | (7/7) Accurately ripped
11 | (7/7) Accurately ripped
12 | (7/7) Accurately ripped
13 | (7/7) Accurately ripped
14 | (7/7) Accurately ripped
15 | (7/7) Accurately ripped
16 | (7/7) Accurately ripped
17 | (7/7) Accurately ripped
18 | (7/7) Accurately ripped
19 | (7/7) Accurately ripped
20 | (7/7) Accurately ripped
21 | (7/7) Accurately ripped
22 | (7/7) Accurately ripped
23 | (7/7) Accurately ripped
24 | (7/7) Accurately ripped
[AccurateRip ID: 003f1599-0439d957-4510b418] found.
Track [ CRC | V2 ] Status
01 [5469fd47|100a3577] (0+2/9) Accurately ripped
02 [f07d3084|924acbed] (0+2/9) Accurately ripped
03 [8e37d2ab|1f29e4ba] (0+2/9) Accurately ripped
04 [7b3bd53e|f146f4e6] (0+2/9) Accurately ripped
05 [1098bdfc|0928fbd8] (0+2/9) Accurately ripped
06 [9c77d63f|cbd0f84b] (0+2/9) Accurately ripped
07 [f993384f|64ee3946] (0+2/9) Accurately ripped
08 [605b329b|03f74ca9] (0+2/9) Accurately ripped
09 [416f091a|01565e03] (0+2/9) Accurately ripped
10 [cc384d36|397d4e6e] (0+2/9) Accurately ripped
11 [225c614f|cd7bb397] (0+2/9) Accurately ripped
12 [67410422|0793c213] (0+2/9) Accurately ripped
13 [e4ddec88|f89b7e05] (0+2/8) Accurately ripped
14 [c172c793|90263ba5] (0+2/8) Accurately ripped
15 [c1edfd96|81252392] (0+2/8) Accurately ripped
16 [7c003d87|56414f90] (0+2/8) Accurately ripped
17 [cf007e14|28e41df9] (0+2/8) Accurately ripped
18 [811ac450|5e2e2dda] (0+2/8) Accurately ripped
19 [1b1b382b|b4460e6b] (0+2/8) Accurately ripped
20 [5ae71540|3431377d] (0+2/8) Accurately ripped
21 [717118a9|c6a2bf0d] (0+2/8) Accurately ripped
22 [c1146fd5|a41c0326] (0+2/8) Accurately ripped
23 [5052716d|ee463b03] (0+2/8) Accurately ripped
24 [d06196d3|643ae318] (0+2/8) Accurately ripped
Offsetted by -12:
01 [ee53464b] (0/9) No match (V2 was not tested)
02 [771de004] (0/9) No match (V2 was not tested)
03 [7327d0db] (0/9) No match (V2 was not tested)
04 [da697c7a] (0/9) No match (V2 was not tested)
05 [55f88334] (0/9) No match (V2 was not tested)
06 [37659a37] (0/9) No match (V2 was not tested)
07 [19b0862b] (0/9) No match (V2 was not tested)
08 [54c7d72f] (0/9) No match (V2 was not tested)
09 [c72125f6] (0/9) No match (V2 was not tested)
10 [429d3572] (0/9) No match (V2 was not tested)
11 [477fa13b] (0/9) No match (V2 was not tested)
12 [020840c2] (0/9) No match (V2 was not tested)
13 [3fedfcec] (0/8) No match (V2 was not tested)
14 [cda46973] (0/8) No match (V2 was not tested)
15 [ef45234a] (0/8) No match (V2 was not tested)
16 [765687cf] (0/8) No match (V2 was not tested)
17 [58ab1e30] (0/8) No match (V2 was not tested)
18 [b355e6c0] (0/8) No match (V2 was not tested)
19 [34dc68a3] (0/8) No match (V2 was not tested)
20 [7d1d6984] (0/8) No match (V2 was not tested)
21 [6212e1cd] (0/8) No match (V2 was not tested)
22 [93e98eb1] (0/8) No match (V2 was not tested)
23 [a683fea9] (0/8) No match (V2 was not tested)
24 [c3f9f5df] (0/8) No match (V2 was not tested)

Track Peak [ CRC32 ] [W/O NULL] [ LOG ]
– 100,0 [E91926C0] [BD5802D3] CRC32
01 87,5 [FAC95D95] [C861721E]
02 99,0 [C0472ACA] [B221B106]
03 99,8 [7E237C5F] [6E227559]
04 79,5 [9B38B996] [B5DEFD64]
05 97,2 [4E3B73A2] [30F16E21]
06 95,5 [58501B5C] [E5FD3594]
07 98,1 [6A3B7BFB] [1B488E17]
08 87,8 [9FD2FD3D] [73F2160C]
09 94,6 [DEC5FABF] [C88C28E6]
10 94,4 [DB4F5AF8] [776E1D7B]
11 99,4 [616F2D9F] [4E2848DC]
12 99,7 [C34ACC99] [A6E9D73C]
13 97,4 [EB510722] [7AC915E0]
14 99,3 [E69A2EAC] [A4776510]
15 99,8 [DFB827C6] [D31855ED]
16 83,1 [C62B0F2F] [D0222A76]
17 99,2 [612E637B] [E5E424BB]
18 99,9 [6B9E747A] [F7605483]
19 87,4 [F29C7070] [D8DABE96]
20 100,0 [3E1B16FC] [45F54F41]
21 89,9 [453CEAF0] [94371FCC]
22 100,0 [D0FA1136] [72F079D9]
23 66,9 [EEB21E1D] [BD0D53CF]
24 79,6 [55FC3566] [8EF4CF1B]

Thanks to fiks22

See also:
Enoch Light and The Light Brig...brations (1962) [Reissue 2013]
Enoch Light and His Orchestra ...s Vol. 2 (1963) [Reissue 2013]
Enoch Light - Big Band Bossa N...ssa Nova (1963) [Reissue 2013]