Subcategories

Enrique Iglesias - Greatest Hits (2008) Japanese Edition [Re-Up]

Posted By: Designol
Enrique Iglesias - Greatest Hits (2008) Japanese Edition [Re-Up]

Enrique Iglesias - Greatest Hits (2008) [Japanese Edition]
EAC | FLAC | Image (Cue&Log) ~ 551 Mb | Mp3 (CBR320) ~ 177 Mb | Scans ~ 95 Mb
Pop, Dance-Pop, Latin Pop | Label: Interscope/Universal | # UICS-1181 | Time: 01:17:29

It should come as no surprise that Enrique Iglesias' 2008 Greatest Hits begins in 1999, when he made the leap from the Latin market into the mainstream. All his very successful '90s albums on Fonovisa are bypassed, written off as prehistory, so the spotlight shines only on his English-language singles of the new millennium: the club tracks and syrupy slow songs that gave him a significant number of crossover hits. With the exception of a couple of minor blips on the charts like 2000's "Sad Eyes," all these are here, starting with 1999's "Bailamos" and "The Rhythm Divine," running through 2000's "Be with You" and 2001's "Hero," stopping for 2004's "Not in Love," winding up with 2007's "Do You Know? (The Ping Pong Song)" and wrapping up with two new duets, "Away" with Sean Garrett and "Takin' Back My Love" with Ciara. While this approach may lop off half of his career, it also does exactly what hits collections should do: it gives the casual listener the hits they want to hear and nothing else.

Review by Stephen Thomas Erlewine, Allmusic.com

Enrique Iglesias - Greatest Hits (2008) Japanese Edition [Re-Up]



Tracklist:

01. Bailamos (03:33)
02. Away [feat. Sean Garrett] (03:59)
03. Hero (04:24)
04. Be With You (03:40)
05. Takin' Back My Love [feat. Ciara] (03:50)
06. Rhythm Divine (03:29)
07. Do You Know? (03:38)
08. Tired Of Being Sorry (04:01)
09. Escape (03:28)
10. Could I Have This Kiss Forever [Whitney Houston & Enrique Iglesias] (03:55)
11. Not In Love [feat. Kelis] (03:41)
12. Don't Turn Off The Lights (03:47)
13. Love To See You Cry (04:07)
14. Maybe (03:14)
15. Addicted (05:01)
16. Somebody's Me (03:58)
17. Can You Hear Me (03:43)
18. Miss You [Nadiya & Enrique Iglesias] (04:01)
19. Hero (Christopher Lawrence Remix) (07:51)


Exact Audio Copy V1.0 beta 3 from 29. August 2011

Отчёт EAC об извлечении, выполненном 5. января 2015, 23:06

Enrique Iglesias / Greatest Hits (Japan)

Дисковод: TSSTcorpCDDVDW TS-L632H Adapter: 1 ID: 0

Режим чтения : Достоверность
Использование точного потока : Да
Отключение кэша аудио : Да
Использование указателей C2 : Нет

Коррекция смещения при чтении : 6
Способность читать области Lead-in и Lead-out : Нет
Заполнение пропущенных сэмплов тишиной : Да
Удаление блоков с тишиной в начале и конце : Нет
При вычислениях CRC использовались нулевые сэмплы : Да
Интерфейс : Встроенный Win32-интерфейс для Win NT/2000

Выходной формат : Пользовательский кодировщик
Выбранный битрейт : 128 kBit/s
Качество : Высокий
Добавление ID3-тега : Нет
Утилита сжатия : C:\Program Files\Exact Audio Copy\Flac\flac.exe
Дополнительные параметры : -V -8 -T "Date=%year%" -T "Genre=%genre%" %source%


TOC извлечённого CD

Трек | Старт | Длительность | Начальный сектор | Конечный сектор
––––––––––––––––––––––––––––––––––-
1 | 0:00.00 | 3:33.12 | 0 | 15986
2 | 3:33.12 | 3:59.33 | 15987 | 33944
3 | 7:32.45 | 4:24.22 | 33945 | 53766
4 | 11:56.67 | 3:40.34 | 53767 | 70300
5 | 15:37.26 | 3:50.38 | 70301 | 87588
6 | 19:27.64 | 3:29.41 | 87589 | 103304
7 | 22:57.30 | 3:38.38 | 103305 | 119692
8 | 26:35.68 | 4:01.63 | 119693 | 137830
9 | 30:37.56 | 3:28.38 | 137831 | 153468
10 | 34:06.19 | 3:55.04 | 153469 | 171097
11 | 38:01.23 | 3:41.59 | 171098 | 187731
12 | 41:43.07 | 3:47.39 | 187732 | 204795
13 | 45:30.46 | 4:07.15 | 204796 | 223335
14 | 49:37.61 | 3:14.65 | 223336 | 237950
15 | 52:52.51 | 5:01.68 | 237951 | 260593
16 | 57:54.44 | 3:58.55 | 260594 | 278498
17 | 61:53.24 | 3:43.27 | 278499 | 295250
18 | 65:36.51 | 4:01.14 | 295251 | 313339
19 | 69:37.65 | 7:51.10 | 313340 | 348674


Характеристики диапазона извлечения и сообщения об ошибках

Выбранный диапазон

Имя файла C:\My Rips\Audio\Enrique Iglesias - Greatest Hits (Japan) (2008)\Enrique Iglesias - Greatest Hits (Japan).wav

Пиковый уровень 99.9 %
Скорость извлечения 4.4 X
Качество диапазона 99.9 %
CRC теста CA62DB31
CRC копии CA62DB31
Копирование… OK

Ошибок не произошло


AccurateRip: сводка

Трек 1 отсутствует в базе данных
Трек 2 отсутствует в базе данных
Трек 3 отсутствует в базе данных
Трек 4 отсутствует в базе данных
Трек 5 отсутствует в базе данных
Трек 6 отсутствует в базе данных
Трек 7 отсутствует в базе данных
Трек 8 отсутствует в базе данных
Трек 9 отсутствует в базе данных
Трек 10 отсутствует в базе данных
Трек 11 отсутствует в базе данных
Трек 12 отсутствует в базе данных
Трек 13 отсутствует в базе данных
Трек 14 отсутствует в базе данных
Трек 15 отсутствует в базе данных
Трек 16 отсутствует в базе данных
Трек 17 отсутствует в базе данных
Трек 18 отсутствует в базе данных
Трек 19 отсутствует в базе данных

Ни одного трека нет в базе AccurateRip

Конец отчёта

==== Контрольная сумма отчёта 793DD4F978F9704EAD2CD96F6C3F4A009BE3F6A502BF87D77AC07A30C1987AB1 ====

foobar2000 1.2 / Dynamic Range Meter 1.1.1
log date: 2015-02-07 18:48:08

––––––––––––––––––––––––––––––––––––––––
Analyzed: Enrique Iglesias / Greatest Hits (Japan)
––––––––––––––––––––––––––––––––––––––––

DR Peak RMS Duration Track
––––––––––––––––––––––––––––––––––––––––
DR5 -0.07 dB -6.89 dB 3:33 01-Bailamos
DR6 -0.10 dB -8.75 dB 3:59 02-Away [feat. Sean Garrett]
DR5 -0.10 dB -8.77 dB 4:24 03-Hero
DR6 -0.10 dB -7.46 dB 3:40 04-Be With You
DR6 -0.10 dB -6.98 dB 3:51 05-Takin' Back My Love [feat. Ciara]
DR4 -0.10 dB -6.03 dB 3:30 06-Rhythm Divine
DR5 -0.10 dB -7.06 dB 3:39 07-Do You Know?
DR6 -0.10 dB -7.81 dB 4:02 08-Tired Of Being Sorry
DR6 -0.10 dB -8.32 dB 3:29 09-Escape
DR7 -0.10 dB -8.37 dB 3:55 10-Could I Have This Kiss Forever [Whitney Houston & Enrique Iglesias]
DR6 -0.20 dB -8.32 dB 3:42 11-Not In Love [feat. Kelis]
DR5 -0.10 dB -7.42 dB 3:48 12-Don't Turn Off The Lights
DR5 -0.10 dB -6.94 dB 4:07 13-Love To See You Cry
DR4 -0.10 dB -5.66 dB 3:15 14-Maybe
DR5 -0.25 dB -7.97 dB 5:02 15-Addicted
DR8 0.00 dB -9.96 dB 3:59 16-Somebody's Me
DR4 -0.21 dB -5.95 dB 3:43 17-Can You Hear Me
DR7 -0.01 dB -9.94 dB 4:01 18-Miss You [Nadiya & Enrique Iglesias]
DR4 -0.01 dB -7.55 dB 7:51 19-Hero (Christopher Lawrence Remix)
––––––––––––––––––––––––––––––––––––––––

Number of tracks: 19
Official DR value: DR6

Samplerate: 44100 Hz
Channels: 2
Bits per sample: 16
Bitrate: 995 kbps
Codec: FLAC
================================================================================

Enrique Iglesias - Greatest Hits (2008) Japanese Edition [Re-Up]

Enrique Iglesias - Greatest Hits (2008) Japanese Edition [Re-Up]

All thanks to original releaser - serg-82

More interesting music in My Blog