Subcategories
Tags
Language
Tags

Era - The 7th Sword (2017) (Proper)

Posted By: gribovar
Era - The 7th Sword (2017) (Proper)

Era - The 7th Sword (2017)
EAC Rip | FLAC (tracks+.cue+log) - 219 MB | MP3 CBR 320 kbps (LAME 3.93) - 85 MB | Covers - 913 MB
Genre: New Age, Enigmatic, Electronic, Pop | RAR 3% Rec. | Label: Decca (0602557941173(86))

The legendary musical project Era come back with album "The 7th Sword". Through this new opus of original compositions, its creator Eric Levi proves once again that he is free from all musical dictates and still creates surprise. His music carries the listener into another dimension, with an imaginary language and a timeless sound that has already fascinated more than 10 million people around the world. This 7th album also features a new remix of the famous song "Ameno" to mark its 20th anniversary.
Tracklist:
01. Hurricane
02. 7 Seconds
03. Kilimandjaro (Brian Levi Remix)
04. Ameno (The City Remix)
05. I Fall For You
06. Something Exciting
07. Agnus Deorem
08. Nomen Adore
09. I Believe (feat. Racha Rizk)

Total time: 34:35

Exact Audio Copy V1.3 from 2. September 2016

EAC extraction logfile from 26. March 2018, 17:39

Era / The 7th Sword (PL)

Used drive : ASUS SDRW-08D2S-U Adapter: 1 ID: 1

Read mode : Secure
Utilize accurate stream : Yes
Defeat audio cache : Yes
Make use of C2 pointers : No

Read offset correction : 6
Overread into Lead-In and Lead-Out : No
Fill up missing offset samples with silence : Yes
Delete leading and trailing silent blocks : No
Null samples used in CRC calculations : Yes
Used interface : Native Win32 interface for Win NT & 2000
Gap handling : Appended to previous track

Used output format : User Defined Encoder
Selected bitrate : 1024 kBit/s
Quality : High
Add ID3 tag : No
Command line compressor : C:\Program Files (x86)\Exact Audio Copy\FLAC\FLAC.EXE
Additional command line options : -8 -V -T "ARTIST=%artist%" -T "TITLE=%title%" -T "ALBUM=%albumtitle%" -T "DATE=%year%" -T "TRACKNUMBER=%tracknr%" -T "GENRE=%genre%" -T "ALBUMARTIST=%albumartist%" -T "DISCNUMBER=%cdnumber%" -T "TOTALDISCS=%totalcds%" -T "TOTALTRACKS=%numtracks%" %source%


TOC of the extracted CD

Track | Start | Length | Start sector | End sector
––––––––––––––––––––––––––––-
1 | 0:00.00 | 3:17.69 | 0 | 14843
2 | 3:17.69 | 4:03.68 | 14844 | 33136
3 | 7:21.62 | 3:59.54 | 33137 | 51115
4 | 11:21.41 | 3:35.08 | 51116 | 67248
5 | 14:56.49 | 3:35.17 | 67249 | 83390
6 | 18:31.66 | 4:23.25 | 83391 | 103140
7 | 22:55.16 | 3:45.39 | 103141 | 120054
8 | 26:40.55 | 3:36.58 | 120055 | 136312
9 | 30:17.38 | 4:17.39 | 136313 | 155626


Track 1

Filename D:\Era - The 7th Sword (PL) (2017)\01-Era feat. Mim Grey & Keith Murrel-Hurricane.wav

Pre-gap length 0:00:02.00

Peak level 97.6 %
Extraction speed 1.0 X
Track quality 100.0 %
Test CRC F3241A22
Copy CRC F3241A22
Accurately ripped (confidence 4) [8265C380] (AR v2)
Copy OK

Track 2

Filename D:\Era - The 7th Sword (PL) (2017)\02-Era feat. Mim Grey & Racha Rizk-7 Seconds.wav

Peak level 97.6 %
Extraction speed 1.2 X
Track quality 100.0 %
Test CRC 9CBB1577
Copy CRC 9CBB1577
Accurately ripped (confidence 4) [FB84086B] (AR v2)
Copy OK

Track 3

Filename D:\Era - The 7th Sword (PL) (2017)\03-Era feat. Liam Gerner-Kilimandjaro (Brian Levi Remix).wav

Peak level 99.9 %
Extraction speed 1.3 X
Track quality 100.0 %
Test CRC A6959E6F
Copy CRC A6959E6F
Accurately ripped (confidence 4) [92A2E13D] (AR v2)
Copy OK

Track 4

Filename D:\Era - The 7th Sword (PL) (2017)\04-Era-Ameno (The City Remix).wav

Peak level 97.9 %
Extraction speed 1.2 X
Track quality 99.9 %
Test CRC 8FA18422
Copy CRC 8FA18422
Accurately ripped (confidence 4) [58AA8153] (AR v2)
Copy OK

Track 5

Filename D:\Era - The 7th Sword (PL) (2017)\05-Era feat. Amoria & Racha Rizk-I Fall For You.wav

Peak level 98.2 %
Extraction speed 1.5 X
Track quality 100.0 %
Test CRC 30103127
Copy CRC 30103127
Accurately ripped (confidence 4) [FD42307D] (AR v2)
Copy OK

Track 6

Filename D:\Era - The 7th Sword (PL) (2017)\06-Era feat. Lena Jinnegren-Something Exciting.wav

Peak level 98.1 %
Extraction speed 1.6 X
Track quality 100.0 %
Test CRC 7B618ADF
Copy CRC 7B618ADF
Accurately ripped (confidence 4) [E485FE42] (AR v2)
Copy OK

Track 7

Filename D:\Era - The 7th Sword (PL) (2017)\07-Era feat. Racha Rizk-Agnus Deorem.wav

Peak level 97.9 %
Extraction speed 1.7 X
Track quality 100.0 %
Test CRC 042EC678
Copy CRC 042EC678
Accurately ripped (confidence 4) [3E01018A] (AR v2)
Copy OK

Track 8

Filename D:\Era - The 7th Sword (PL) (2017)\08-Era feat. Lena Jinnegren-Nomen Adore.wav

Peak level 97.6 %
Extraction speed 1.5 X
Track quality 99.9 %
Test CRC E6A21695
Copy CRC E6A21695
Accurately ripped (confidence 4) [1DD0AFCC] (AR v2)
Copy OK

Track 9

Filename D:\Era - The 7th Sword (PL) (2017)\09-Era feat. Racha Rizk-I Believe.wav

Peak level 97.8 %
Extraction speed 1.8 X
Track quality 100.0 %
Test CRC 1255C517
Copy CRC 1255C517
Accurately ripped (confidence 4) [469FEE68] (AR v2)
Copy OK


All tracks accurately ripped

No errors occurred

End of status report

–– CUETools DB Plugin V2.1.6

[CTDB TOCID: YK5NSJccfjEWuoIQlgGx.1jLjrw-] found
Submit result: already submitted
Track | CTDB Status
1 | (28/28) Accurately ripped
2 | (28/28) Accurately ripped
3 | (28/28) Accurately ripped
4 | (28/28) Accurately ripped
5 | (28/28) Accurately ripped
6 | (28/28) Accurately ripped
7 | (28/28) Accurately ripped
8 | (28/28) Accurately ripped
9 | (28/28) Accurately ripped


==== Log checksum 764168F2FDB7E8E1E6CACFDFDDE8C4EFBF59667DFE7BA11CAB77763C786E3A79 ====

[CUETools log; Date: 31.05.2021 13:07:05; Version: 2.1.4]
[CTDB TOCID: YK5NSJccfjEWuoIQlgGx.1jLjrw-] found.
Track | CTDB Status
1 | (61/61) Accurately ripped
2 | (61/61) Accurately ripped
3 | (60/61) Accurately ripped
4 | (60/61) Accurately ripped
5 | (60/61) Accurately ripped
6 | (61/61) Accurately ripped
7 | (61/61) Accurately ripped
8 | (61/61) Accurately ripped
9 | (61/61) Accurately ripped
[AccurateRip ID: 000babc9-0055fe55-7e081b09] found.
Track [ CRC | V2 ] Status
01 [9c9012a7|8265c380] (00+09/13) Accurately ripped
02 [a5383e9f|fb84086b] (00+09/13) Accurately ripped
03 [75d8e3c9|92a2e13d] (00+09/13) Accurately ripped
04 [89a16e28|58aa8153] (00+10/14) Accurately ripped
05 [34def1e5|fd42307d] (00+09/13) Accurately ripped
06 [6e041140|e485fe42] (00+09/13) Accurately ripped
07 [86ce067c|3e01018a] (00+09/13) Accurately ripped
08 [95243b16|1dd0afcc] (00+09/13) Accurately ripped
09 [977b3a8a|469fee68] (00+09/13) Accurately ripped
Offsetted by -6:
01 [8f5b6005] (00/13) No match (V2 was not tested)
02 [adbc9e44] (00/13) No match (V2 was not tested)
03 [f2db3ce1] (00/13) No match (V2 was not tested)
04 [385d37af] (00/14) No match (V2 was not tested)
05 [302a52e7] (00/13) No match (V2 was not tested)
06 [2d5e4a5d] (00/13) No match (V2 was not tested)
07 [a9c6694b] (00/13) No match (V2 was not tested)
08 [738474ff] (00/13) No match (V2 was not tested)
09 [0318f72b] (00/13) No match (V2 was not tested)

Track Peak [ CRC32 ] [W/O NULL] [ LOG ]
– 99,9 [61B2027C] [53C0AB59]
01 97,6 [F3241A22] [49CDFE5C] CRC32
02 97,6 [9CBB1577] [47ECCB10] CRC32
03 99,9 [A6959E6F] [5A1CBE0B] CRC32
04 97,9 [8FA18422] [4BC8E1D8] CRC32
05 98,2 [30103127] [4ADDB65E] CRC32
06 98,1 [7B618ADF] [9B563CB4] CRC32
07 97,9 [042EC678] [64C559BA] CRC32
08 97,6 [E6A21695] [EC8A8B42] CRC32
09 97,8 [1255C517] [FBACB9FA] CRC32

Thanks to Ragnaroczek