Subcategories
Tags
Language
Tags

Erasure - Phantom Bride EP (2009)

Posted By: gribovar
Erasure - Phantom Bride EP (2009)

Erasure - Phantom Bride EP (2009)
EAC Rip | FLAC (tracks+.cue+log) - 318 MB | MP3 CBR 320 kbps (LAME 3.93) - 107 MB | Covers - 66 MB
Genre: Synthpop | RAR 3% Rec. | Label: Mute (CDMUTE420)

Phantom Bride is a remix EP by Erasure. It was released by Mute Records 12 October 2009 to commemorate the release of the 21st anniversary edition of The Innocents. The EP includes a remastered version of the title track plus brand new remixes including Vince Clarke's Big Mix of Hallowed Ground, Almighty's 12 Essential Mix of the single Chains Of Love and FrankMusik's mix of the title track, Phantom Bride.
Tracklist:
01. Phantom Bride (2009 Re-Master)
02. Hallowed Ground (Vince Clarke's Big-Mix)
03. Chains Of Love (Almighty 12" Essential Mix)
04. Phantom Bride (Ghostly Groom Dub By FrankMusik)
05. A Little Respect (Wayne G & Andy Allder Hurdy Gurdy Club Mix)
06. Heart Of Stone (Joebot's 'Ounce Of Bounce' Remix)
07. Phantom Bride (Dogmatix's '12" Tearless' Mix)
08. Chains Of Love (Plastic Operator Remix)

Total time: 44:29

Exact Audio Copy V1.3 from 2. September 2016

EAC extraction logfile from 25. January 2019, 22:58

Erasure / Phantom Bride EP

Used drive : PIONEER DVD-RW DVR-221L Adapter: 1 ID: 1

Read mode : Secure
Utilize accurate stream : Yes
Defeat audio cache : Yes
Make use of C2 pointers : No

Read offset correction : 6
Overread into Lead-In and Lead-Out : No
Fill up missing offset samples with silence : Yes
Delete leading and trailing silent blocks : No
Null samples used in CRC calculations : Yes
Used interface : Native Win32 interface for Win NT & 2000
Gap handling : Appended to previous track

Used output format : User Defined Encoder
Selected bitrate : 1024 kBit/s
Quality : High
Add ID3 tag : No
Command line compressor : C:\Program Files (x86)\Exact Audio Copy\FLAC\FLAC.EXE
Additional command line options : -6 -V -T "COMMENT=Ripped by RRC" -T "ARTIST=%artist%" -T "TITLE=%title%" -T "ALBUM=%albumtitle%" -T "DATE=%year%" -T "TRACKNUMBER=%tracknr%" -T "GENRE=%genre%" -T "BAND=%albuminterpret%" -T "ALBUMARTIST=%albuminterpret%" -T "COMPOSER=%composer%" %haslyrics%–tag-from-file=LYRICS="%lyricsfile%"%haslyrics% -T "DISCNUMBER=%cdnumber%" -T "TOTALDISCS=%totalcds%" -T "TOTALTRACKS=%numtracks%" %hascover%–picture="%coverfile%"%hascover% %source%


TOC of the extracted CD

Track | Start | Length | Start sector | End sector
––––––––––––––––––––––––––––-
1 | 0:00.00 | 3:33.60 | 0 | 16034
2 | 3:33.60 | 3:59.74 | 16035 | 34033
3 | 7:33.59 | 7:10.22 | 34034 | 66305
4 | 14:44.06 | 3:43.73 | 66306 | 83103
5 | 18:28.04 | 7:32.28 | 83104 | 117031
6 | 26:00.32 | 6:25.03 | 117032 | 145909
7 | 32:25.35 | 6:10.52 | 145910 | 173711
8 | 38:36.12 | 5:52.72 | 173712 | 200183


Track 1

Filename E:\RRCLtd Rip\01-Phantom Bride (2009 Re-Master).wav

Pre-gap length 0:00:02.00

Peak level 100.0 %
Extraction speed 1.9 X
Track quality 99.9 %
Test CRC 5A4FF563
Copy CRC 5A4FF563
Accurately ripped (confidence 17) [044F494A] (AR v2)
Copy OK

Track 2

Filename E:\RRCLtd Rip\02-Hallowed Ground (Vince Clarke's Big-Mix).wav

Pre-gap length 0:00:01.51

Peak level 100.0 %
Extraction speed 2.2 X
Track quality 99.9 %
Test CRC F85769B7
Copy CRC F85769B7
Accurately ripped (confidence 17) [F61F850E] (AR v2)
Copy OK

Track 3

Filename E:\RRCLtd Rip\03-Chains Of Love (Almighty 12'' Essential Mix).wav

Pre-gap length 0:00:01.51

Peak level 100.0 %
Extraction speed 2.8 X
Track quality 99.9 %
Test CRC 4257E2B5
Copy CRC 4257E2B5
Accurately ripped (confidence 17) [F2C2BCF1] (AR v2)
Copy OK

Track 4

Filename E:\RRCLtd Rip\04-Phantom Bride (Ghostly Groom Dub By FrankMusik).wav

Pre-gap length 0:00:01.51

Peak level 100.0 %
Extraction speed 3.1 X
Track quality 100.0 %
Test CRC 094ABA5E
Copy CRC 094ABA5E
Accurately ripped (confidence 16) [14DB329A] (AR v2)
Copy OK

Track 5

Filename E:\RRCLtd Rip\05-A Little Respect (Wayne G & Andy Allder Hurdy Gurdy Club Mix).wav

Pre-gap length 0:00:01.51

Peak level 100.0 %
Extraction speed 3.5 X
Track quality 100.0 %
Test CRC D46C3C9C
Copy CRC D46C3C9C
Accurately ripped (confidence 16) [F8ACE905] (AR v2)
Copy OK

Track 6

Filename E:\RRCLtd Rip\06-Heart Of Stone (Joebot's 'Ounce Of Bounce' Remix).wav

Pre-gap length 0:00:01.51

Peak level 100.0 %
Extraction speed 4.1 X
Track quality 100.0 %
Test CRC D74BE28E
Copy CRC D74BE28E
Accurately ripped (confidence 17) [3BAEFB00] (AR v2)
Copy OK

Track 7

Filename E:\RRCLtd Rip\07-Phantom Bride (Dogmatix's '12'' Tearless' Mix).wav

Pre-gap length 0:00:01.51

Peak level 100.0 %
Extraction speed 4.4 X
Track quality 100.0 %
Test CRC 6DD46B7C
Copy CRC 6DD46B7C
Accurately ripped (confidence 17) [6F14AE20] (AR v2)
Copy OK

Track 8

Filename E:\RRCLtd Rip\08-Chains Of Love (Plastic Operator Remix).wav

Pre-gap length 0:00:01.51

Peak level 100.0 %
Extraction speed 4.5 X
Track quality 100.0 %
Test CRC 4AB39031
Copy CRC 4AB39031
Accurately ripped (confidence 17) [73D54386] (AR v2)
Copy OK


All tracks accurately ripped

No errors occurred

End of status report

–– CUETools DB Plugin V2.1.6

[CTDB TOCID: u21xYRcrxhKsUR8u.1mACnoVxMo-] found
Submit result: u21xYRcrxhKsUR8u.1mACnoVxMo- has been confirmed
Track | CTDB Status
1 | (19/19) Accurately ripped
2 | (19/19) Accurately ripped
3 | (19/19) Accurately ripped
4 | (19/19) Accurately ripped
5 | (19/19) Accurately ripped
6 | (19/19) Accurately ripped
7 | (19/19) Accurately ripped
8 | (19/19) Accurately ripped


==== Log checksum 65D202BD606B98097F18B528DD648F9881832EAEE279BB8D44CE12561D9B4501 ====

[CUETools log; Date: 01.08.2020 19:20:16; Version: 2.1.4]
[CTDB TOCID: u21xYRcrxhKsUR8u.1mACnoVxMo-] found.
Track | CTDB Status
1 | (26/26) Accurately ripped
2 | (25/26) Accurately ripped
3 | (25/26) Accurately ripped
4 | (26/26) Accurately ripped
5 | (26/26) Accurately ripped
6 | (26/26) Accurately ripped
7 | (26/26) Accurately ripped
8 | (26/26) Accurately ripped
[AccurateRip ID: 000cc2dd-00576e27-620a6d08] found.
Track [ CRC | V2 ] Status
01 [aa3685b2|044f494a] (13+21/34) Accurately ripped
02 [0c766a51|f61f850e] (14+21/35) Accurately ripped
03 [12ae555b|f2c2bcf1] (14+21/35) Accurately ripped
04 [1943c32b|14db329a] (14+20/34) Accurately ripped
05 [8cb21b7b|f8ace905] (14+20/34) Accurately ripped
06 [200fabb1|3baefb00] (14+21/35) Accurately ripped
07 [52ff7850|6f14ae20] (14+21/35) Accurately ripped
08 [29342599|73d54386] (14+21/35) Accurately ripped

Track Peak [ CRC32 ] [W/O NULL] [ LOG ]
– 100,0 [BDBC4E80] [BB4E3188]
01 100,0 [5A4FF563] [7E27A192] CRC32
02 100,0 [F85769B7] [EE125749] CRC32
03 100,0 [4257E2B5] [3FC5B354] CRC32
04 100,0 [094ABA5E] [93C07A59] CRC32
05 100,0 [D46C3C9C] [D12D2BD4] CRC32
06 100,0 [D74BE28E] [F0BC9212] CRC32
07 100,0 [6DD46B7C] [747F4FBD] CRC32
08 100,0 [4AB39031] [E0F92578] CRC32

Thanks to RRC

See also: