Subcategories
Tags
Language
Tags

Erasure - The Innocents (1988) [2CD 21st Anniversary Edition 2009]

Posted By: gribovar
Erasure - The Innocents (1988) [2CD 21st Anniversary Edition 2009]

Erasure - The Innocents (1988) [2CD 21st Anniversary Edition 2009]
EAC Rip | FLAC (tracks+.cue+log) - 821 MB | MP3 CBR 320 kbps (LAME 3.93) - 278 MB | Covers - 226 MB
Genre: Synthpop | RAR 3% Rec. | Label: Mute (LCDSTUMM55)

Having built up a strong fan base and back catalogue in just a couple of years, Erasure turned into a full-blown pop phenomenon thanks to The Innocents, winning the British equivalent of the Grammy for album of the year and spawning a big American hit single, "Chains of Love." Stephen Hague took over as producer from Flood, perhaps smoothing out some points for a more general mainstream appeal but otherwise letting the strengths of the songs speak for themselves. It begins with another single and stone-cold classic, "A Little Respect," with a charging beat/acoustic guitar/synth arrangement and a flat-out fantastic performance from Bell, especially on the ascending chorus. Guest performances help flesh out a number of songs quite well. Wheeler and others reappear on "Yahoo!," a gospel-touched (musically and lyrically) number, while noted session performers the Kick Horns add just that to the "please come back" punch of "Heart of Stone." On their own, though, the duo continues in the same general vein of earlier releases while the Erasure formula of dance/synth/soul was now clearly established through and through, thankfully the combination of slight variety and overall performance prevents the album from dragging. The Innocents' ballads are perhaps a touch prettier than the lyrics would make them out to be, but if the sheen of songs like "Hallowed Ground" cuts away from the sometimes blunt images of poverty and hopelessness Bell calls up, the music still has a solid power. The CD version adds a fine original, "When I Needed You," and a fun cover of the Phil Spector/Ike and Tina Turner classic "River Deep, Mountain High."
CD 1 Tracklist (The Innocents Re-mastered):
01. A Little Respect
02. Ship Of Fools
03. Phantom Bride
04. Chains Of Love
05. Hallowed Ground
06. Sixty-Five Thousand
07. Heart Of Stone
08. Yahoo!
09. Imagination
10. Witch In The Ditch
11. Weight Of The World
12. When I Needed You (Melancholic Mix)
13. River Deep, Mountain High (Private Dance Mix)

Total time: 51:37

CD 2 Tracklist (B-sides, Remixes & Rarities Re-mastered):
01. Ship Of Fools (Shiver Me Timbers Mix)
02. When I Needed You
03. River Deep Mountain High (7" Version)
04. Chains Of Love (The Unfettered Mix)
05. Don't Suppose (Country Joe Mix)
06. The Good, The Bad And The Ugly (The Dangerous Mix)
07. A Little Respect (12" House Mix)
08. Lika Zsa Zsa Zsa Gabor (Mark Freegard Mix)
09. Love Is Colder Than Death
10. Phantom Bride (Live)
11. Heart Of Stone (Live)
12. Hallowed Ground (Live)
13. Witch In The Ditch (Live)

Total time: 01:03:45

Exact Audio Copy V1.3 from 2. September 2016

EAC extraction logfile from 9. August 2019, 15:19

Erasure / The Innocents 21 Anniversary Edition (CD1)

Used drive : PIONEER DVD-RW DVR-221L Adapter: 1 ID: 1

Read mode : Secure
Utilize accurate stream : Yes
Defeat audio cache : Yes
Make use of C2 pointers : No

Read offset correction : 6
Overread into Lead-In and Lead-Out : No
Fill up missing offset samples with silence : Yes
Delete leading and trailing silent blocks : No
Null samples used in CRC calculations : Yes
Used interface : Native Win32 interface for Win NT & 2000
Gap handling : Appended to previous track

Used output format : User Defined Encoder
Selected bitrate : 1024 kBit/s
Quality : High
Add ID3 tag : No
Command line compressor : C:\Program Files (x86)\Exact Audio Copy\FLAC\FLAC.EXE
Additional command line options : -6 -V -T "COMMENT=Ripped by RRC" -T "ARTIST=%artist%" -T "TITLE=%title%" -T "ALBUM=%albumtitle%" -T "DATE=%year%" -T "TRACKNUMBER=%tracknr%" -T "GENRE=%genre%" -T "BAND=%albuminterpret%" -T "ALBUMARTIST=%albuminterpret%" -T "COMPOSER=%composer%" %haslyrics%–tag-from-file=LYRICS="%lyricsfile%"%haslyrics% -T "DISCNUMBER=%cdnumber%" -T "TOTALDISCS=%totalcds%" -T "TOTALTRACKS=%numtracks%" %hascover%–picture="%coverfile%"%hascover% %source%


TOC of the extracted CD

Track | Start | Length | Start sector | End sector
––––––––––––––––––––––––––––-
1 | 0:00.00 | 3:33.74 | 0 | 16048
2 | 3:33.74 | 4:01.49 | 16049 | 34172
3 | 7:35.48 | 3:32.26 | 34173 | 50098
4 | 11:07.74 | 3:38.47 | 50099 | 66495
5 | 14:46.46 | 4:01.10 | 66496 | 84580
6 | 18:47.56 | 3:23.58 | 84581 | 99863
7 | 22:11.39 | 3:19.38 | 99864 | 114826
8 | 25:31.02 | 3:49.34 | 114827 | 132035
9 | 29:20.36 | 3:28.34 | 132036 | 147669
10 | 32:48.70 | 3:44.15 | 147670 | 164484
11 | 36:33.10 | 3:40.13 | 164485 | 180997
12 | 40:13.23 | 4:22.33 | 180998 | 200680
13 | 44:35.56 | 7:01.01 | 200681 | 232256


Track 1

Filename E:\RRCLtd Rip\01-A Little Respect.wav

Pre-gap length 0:00:02.00

Peak level 98.8 %
Extraction speed 2.6 X
Track quality 100.0 %
Test CRC 8A152D71
Copy CRC 8A152D71
Accurately ripped (confidence 39) [ECD9DBA9] (AR v2)
Copy OK

Track 2

Filename E:\RRCLtd Rip\02-Ship Of Fools.wav

Peak level 98.8 %
Extraction speed 2.3 X
Track quality 99.9 %
Test CRC C2A82997
Copy CRC C2A82997
Accurately ripped (confidence 39) [AEC9024A] (AR v2)
Copy OK

Track 3

Filename E:\RRCLtd Rip\03-Phantom Bride.wav

Peak level 98.8 %
Extraction speed 3.1 X
Track quality 100.0 %
Test CRC 566D10A1
Copy CRC 566D10A1
Accurately ripped (confidence 39) [445A309E] (AR v2)
Copy OK

Track 4

Filename E:\RRCLtd Rip\04-Chains Of Love.wav

Peak level 98.8 %
Extraction speed 3.4 X
Track quality 100.0 %
Test CRC 95BEB841
Copy CRC 95BEB841
Accurately ripped (confidence 39) [47F87915] (AR v2)
Copy OK

Track 5

Filename E:\RRCLtd Rip\05-Hallowed Ground.wav

Pre-gap length 0:00:01.20

Peak level 98.8 %
Extraction speed 3.6 X
Track quality 100.0 %
Test CRC 7141482C
Copy CRC 7141482C
Accurately ripped (confidence 39) [321E5BEF] (AR v2)
Copy OK

Track 6

Filename E:\RRCLtd Rip\06-Sixty-Five Thousand.wav

Peak level 98.8 %
Extraction speed 3.7 X
Track quality 100.0 %
Test CRC 7CE26C8E
Copy CRC 7CE26C8E
Accurately ripped (confidence 39) [55B5E8FA] (AR v2)
Copy OK

Track 7

Filename E:\RRCLtd Rip\07-Heart Of Stone.wav

Peak level 98.8 %
Extraction speed 2.9 X
Track quality 99.9 %
Test CRC 0E82A315
Copy CRC 0E82A315
Accurately ripped (confidence 39) [4030126D] (AR v2)
Copy OK

Track 8

Filename E:\RRCLtd Rip\08-Yahoo!.wav

Peak level 98.8 %
Extraction speed 4.2 X
Track quality 100.0 %
Test CRC 2C6EE631
Copy CRC 2C6EE631
Accurately ripped (confidence 39) [E782D324] (AR v2)
Copy OK

Track 9

Filename E:\RRCLtd Rip\09-Imagination.wav

Peak level 98.8 %
Extraction speed 3.2 X
Track quality 99.9 %
Test CRC 9CD724E0
Copy CRC 9CD724E0
Accurately ripped (confidence 39) [2FF3B74D] (AR v2)
Copy OK

Track 10

Filename E:\RRCLtd Rip\10-Witch In The Ditch.wav

Peak level 98.8 %
Extraction speed 4.4 X
Track quality 100.0 %
Test CRC AB45CB81
Copy CRC AB45CB81
Accurately ripped (confidence 39) [C7292871] (AR v2)
Copy OK

Track 11

Filename E:\RRCLtd Rip\11-Weight Of The World.wav

Pre-gap length 0:00:01.44

Peak level 98.8 %
Extraction speed 4.6 X
Track quality 100.0 %
Test CRC 089D028A
Copy CRC 089D028A
Accurately ripped (confidence 39) [D979B834] (AR v2)
Copy OK

Track 12

Filename E:\RRCLtd Rip\12-When I Needed You (Melancholic Mix).wav

Pre-gap length 0:00:01.26

Peak level 98.8 %
Extraction speed 4.9 X
Track quality 100.0 %
Test CRC 8D56AD17
Copy CRC 8D56AD17
Accurately ripped (confidence 38) [D9838484] (AR v2)
Copy OK

Track 13

Filename E:\RRCLtd Rip\13-River Deep, Mountain High (Private Dance Mix).wav

Pre-gap length 0:00:01.23

Peak level 98.8 %
Extraction speed 5.3 X
Track quality 100.0 %
Test CRC FF7D5134
Copy CRC FF7D5134
Accurately ripped (confidence 39) [763CC71A] (AR v2)
Copy OK


All tracks accurately ripped

No errors occurred

End of status report

–– CUETools DB Plugin V2.1.6

[CTDB TOCID: dBjMQVrqmbciLmg0SE7v.MVCkT8-] found
Submit result: dBjMQVrqmbciLmg0SE7v.MVCkT8- has been confirmed
Track | CTDB Status
1 | (58/58) Accurately ripped
2 | (58/58) Accurately ripped
3 | (58/58) Accurately ripped
4 | (58/58) Accurately ripped
5 | (58/58) Accurately ripped
6 | (58/58) Accurately ripped
7 | (58/58) Accurately ripped
8 | (58/58) Accurately ripped
9 | (58/58) Accurately ripped
10 | (58/58) Accurately ripped
11 | (58/58) Accurately ripped
12 | (58/58) Accurately ripped
13 | (58/58) Accurately ripped


==== Log checksum A34005BABA00CEC41032D4FABA1FA47824DF4EDED1AA3C852B64B224BC4FA8FC ====

[CUETools log; Date: 26.03.2020 21:54:42; Version: 2.1.4]
[CTDB TOCID: dBjMQVrqmbciLmg0SE7v.MVCkT8-] found.
Track | CTDB Status
1 | (67/67) Accurately ripped
2 | (67/67) Accurately ripped
3 | (67/67) Accurately ripped
4 | (67/67) Accurately ripped
5 | (67/67) Accurately ripped
6 | (67/67) Accurately ripped
7 | (67/67) Accurately ripped
8 | (67/67) Accurately ripped
9 | (67/67) Accurately ripped
10 | (67/67) Accurately ripped
11 | (67/67) Accurately ripped
12 | (67/67) Accurately ripped
13 | (67/67) Accurately ripped
[AccurateRip ID: 001741f8-00e97366-be0c180d] found.
Track [ CRC | V2 ] Status
01 [fbae9a87|ecd9dba9] (27+44/71) Accurately ripped
02 [30909be7|aec9024a] (27+44/71) Accurately ripped
03 [cb3590a0|445a309e] (28+44/72) Accurately ripped
04 [b050b398|47f87915] (27+44/71) Accurately ripped
05 [59ad9168|321e5bef] (27+44/71) Accurately ripped
06 [421000b6|55b5e8fa] (27+44/71) Accurately ripped
07 [e5077131|4030126d] (27+44/71) Accurately ripped
08 [b0ee2f14|e782d324] (27+44/71) Accurately ripped
09 [92dd1c46|2ff3b74d] (27+44/71) Accurately ripped
10 [7741ee2e|c7292871] (27+44/71) Accurately ripped
11 [5d4a8057|d979b834] (27+44/71) Accurately ripped
12 [b445c491|d9838484] (27+43/70) Accurately ripped
13 [aa9dc913|763cc71a] (25+44/69) Accurately ripped

Track Peak [ CRC32 ] [W/O NULL] [ LOG ]
– 98,8 [FF806196] [FAD59BD0]
01 98,8 [8A152D71] [326D3352] CRC32
02 98,8 [C2A82997] [5F3D51C5] CRC32
03 98,8 [566D10A1] [C7D8F988] CRC32
04 98,8 [95BEB841] [F286283A] CRC32
05 98,8 [7141482C] [99EB524C] CRC32
06 98,8 [7CE26C8E] [54B25485] CRC32
07 98,8 [0E82A315] [AF8B42CB] CRC32
08 98,8 [2C6EE631] [18D5C9AF] CRC32
09 98,8 [9CD724E0] [B4F3D803] CRC32
10 98,8 [AB45CB81] [48F6F7FA] CRC32
11 98,8 [089D028A] [4CFAAED4] CRC32
12 98,8 [8D56AD17] [5BE9FCAF] CRC32
13 98,8 [FF7D5134] [0069DA12] CRC32

Exact Audio Copy V1.3 from 2. September 2016

EAC extraction logfile from 9. August 2019, 15:55

Erasure / The Innocents 21 Anniversary Edition (CD2)

Used drive : PIONEER DVD-RW DVR-221L Adapter: 1 ID: 1

Read mode : Secure
Utilize accurate stream : Yes
Defeat audio cache : Yes
Make use of C2 pointers : No

Read offset correction : 6
Overread into Lead-In and Lead-Out : No
Fill up missing offset samples with silence : Yes
Delete leading and trailing silent blocks : No
Null samples used in CRC calculations : Yes
Used interface : Native Win32 interface for Win NT & 2000
Gap handling : Appended to previous track

Used output format : User Defined Encoder
Selected bitrate : 1024 kBit/s
Quality : High
Add ID3 tag : No
Command line compressor : C:\Program Files (x86)\Exact Audio Copy\FLAC\FLAC.EXE
Additional command line options : -6 -V -T "COMMENT=Ripped by RRC" -T "ARTIST=%artist%" -T "TITLE=%title%" -T "ALBUM=%albumtitle%" -T "DATE=%year%" -T "TRACKNUMBER=%tracknr%" -T "GENRE=%genre%" -T "BAND=%albuminterpret%" -T "ALBUMARTIST=%albuminterpret%" -T "COMPOSER=%composer%" %haslyrics%–tag-from-file=LYRICS="%lyricsfile%"%haslyrics% -T "DISCNUMBER=%cdnumber%" -T "TOTALDISCS=%totalcds%" -T "TOTALTRACKS=%numtracks%" %hascover%–picture="%coverfile%"%hascover% %source%


TOC of the extracted CD

Track | Start | Length | Start sector | End sector
––––––––––––––––––––––––––––-
1 | 0:00.00 | 7:53.28 | 0 | 35502
2 | 7:53.28 | 3:59.74 | 35503 | 53501
3 | 11:53.27 | 3:19.44 | 53502 | 68470
4 | 15:12.71 | 8:24.00 | 68471 | 106270
5 | 23:36.71 | 5:57.59 | 106271 | 133104
6 | 29:34.55 | 4:42.11 | 133105 | 154265
7 | 34:16.66 | 6:43.68 | 154266 | 184558
8 | 41:00.59 | 4:56.23 | 184559 | 206781
9 | 45:57.07 | 2:13.36 | 206782 | 216792
10 | 48:10.43 | 4:08.07 | 216793 | 235399
11 | 52:18.50 | 3:37.24 | 235400 | 251698
12 | 55:55.74 | 3:55.68 | 251699 | 269391
13 | 59:51.67 | 3:53.17 | 269392 | 286883


Track 1

Filename E:\RRCLtd Rip\01-Ship Of Fools (Shiver Me Timbers Mix).wav

Pre-gap length 0:00:02.00

Peak level 98.8 %
Extraction speed 3.0 X
Track quality 100.0 %
Test CRC 7ABF8C1A
Copy CRC 7ABF8C1A
Accurately ripped (confidence 27) [EB37F63E] (AR v2)
Copy OK

Track 2

Filename E:\RRCLtd Rip\02-When I Needed You.wav

Pre-gap length 0:00:00.32

Peak level 98.8 %
Extraction speed 2.5 X
Track quality 99.9 %
Test CRC 5B5B579C
Copy CRC 5B5B579C
Accurately ripped (confidence 28) [D4A6C2C0] (AR v2)
Copy OK

Track 3

Filename E:\RRCLtd Rip\03-River Deep, Mountain High (7'' Version).wav

Pre-gap length 0:00:00.38

Peak level 98.8 %
Extraction speed 3.3 X
Track quality 100.0 %
Test CRC B8706393
Copy CRC B8706393
Accurately ripped (confidence 28) [F1A5D3D2] (AR v2)
Copy OK

Track 4

Filename E:\RRCLtd Rip\04-Chains Of Love (The Unfettered Mix).wav

Pre-gap length 0:00:01.25

Peak level 90.4 %
Extraction speed 3.5 X
Track quality 99.9 %
Test CRC 904471E9
Copy CRC 904471E9
Accurately ripped (confidence 27) [144E51F5] (AR v2)
Copy OK

Track 5

Filename E:\RRCLtd Rip\05-Don't Suppose (Country Joe Mix).wav

Pre-gap length 0:00:00.09

Peak level 98.8 %
Extraction speed 4.3 X
Track quality 100.0 %
Test CRC B7E1B224
Copy CRC B7E1B224
Accurately ripped (confidence 27) [7DEA1C58] (AR v2)
Copy OK

Track 6

Filename E:\RRCLtd Rip\06-The Good, The Bad And The Ugly (The Dangerous Mix).wav

Pre-gap length 0:00:00.54

Peak level 98.8 %
Extraction speed 4.4 X
Track quality 100.0 %
Test CRC A686D02A
Copy CRC A686D02A
Accurately ripped (confidence 27) [49F6D948] (AR v2)
Copy OK

Track 7

Filename E:\RRCLtd Rip\07-A Little Respect (12'' House Mix).wav

Pre-gap length 0:00:00.41

Peak level 98.8 %
Extraction speed 4.8 X
Track quality 100.0 %
Test CRC 3BE2C9D0
Copy CRC 3BE2C9D0
Accurately ripped (confidence 27) [BCDAEE57] (AR v2)
Copy OK

Track 8

Filename E:\RRCLtd Rip\08-Like Zsa Zsa Zsa Gabor (Mark Freegard Mix).wav

Pre-gap length 0:00:01.11

Peak level 100.0 %
Extraction speed 5.0 X
Track quality 100.0 %
Test CRC 5B8F8882
Copy CRC 5B8F8882
Accurately ripped (confidence 26) [311A5E35] (AR v2)
Copy OK

Track 9

Filename E:\RRCLtd Rip\09-Love Is Colder Than Death.wav

Pre-gap length 0:00:01.17

Peak level 92.2 %
Extraction speed 4.4 X
Track quality 100.0 %
Test CRC 8C4EFC9B
Copy CRC 8C4EFC9B
Accurately ripped (confidence 27) [8DD22C3F] (AR v2)
Copy OK

Track 10

Filename E:\RRCLtd Rip\10-Phantom Bride (Live).wav

Peak level 98.8 %
Extraction speed 5.0 X
Track quality 100.0 %
Test CRC 8FEA908E
Copy CRC 8FEA908E
Accurately ripped (confidence 27) [D55BA736] (AR v2)
Copy OK

Track 11

Filename E:\RRCLtd Rip\11-Heart Of Stone (Live).wav

Pre-gap length 0:00:01.36

Peak level 98.8 %
Extraction speed 5.1 X
Track quality 100.0 %
Test CRC 6BFBA8A2
Copy CRC 6BFBA8A2
Accurately ripped (confidence 26) [E09A0419] (AR v2)
Copy OK

Track 12

Filename E:\RRCLtd Rip\12-Hallowed Ground (Live).wav

Pre-gap length 0:00:02.35

Peak level 98.8 %
Extraction speed 5.2 X
Track quality 100.0 %
Test CRC 8DA7B2DF
Copy CRC 8DA7B2DF
Accurately ripped (confidence 26) [3A681654] (AR v2)
Copy OK

Track 13

Filename E:\RRCLtd Rip\13-Witch In The Ditch (Live).wav

Pre-gap length 0:00:01.70

Peak level 98.8 %
Extraction speed 5.4 X
Track quality 100.0 %
Test CRC 83AFA88A
Copy CRC 83AFA88A
Accurately ripped (confidence 25) [8105B0B6] (AR v2)
Copy OK


All tracks accurately ripped

No errors occurred

End of status report

–– CUETools DB Plugin V2.1.6

[CTDB TOCID: uhxaa5PxeBYudaXQkGzDyhH1lSw-] found
Submit result: uhxaa5PxeBYudaXQkGzDyhH1lSw- has been confirmed
Track | CTDB Status
1 | (27/27) Accurately ripped
2 | (27/27) Accurately ripped
3 | (27/27) Accurately ripped
4 | (27/27) Accurately ripped
5 | (27/27) Accurately ripped
6 | (27/27) Accurately ripped
7 | (27/27) Accurately ripped
8 | (27/27) Accurately ripped
9 | (27/27) Accurately ripped
10 | (27/27) Accurately ripped
11 | (27/27) Accurately ripped
12 | (27/27) Accurately ripped
13 | (26/27) Accurately ripped


==== Log checksum 2D19FF60159DA318E38791569968E5CCA7CC1CA58032E17EFBD6CC764B7841A6 ====

[CUETools log; Date: 26.03.2020 21:56:18; Version: 2.1.4]
[CTDB TOCID: uhxaa5PxeBYudaXQkGzDyhH1lSw-] found.
Track | CTDB Status
1 | (31/31) Accurately ripped
2 | (31/31) Accurately ripped
3 | (31/31) Accurately ripped
4 | (31/31) Accurately ripped
5 | (31/31) Accurately ripped
6 | (31/31) Accurately ripped
7 | (31/31) Accurately ripped
8 | (31/31) Accurately ripped
9 | (31/31) Accurately ripped
10 | (31/31) Accurately ripped
11 | (31/31) Accurately ripped
12 | (31/31) Accurately ripped
13 | (30/31) Accurately ripped
[AccurateRip ID: 00219c03-0148cf90-c70ef10d] found.
Track [ CRC | V2 ] Status
01 [f1a7875f|eb37f63e] (18+29/47) Accurately ripped
02 [3825f9c3|d4a6c2c0] (18+30/48) Accurately ripped
03 [8bb8d54c|f1a5d3d2] (18+30/48) Accurately ripped
04 [a1cf1700|144e51f5] (18+29/47) Accurately ripped
05 [761dbe92|7dea1c58] (18+29/47) Accurately ripped
06 [4a1cabda|49f6d948] (18+29/47) Accurately ripped
07 [842addab|bcdaee57] (18+29/47) Accurately ripped
08 [2e1e91ca|311a5e35] (18+28/46) Accurately ripped
09 [9b70a100|8dd22c3f] (18+29/47) Accurately ripped
10 [6a0e0e60|d55ba736] (16+29/45) Accurately ripped
11 [bdb71693|e09a0419] (16+28/44) Accurately ripped
12 [d84fa568|3a681654] (14+28/42) Accurately ripped
13 [70be6256|8105b0b6] (15+27/42) Accurately ripped

Track Peak [ CRC32 ] [W/O NULL] [ LOG ]
– 100,0 [76285217] [53D1DDAD]
01 98,8 [7ABF8C1A] [8134DD14] CRC32
02 98,8 [5B5B579C] [AE9C5115] CRC32
03 98,8 [B8706393] [78D82C4C] CRC32
04 90,4 [904471E9] [AF822877] CRC32
05 98,8 [B7E1B224] [CC9F276C] CRC32
06 98,8 [A686D02A] [FCB283F8] CRC32
07 98,8 [3BE2C9D0] [2AA44C5C] CRC32
08 100,0 [5B8F8882] [3D4904CC] CRC32
09 92,2 [8C4EFC9B] [824F3A19] CRC32
10 98,8 [8FEA908E] [3656ADBD] CRC32
11 98,8 [6BFBA8A2] [CDF0140B] CRC32
12 98,8 [8DA7B2DF] [3B55C225] CRC32
13 98,8 [83AFA88A] [7263DAC0] CRC32

Thanks to RRC

See also: