Subcategories
Tags
Language
Tags

Erasure - Tomorrow's World (2011) [2CD Special Edition]

Posted By: gribovar
Erasure - Tomorrow's World (2011) [2CD Special Edition]

Erasure - Tomorrow's World (2011) [2CD Special Edition]
EAC Rip | FLAC (tracks+.cue+log) - 503 MB | MP3 CBR 320 kbps (LAME 3.93) - 166 MB | Covers - 127 MB
Genre: Synthpop | RAR 3% Rec. | Label: Mute (LCDSTUMM335)

Erasure's previous effort returned the synth pop duo to form, so on their 2011 release, and 14th overall, they take the logical step of handing over a bit of their legacy to an outside producer. Electropop enthusiast Frankmusik (Lady Gaga, Pet Shop Boys) is the wise choice made here, and the results are generally quite good, sometimes excellent. Many tracks benefit from the attractive combination of lead singer Andy Bell's increased lyric-writing skills and the hired producer's presentation of the 2011 house music "thwak," as both "I Lose Myself" and "Be with You" are fine acknowledgments of Gaga and Benny Benassi's dancefloor domination. Fans get to experience Vince Clarke’s fingerprints on "Fill Us with Fire" and "When I Start To (Break It All Down)," as the recent reunion of his Yaz project is reflected in the nocturnal synth pop and soul muscle driving these highlights. There's a cohesiveness issue that keeps this one off their top shelf, but Erasure have settled nicely into that groove that the best veteran bands often do. Last time out it was the vital release while this time it's the very attractive diversion, adding new flavors to a group that sounds much more inspired than you'd expect at this point.
CD 1 Tracklist:
01. Be With You
02. Fill Us With Fire
03. What Will I Say When You're Gone?
04. You've Got To Save Me Right Now
05. A Whole Lotta Love Run Riot
06. When I Start To (Break It All Down)
07. I Lose Myself
08. Then I Go Twisting
09. Just When I Thought It Was Ending

Total time: 31:42

CD 2 Tracklist:
01. I Lose Myself ("No Self Control" Mix By Gareth Jones)
02. Give Me Life
03. Fill Us With Fire ("Fired Up" Mix By Gareth Jones)
04. When I Start To (Break It All Down) (Frankmusik Remix)
05. Clash (I Lose Myself) (Demo Version)
06. Big Song (Fill Us With Fire) (Demo Version)
07. Major 7th (Be With You) (Demo Version)
08. Save Me (You've Got To Save Me Right Now) (Demo Version)

Total time: 37:23

Exact Audio Copy V1.3 from 2. September 2016

EAC extraction logfile from 10. August 2019, 9:07

Erasure / Tomorrow's World (Special edition) CD1

Used drive : PIONEER DVD-RW DVR-221L Adapter: 1 ID: 1

Read mode : Secure
Utilize accurate stream : Yes
Defeat audio cache : Yes
Make use of C2 pointers : No

Read offset correction : 6
Overread into Lead-In and Lead-Out : No
Fill up missing offset samples with silence : Yes
Delete leading and trailing silent blocks : No
Null samples used in CRC calculations : Yes
Used interface : Native Win32 interface for Win NT & 2000
Gap handling : Appended to previous track

Used output format : User Defined Encoder
Selected bitrate : 1024 kBit/s
Quality : High
Add ID3 tag : No
Command line compressor : C:\Program Files (x86)\Exact Audio Copy\FLAC\FLAC.EXE
Additional command line options : -6 -V -T "COMMENT=Ripped by RRC" -T "ARTIST=%artist%" -T "TITLE=%title%" -T "ALBUM=%albumtitle%" -T "DATE=%year%" -T "TRACKNUMBER=%tracknr%" -T "GENRE=%genre%" -T "BAND=%albuminterpret%" -T "ALBUMARTIST=%albuminterpret%" -T "COMPOSER=%composer%" %haslyrics%–tag-from-file=LYRICS="%lyricsfile%"%haslyrics% -T "DISCNUMBER=%cdnumber%" -T "TOTALDISCS=%totalcds%" -T "TOTALTRACKS=%numtracks%" %hascover%–picture="%coverfile%"%hascover% %source%


TOC of the extracted CD

Track | Start | Length | Start sector | End sector
––––––––––––––––––––––––––––-
1 | 0:00.00 | 3:33.66 | 0 | 16040
2 | 3:33.66 | 3:16.11 | 16041 | 30751
3 | 6:50.02 | 3:42.67 | 30752 | 47468
4 | 10:32.69 | 2:52.63 | 47469 | 60431
5 | 13:25.57 | 3:46.21 | 60432 | 77402
6 | 17:12.03 | 3:43.07 | 77403 | 94134
7 | 20:55.10 | 3:15.22 | 94135 | 108781
8 | 24:10.32 | 3:51.41 | 108782 | 126147
9 | 28:01.73 | 3:40.34 | 126148 | 142681


Track 1

Filename E:\RRCLtd Rip\01-Be With You.wav

Pre-gap length 0:00:02.00

Peak level 99.9 %
Extraction speed 2.5 X
Track quality 100.0 %
Test CRC D8B4B8BA
Copy CRC D8B4B8BA
Accurately ripped (confidence 70) [3260754D] (AR v2)
Copy OK

Track 2

Filename E:\RRCLtd Rip\02-Fill Us With Fire.wav

Peak level 99.9 %
Extraction speed 2.7 X
Track quality 100.0 %
Test CRC 7E7887D4
Copy CRC 7E7887D4
Accurately ripped (confidence 70) [F4D045A0] (AR v2)
Copy OK

Track 3

Filename E:\RRCLtd Rip\03-What Will I Say When You're Gone.wav

Pre-gap length 0:00:00.47

Peak level 99.9 %
Extraction speed 3.0 X
Track quality 100.0 %
Test CRC D0C8BF16
Copy CRC D0C8BF16
Accurately ripped (confidence 70) [F838F72B] (AR v2)
Copy OK

Track 4

Filename E:\RRCLtd Rip\04-You've Got To Save Me Right Now.wav

Peak level 99.9 %
Extraction speed 3.1 X
Track quality 100.0 %
Test CRC 58DF9443
Copy CRC 58DF9443
Accurately ripped (confidence 70) [3286E9D8] (AR v2)
Copy OK

Track 5

Filename E:\RRCLtd Rip\05-A Whole Lotta Love Run Riot.wav

Peak level 99.9 %
Extraction speed 3.3 X
Track quality 100.0 %
Test CRC 7D4180CB
Copy CRC 7D4180CB
Accurately ripped (confidence 70) [FB897232] (AR v2)
Copy OK

Track 6

Filename E:\RRCLtd Rip\06-When I Start To (Break It All Down).wav

Peak level 99.9 %
Extraction speed 2.8 X
Track quality 99.9 %
Test CRC EBF01EE8
Copy CRC EBF01EE8
Accurately ripped (confidence 70) [8650B815] (AR v2)
Copy OK

Track 7

Filename E:\RRCLtd Rip\07-I Lose Myself.wav

Peak level 99.9 %
Extraction speed 3.7 X
Track quality 100.0 %
Test CRC 35705F89
Copy CRC 35705F89
Accurately ripped (confidence 69) [8EB496D5] (AR v2)
Copy OK

Track 8

Filename E:\RRCLtd Rip\08-Then I Go Twisting.wav

Peak level 99.9 %
Extraction speed 4.0 X
Track quality 100.0 %
Test CRC 8CBCCC63
Copy CRC 8CBCCC63
Accurately ripped (confidence 69) [6A874AB0] (AR v2)
Copy OK

Track 9

Filename E:\RRCLtd Rip\09-Just When I Thought It Was Ending.wav

Peak level 99.9 %
Extraction speed 3.1 X
Track quality 99.9 %
Test CRC 8EC1EFEB
Copy CRC 8EC1EFEB
Accurately ripped (confidence 68) [281452CE] (AR v2)
Copy OK


All tracks accurately ripped

No errors occurred

End of status report

–– CUETools DB Plugin V2.1.6

[CTDB TOCID: XDyJJCTsrU3L3tIl_UGMOuuS3gg-] found
Submit result: XDyJJCTsrU3L3tIl_UGMOuuS3gg- has been confirmed
Track | CTDB Status
1 | (134/134) Accurately ripped
2 | (134/134) Accurately ripped
3 | (134/134) Accurately ripped
4 | (134/134) Accurately ripped
5 | (134/134) Accurately ripped
6 | (134/134) Accurately ripped
7 | (134/134) Accurately ripped
8 | (134/134) Accurately ripped
9 | (133/134) Accurately ripped


==== Log checksum 314043F4A5A9AF3A464244DC959A466118D9BF4649B3289838D3A741CE65E59C ====

[CUETools log; Date: 28.03.2020 21:54:25; Version: 2.1.4]
[CTDB TOCID: XDyJJCTsrU3L3tIl_UGMOuuS3gg-] found.
Track | CTDB Status
1 | (152/152) Accurately ripped
2 | (152/152) Accurately ripped
3 | (152/152) Accurately ripped
4 | (152/152) Accurately ripped
5 | (152/152) Accurately ripped
6 | (152/152) Accurately ripped
7 | (152/152) Accurately ripped
8 | (152/152) Accurately ripped
9 | (151/152) Accurately ripped
[AccurateRip ID: 000abd64-004eebb2-62076e09] found.
Track [ CRC | V2 ] Status
01 [ea470e66|3260754d] (013+075/103) Accurately ripped
02 [4e178ebe|f4d045a0] (013+075/103) Accurately ripped
03 [d92b2c5c|f838f72b] (013+075/103) Accurately ripped
04 [d5db4594|3286e9d8] (013+075/103) Accurately ripped
05 [efeb85f1|fb897232] (013+075/103) Accurately ripped
06 [19679f17|8650b815] (013+075/103) Accurately ripped
07 [3c448f3e|8eb496d5] (014+074/103) Accurately ripped
08 [cfecd3b2|6a874ab0] (014+074/103) Accurately ripped
09 [bb7cef6d|281452ce] (013+073/101) Accurately ripped
Offsetted by -706:
01 [bc2186f6] (000/103) No match (V2 was not tested)
02 [00450a16] (000/103) No match (V2 was not tested)
03 [c2efb044] (000/103) No match (V2 was not tested)
04 [0d84aace] (000/103) No match (V2 was not tested)
05 [b84a4ab8] (000/103) No match (V2 was not tested)
06 [f5b5ca5e] (000/103) No match (V2 was not tested)
07 [445c5d48] (000/103) No match (V2 was not tested)
08 [8e220d0f] (000/103) No match (V2 was not tested)
09 [180b2b38] (000/101) No match (V2 was not tested)

Track Peak [ CRC32 ] [W/O NULL] [ LOG ]
– 99,9 [94B274C9] [BEA55552]
01 99,9 [D8B4B8BA] [9772E1AB] CRC32
02 99,9 [7E7887D4] [F234A690] CRC32
03 99,9 [D0C8BF16] [84527BED] CRC32
04 99,9 [58DF9443] [C2783F57] CRC32
05 99,9 [7D4180CB] [31159CF9] CRC32
06 99,9 [EBF01EE8] [1E567AE2] CRC32
07 99,9 [35705F89] [A2722A02] CRC32
08 99,9 [8CBCCC63] [5EB1F973] CRC32
09 99,9 [8EC1EFEB] [8C615FDD] CRC32

Exact Audio Copy V1.3 from 2. September 2016

EAC extraction logfile from 10. August 2019, 9:36

Erasure / Tomorrow's World (Special edition) CD2

Used drive : PIONEER DVD-RW DVR-221L Adapter: 1 ID: 1

Read mode : Secure
Utilize accurate stream : Yes
Defeat audio cache : Yes
Make use of C2 pointers : No

Read offset correction : 6
Overread into Lead-In and Lead-Out : No
Fill up missing offset samples with silence : Yes
Delete leading and trailing silent blocks : No
Null samples used in CRC calculations : Yes
Used interface : Native Win32 interface for Win NT & 2000
Gap handling : Appended to previous track

Used output format : User Defined Encoder
Selected bitrate : 1024 kBit/s
Quality : High
Add ID3 tag : No
Command line compressor : C:\Program Files (x86)\Exact Audio Copy\FLAC\FLAC.EXE
Additional command line options : -6 -V -T "COMMENT=Ripped by RRC" -T "ARTIST=%artist%" -T "TITLE=%title%" -T "ALBUM=%albumtitle%" -T "DATE=%year%" -T "TRACKNUMBER=%tracknr%" -T "GENRE=%genre%" -T "BAND=%albuminterpret%" -T "ALBUMARTIST=%albuminterpret%" -T "COMPOSER=%composer%" %haslyrics%–tag-from-file=LYRICS="%lyricsfile%"%haslyrics% -T "DISCNUMBER=%cdnumber%" -T "TOTALDISCS=%totalcds%" -T "TOTALTRACKS=%numtracks%" %hascover%–picture="%coverfile%"%hascover% %source%


TOC of the extracted CD

Track | Start | Length | Start sector | End sector
––––––––––––––––––––––––––––-
1 | 0:00.00 | 7:29.40 | 0 | 33714
2 | 7:29.40 | 5:00.21 | 33715 | 56235
3 | 12:29.61 | 7:22.62 | 56236 | 89447
4 | 19:52.48 | 4:58.28 | 89448 | 111825
5 | 24:51.01 | 3:22.64 | 111826 | 127039
6 | 28:13.65 | 3:10.39 | 127040 | 141328
7 | 31:24.29 | 3:23.12 | 141329 | 156565
8 | 34:47.41 | 2:35.58 | 156566 | 168248


Track 1

Filename E:\RRCLtd Rip\01-I Lose Myself (“No Self Control” Mix).wav

Pre-gap length 0:00:02.00

Peak level 99.9 %
Extraction speed 2.5 X
Track quality 99.9 %
Test CRC 5E640746
Copy CRC 5E640746
Accurately ripped (confidence 58) [C2CEBA80] (AR v2)
Copy OK

Track 2

Filename E:\RRCLtd Rip\02-Give Me Life.wav

Pre-gap length 0:00:01.67

Peak level 99.9 %
Extraction speed 3.3 X
Track quality 100.0 %
Test CRC DEE844C1
Copy CRC DEE844C1
Accurately ripped (confidence 59) [835082F9] (AR v2)
Copy OK

Track 3

Filename E:\RRCLtd Rip\03-Fill Us With Fire (“Fired Up” Mix).wav

Pre-gap length 0:00:01.74

Peak level 99.9 %
Extraction speed 3.7 X
Track quality 100.0 %
Test CRC DD5D693C
Copy CRC DD5D693C
Accurately ripped (confidence 58) [99456074] (AR v2)
Copy OK

Track 4

Filename E:\RRCLtd Rip\04-When I Start To (Break It All Down) (Frankmusik Remix).wav

Pre-gap length 0:00:00.42

Peak level 89.1 %
Extraction speed 3.7 X
Track quality 100.0 %
Test CRC 2E26CB88
Copy CRC 2E26CB88
Accurately ripped (confidence 58) [6937D64E] (AR v2)
Copy OK

Track 5

Filename E:\RRCLtd Rip\05-Clash (I Lose Myself) (Demo version).wav

Pre-gap length 0:00:01.68

Peak level 95.5 %
Extraction speed 2.9 X
Track quality 99.9 %
Test CRC 9106A824
Copy CRC 9106A824
Accurately ripped (confidence 58) [0E03DB55] (AR v2)
Copy OK

Track 6

Filename E:\RRCLtd Rip\06-Big Song (Fill Us With Fire) (Demo version).wav

Pre-gap length 0:00:01.68

Peak level 97.7 %
Extraction speed 4.0 X
Track quality 100.0 %
Test CRC 348F6960
Copy CRC 348F6960
Accurately ripped (confidence 58) [03C16574] (AR v2)
Copy OK

Track 7

Filename E:\RRCLtd Rip\07-Major 7th (Be With You) (Demo version).wav

Pre-gap length 0:00:01.68

Peak level 94.4 %
Extraction speed 3.0 X
Track quality 99.9 %
Test CRC 95C39712
Copy CRC 95C39712
Accurately ripped (confidence 58) [9FE7E828] (AR v2)
Copy OK

Track 8

Filename E:\RRCLtd Rip\08-Save Me (You’ve Got To Save Me Right Now) (Demo version).wav

Pre-gap length 0:00:01.68

Peak level 99.9 %
Extraction speed 3.7 X
Track quality 100.0 %
Test CRC EB731260
Copy CRC EB731260
Accurately ripped (confidence 57) [12A48DAB] (AR v2)
Copy OK


All tracks accurately ripped

No errors occurred

End of status report

–– CUETools DB Plugin V2.1.6

[CTDB TOCID: c1punhZfekopOYZokjrELiGY0OY-] found
Submit result: c1punhZfekopOYZokjrELiGY0OY- has been confirmed
Track | CTDB Status
1 | (87/88) Accurately ripped
2 | (88/88) Accurately ripped
3 | (88/88) Accurately ripped
4 | (88/88) Accurately ripped
5 | (88/88) Accurately ripped
6 | (88/88) Accurately ripped
7 | (87/88) Accurately ripped
8 | (84/88) Accurately ripped, or (2/88) differs in 180 samples @01:44:51


==== Log checksum 7A944EA361FE41D6E15EF929FB8F837E7A5CCEEFC02C24A5ED83188713585F01 ====

[CUETools log; Date: 28.03.2020 21:55:03; Version: 2.1.4]
[CTDB TOCID: c1punhZfekopOYZokjrELiGY0OY-] found.
Track | CTDB Status
1 | (97/98) Accurately ripped
2 | (98/98) Accurately ripped
3 | (98/98) Accurately ripped
4 | (98/98) Accurately ripped
5 | (98/98) Accurately ripped
6 | (98/98) Accurately ripped
7 | (97/98) Accurately ripped
8 | (93/98) Accurately ripped, or (3/98) differs in 180 samples @01:44:51
[AccurateRip ID: 000d7eb9-005689cd-7808c308] found.
Track [ CRC | V2 ] Status
01 [1b70fe0a|c2ceba80] (13+62/75) Accurately ripped
02 [939c5574|835082f9] (13+63/76) Accurately ripped
03 [b299fbf6|99456074] (13+62/75) Accurately ripped
04 [e2177565|6937d64e] (13+62/75) Accurately ripped
05 [3ea74279|0e03db55] (13+62/75) Accurately ripped
06 [c7d89b97|03c16574] (13+62/75) Accurately ripped
07 [edc7d569|9fe7e828] (13+62/75) Accurately ripped
08 [b40149f0|12a48dab] (12+61/73) Accurately ripped

Track Peak [ CRC32 ] [W/O NULL] [ LOG ]
– 99,9 [49285379] [65FA4827]
01 99,9 [5E640746] [6E2A9991] CRC32
02 99,9 [DEE844C1] [12E693F4] CRC32
03 99,9 [DD5D693C] [724845CE] CRC32
04 89,1 [2E26CB88] [D7F6C9C5] CRC32
05 95,5 [9106A824] [F719E8F7] CRC32
06 97,7 [348F6960] [1BB1AC5E] CRC32
07 94,4 [95C39712] [5721D161] CRC32
08 99,9 [EB731260] [7D712702] CRC32

Thanks to RRC

See also: